  0
SECTION
  2
HEADER
  9
$ACADVER
  1
AC1027
  9
$ACADMAINTVER
 70
    55
  9
$DWGCODEPAGE
  3
ANSI_1252
  9
$LASTSAVEDBY
  1
ggruner
  9
$REQUIREDVERSIONS
160
                 0
  9
$INSBASE
 10
0.0
 20
0.0
 30
0.0
  9
$EXTMIN
 10
1.836381826161847
 20
-1.201312286094278
 30
-0.0015258207003583
  9
$EXTMAX
 10
17.2970378878674
 20
8.06404697375704
 30
0.0000000349246037
  9
$LIMMIN
 10
0.0
 20
0.0
  9
$LIMMAX
 10
12.0
 20
9.0
  9
$ORTHOMODE
 70
     1
  9
$REGENMODE
 70
     1
  9
$FILLMODE
 70
     1
  9
$QTEXTMODE
 70
     0
  9
$MIRRTEXT
 70
     1
  9
$LTSCALE
 40
1.0
  9
$ATTMODE
 70
     1
  9
$TEXTSIZE
 40
0.15
  9
$TRACEWID
 40
0.05
  9
$TEXTSTYLE
  7
STANDARD
  9
$CLAYER
  8
HIDDEN_LINE
  9
$CELTYPE
  6
BYLAYER
  9
$CECOLOR
 62
   256
  9
$CELTSCALE
 40
1.0
  9
$DISPSILH
 70
     0
  9
$DIMSCALE
 40
1.0
  9
$DIMASZ
 40
0.15
  9
$DIMEXO
 40
0.0625
  9
$DIMDLI
 40
0.38
  9
$DIMRND
 40
0.0
  9
$DIMDLE
 40
0.0
  9
$DIMEXE
 40
0.18
  9
$DIMTP
 40
0.0
  9
$DIMTM
 40
0.0
  9
$DIMTXT
 40
0.12
  9
$DIMCEN
 40
0.09
  9
$DIMTSZ
 40
0.0
  9
$DIMTOL
 70
     0
  9
$DIMLIM
 70
     0
  9
$DIMTIH
 70
     1
  9
$DIMTOH
 70
     1
  9
$DIMSE1
 70
     0
  9
$DIMSE2
 70
     0
  9
$DIMTAD
 70
     0
  9
$DIMZIN
 70
     4
  9
$DIMBLK
  1

  9
$DIMASO
 70
     1
  9
$DIMSHO
 70
     1
  9
$DIMPOST
  1

  9
$DIMAPOST
  1

  9
$DIMALT
 70
     0
  9
$DIMALTD
 70
     2
  9
$DIMALTF
 40
25.4
  9
$DIMLFAC
 40
1.0
  9
$DIMTOFL
 70
     0
  9
$DIMTVP
 40
0.0
  9
$DIMTIX
 70
     0
  9
$DIMSOXD
 70
     0
  9
$DIMSAH
 70
     0
  9
$DIMBLK1
  1

  9
$DIMBLK2
  1

  9
$DIMSTYLE
  2
STANDARD
  9
$DIMCLRD
 70
     0
  9
$DIMCLRE
 70
     0
  9
$DIMCLRT
 70
     0
  9
$DIMTFAC
 40
1.0
  9
$DIMGAP
 40
0.09
  9
$DIMJUST
 70
     0
  9
$DIMSD1
 70
     0
  9
$DIMSD2
 70
     0
  9
$DIMTOLJ
 70
     1
  9
$DIMTZIN
 70
     0
  9
$DIMALTZ
 70
     0
  9
$DIMALTTZ
 70
     0
  9
$DIMUPT
 70
     0
  9
$DIMDEC
 70
     3
  9
$DIMTDEC
 70
     4
  9
$DIMALTU
 70
     2
  9
$DIMALTTD
 70
     2
  9
$DIMTXSTY
  7
STANDARD
  9
$DIMAUNIT
 70
     0
  9
$DIMADEC
 70
     0
  9
$DIMALTRND
 40
0.0
  9
$DIMAZIN
 70
     0
  9
$DIMDSEP
 70
    46
  9
$DIMATFIT
 70
     3
  9
$DIMFRAC
 70
     0
  9
$DIMLDRBLK
  1

  9
$DIMLUNIT
 70
     2
  9
$DIMLWD
 70
    -2
  9
$DIMLWE
 70
    -2
  9
$DIMTMOVE
 70
     0
  9
$DIMFXL
 40
1.0
  9
$DIMFXLON
 70
     0
  9
$DIMJOGANG
 40
0.7853981633974483
  9
$DIMTFILL
 70
     0
  9
$DIMTFILLCLR
 70
     0
  9
$DIMARCSYM
 70
     0
  9
$DIMLTYPE
  6

  9
$DIMLTEX1
  6

  9
$DIMLTEX2
  6

  9
$DIMTXTDIRECTION
 70
     0
  9
$LUNITS
 70
     2
  9
$LUPREC
 70
     4
  9
$SKETCHINC
 40
0.1
  9
$FILLETRAD
 40
0.06
  9
$AUNITS
 70
     0
  9
$AUPREC
 70
     0
  9
$MENU
  1
acad
  9
$ELEVATION
 40
0.0
  9
$PELEVATION
 40
0.0
  9
$THICKNESS
 40
0.0
  9
$LIMCHECK
 70
     0
  9
$CHAMFERA
 40
0.03
  9
$CHAMFERB
 40
0.03
  9
$CHAMFERC
 40
1.0
  9
$CHAMFERD
 40
0.0
  9
$SKPOLY
 70
     0
  9
$TDCREATE
 40
2451956.613088542
  9
$TDUCREATE
 40
2451956.821421875
  9
$TDUPDATE
 40
2459226.436187778
  9
$TDUUPDATE
 40
2459226.644521111
  9
$TDINDWG
 40
0.0869292940
  9
$TDUSRTIMER
 40
0.0869291667
  9
$USRTIMER
 70
     1
  9
$ANGBASE
 50
0.0
  9
$ANGDIR
 70
     0
  9
$PDMODE
 70
     0
  9
$PDSIZE
 40
0.0
  9
$PLINEWID
 40
0.0
  9
$SPLFRAME
 70
     0
  9
$SPLINETYPE
 70
     6
  9
$SPLINESEGS
 70
     8
  9
$HANDSEED
  5
543
  9
$SURFTAB1
 70
     6
  9
$SURFTAB2
 70
     6
  9
$SURFTYPE
 70
     6
  9
$SURFU
 70
     6
  9
$SURFV
 70
     6
  9
$UCSBASE
  2

  9
$UCSNAME
  2

  9
$UCSORG
 10
0.0
 20
0.0
 30
0.0
  9
$UCSXDIR
 10
1.0
 20
0.0
 30
0.0
  9
$UCSYDIR
 10
0.0
 20
1.0
 30
0.0
  9
$UCSORTHOREF
  2

  9
$UCSORTHOVIEW
 70
     0
  9
$UCSORGTOP
 10
0.0
 20
0.0
 30
0.0
  9
$UCSORGBOTTOM
 10
0.0
 20
0.0
 30
0.0
  9
$UCSORGLEFT
 10
0.0
 20
0.0
 30
0.0
  9
$UCSORGRIGHT
 10
0.0
 20
0.0
 30
0.0
  9
$UCSORGFRONT
 10
0.0
 20
0.0
 30
0.0
  9
$UCSORGBACK
 10
0.0
 20
0.0
 30
0.0
  9
$PUCSBASE
  2

  9
$PUCSNAME
  2

  9
$PUCSORG
 10
0.0
 20
0.0
 30
0.0
  9
$PUCSXDIR
 10
1.0
 20
0.0
 30
0.0
  9
$PUCSYDIR
 10
0.0
 20
1.0
 30
0.0
  9
$PUCSORTHOREF
  2

  9
$PUCSORTHOVIEW
 70
     0
  9
$PUCSORGTOP
 10
0.0
 20
0.0
 30
0.0
  9
$PUCSORGBOTTOM
 10
0.0
 20
0.0
 30
0.0
  9
$PUCSORGLEFT
 10
0.0
 20
0.0
 30
0.0
  9
$PUCSORGRIGHT
 10
0.0
 20
0.0
 30
0.0
  9
$PUCSORGFRONT
 10
0.0
 20
0.0
 30
0.0
  9
$PUCSORGBACK
 10
0.0
 20
0.0
 30
0.0
  9
$USERI1
 70
     0
  9
$USERI2
 70
     0
  9
$USERI3
 70
     0
  9
$USERI4
 70
     0
  9
$USERI5
 70
     0
  9
$USERR1
 40
0.0
  9
$USERR2
 40
0.0
  9
$USERR3
 40
0.0
  9
$USERR4
 40
0.0
  9
$USERR5
 40
0.0
  9
$WORLDVIEW
 70
     1
  9
$SHADEDGE
 70
     3
  9
$SHADEDIF
 70
    70
  9
$TILEMODE
 70
     1
  9
$MAXACTVP
 70
    48
  9
$PINSBASE
 10
0.0
 20
0.0
 30
0.0
  9
$PLIMCHECK
 70
     0
  9
$PEXTMIN
 10
1.000000000000000E+20
 20
1.000000000000000E+20
 30
1.000000000000000E+20
  9
$PEXTMAX
 10
-1.000000000000000E+20
 20
-1.000000000000000E+20
 30
-1.000000000000000E+20
  9
$PLIMMIN
 10
0.0
 20
0.0
  9
$PLIMMAX
 10
12.0
 20
9.0
  9
$UNITMODE
 70
     0
  9
$VISRETAIN
 70
     1
  9
$PLINEGEN
 70
     0
  9
$PSLTSCALE
 70
     1
  9
$TREEDEPTH
 70
  3020
  9
$CMLSTYLE
  2
STANDARD
  9
$CMLJUST
 70
     0
  9
$CMLSCALE
 40
1.0
  9
$PROXYGRAPHICS
 70
     1
  9
$MEASUREMENT
 70
     0
  9
$CELWEIGHT
370
    -1
  9
$ENDCAPS
280
     0
  9
$JOINSTYLE
280
     0
  9
$LWDISPLAY
290
     0
  9
$INSUNITS
 70
     0
  9
$HYPERLINKBASE
  1

  9
$STYLESHEET
  1

  9
$XEDIT
290
     1
  9
$CEPSNTYPE
380
     0
  9
$PSTYLEMODE
290
     1
  9
$FINGERPRINTGUID
  2
{A2AFD09D-84A8-4089-8C12-1893F2F736D5}
  9
$VERSIONGUID
  2
{CED29F92-9AB0-4CF6-8E1E-BD37A96CAF37}
  9
$EXTNAMES
290
     1
  9
$PSVPSCALE
 40
0.0
  9
$OLESTARTUP
290
     0
  9
$SORTENTS
280
   127
  9
$INDEXCTL
280
     0
  9
$HIDETEXT
280
     0
  9
$XCLIPFRAME
280
     2
  9
$HALOGAP
280
     0
  9
$OBSCOLOR
 70
   257
  9
$OBSLTYPE
280
     0
  9
$INTERSECTIONDISPLAY
280
     0
  9
$INTERSECTIONCOLOR
 70
   257
  9
$DIMASSOC
280
     1
  9
$PROJECTNAME
  1

  9
$CAMERADISPLAY
290
     0
  9
$LENSLENGTH
 40
50.0
  9
$CAMERAHEIGHT
 40
0.0
  9
$STEPSPERSEC
 40
2.0
  9
$STEPSIZE
 40
6.0
  9
$3DDWFPREC
 40
2.0
  9
$PSOLWIDTH
 40
0.25
  9
$PSOLHEIGHT
 40
4.0
  9
$LOFTANG1
 40
1.570796326794896
  9
$LOFTANG2
 40
1.570796326794896
  9
$LOFTMAG1
 40
0.0
  9
$LOFTMAG2
 40
0.0
  9
$LOFTPARAM
 70
     7
  9
$LOFTNORMALS
280
     1
  9
$LATITUDE
 40
37.795
  9
$LONGITUDE
 40
-122.394
  9
$NORTHDIRECTION
 40
0.0
  9
$TIMEZONE
 70
 -8000
  9
$LIGHTGLYPHDISPLAY
280
     1
  9
$TILEMODELIGHTSYNCH
280
     1
  9
$CMATERIAL
347
4A6
  9
$SOLIDHIST
280
     0
  9
$SHOWHIST
280
     1
  9
$DWFFRAME
280
     2
  9
$DGNFRAME
280
     0
  9
$REALWORLDSCALE
290
     1
  9
$INTERFERECOLOR
 62
     1
  9
$INTERFEREOBJVS
345
4C8
  9
$INTERFEREVPVS
346
4C5
  9
$CSHADOW
280
     0
  9
$SHADOWPLANELOCATION
 40
0.0
  0
ENDSEC
  0
SECTION
  2
CLASSES
  0
CLASS
  1
ACDBDICTIONARYWDFLT
  2
AcDbDictionaryWithDefault
  3
ObjectDBX Classes
 90
        0
 91
        1
280
     0
281
     0
  0
CLASS
  1
MATERIAL
  2
AcDbMaterial
  3
ObjectDBX Classes
 90
     1153
 91
        3
280
     0
281
     0
  0
CLASS
  1
VISUALSTYLE
  2
AcDbVisualStyle
  3
ObjectDBX Classes
 90
     4095
 91
       24
280
     0
281
     0
  0
CLASS
  1
TABLESTYLE
  2
AcDbTableStyle
  3
ObjectDBX Classes
 90
     4095
 91
        1
280
     0
281
     0
  0
CLASS
  1
SCALE
  2
AcDbScale
  3
ObjectDBX Classes
 90
     1153
 91
       17
280
     0
281
     0
  0
CLASS
  1
MLEADERSTYLE
  2
AcDbMLeaderStyle
  3
ACDB_MLEADERSTYLE_CLASS
 90
     4095
 91
        1
280
     0
281
     0
  0
CLASS
  1
ACDBSECTIONVIEWSTYLE
  2
AcDbSectionViewStyle
  3
ObjectDBX Classes
 90
     1025
 91
        1
280
     0
281
     0
  0
CLASS
  1
ACDBDETAILVIEWSTYLE
  2
AcDbDetailViewStyle
  3
ObjectDBX Classes
 90
     1025
 91
        1
280
     0
281
     0
  0
CLASS
  1
DICTIONARYVAR
  2
AcDbDictionaryVar
  3
ObjectDBX Classes
 90
        0
 91
        9
280
     0
281
     0
  0
CLASS
  1
CELLSTYLEMAP
  2
AcDbCellStyleMap
  3
ObjectDBX Classes
 90
     1152
 91
        1
280
     0
281
     0
  0
ENDSEC
  0
SECTION
  2
TABLES
  0
TABLE
  2
VPORT
  5
8
330
0
100
AcDbSymbolTable
 70
     1
  0
VPORT
  5
49B
330
8
100
AcDbSymbolTableRecord
100
AcDbViewportTableRecord
  2
*ACTIVE
 70
     0
 10
0.0
 20
0.0
 11
1.0
 21
1.0
 12
13.84338366112321
 22
3.300112999999999
 13
0.0
 23
0.0
 14
0.5
 24
0.5
 15
0.5
 25
0.5
 16
0.0
 26
0.0
 36
1.0
 17
0.0
 27
0.0
 37
0.0
 40
10.343243
 41
2.53012048192771
 42
50.0
 43
0.0
 44
0.0
 50
0.0
 51
0.0
 71
     0
 72
   100
 73
     1
 74
     1
 75
     0
 76
     0
 77
     0
 78
     0
281
     0
 65
     1
110
0.0
120
0.0
130
0.0
111
1.0
121
0.0
131
0.0
112
0.0
122
1.0
132
0.0
 79
     0
146
0.0
348
4C4
 60
     3
 61
     5
292
     1
282
     1
141
0.0
142
0.0
 63
   250
421
  3355443
1001
ACAD_NAV_VCDISPLAY
1070
     3
  0
ENDTAB
  0
TABLE
  2
LTYPE
  5
5
330
0
100
AcDbSymbolTable
 70
     5
  0
LTYPE
  5
12
330
5
100
AcDbSymbolTableRecord
100
AcDbLinetypeTableRecord
  2
BYBLOCK
 70
     0
  3

 72
    65
 73
     0
 40
0.0
  0
LTYPE
  5
13
330
5
100
AcDbSymbolTableRecord
100
AcDbLinetypeTableRecord
  2
BYLAYER
 70
     0
  3

 72
    65
 73
     0
 40
0.0
  0
LTYPE
  5
14
330
5
100
AcDbSymbolTableRecord
100
AcDbLinetypeTableRecord
  2
CONTINUOUS
 70
     0
  3
Solid line
 72
    65
 73
     0
 40
0.0
  0
LTYPE
  5
20
330
5
100
AcDbSymbolTableRecord
100
AcDbLinetypeTableRecord
  2
CENTER
 70
     0
  3
Center ____ _ ____ _ ____ _ ____ _ ____ _ ____
 72
    65
 73
     4
 40
2.0
 49
1.25
 74
     0
 49
-0.25
 74
     0
 49
0.25
 74
     0
 49
-0.25
 74
     0
  0
LTYPE
  5
21
330
5
100
AcDbSymbolTableRecord
100
AcDbLinetypeTableRecord
  2
ACAD_ISO02W100
 70
     0
  3
ISO dash __ __ __ __ __ __ __ __ __ __ __ __ __
 72
    65
 73
     2
 40
15.0
 49
12.0
 74
     0
 49
-3.0
 74
     0
  0
LTYPE
  5
1A0
330
5
100
AcDbSymbolTableRecord
100
AcDbLinetypeTableRecord
  2
HIDDEN2
 70
     0
  3
Hidden (.5x) _ _ _ _ _ _ _ _ _ _ _ _ _ _ _ _ _
 72
    65
 73
     2
 40
0.1875
 49
0.125
 74
     0
 49
-0.0625
 74
     0
  0
ENDTAB
  0
TABLE
  2
LAYER
  5
2
330
0
100
AcDbSymbolTable
 70
     7
  0
LAYER
  5
E
102
{ACAD_XDICTIONARY
360
525
102
}
330
2
100
AcDbSymbolTableRecord
100
AcDbLayerTableRecord
  2
0
 70
     0
 62
     7
  6
CONTINUOUS
370
    -3
390
4A4
347
4B6
348
0
  0
LAYER
  5
22
102
{ACAD_XDICTIONARY
360
527
102
}
330
2
100
AcDbSymbolTableRecord
100
AcDbLayerTableRecord
  2
TB
 70
     0
 62
     7
  6
CONTINUOUS
370
    -3
390
4A4
347
4B6
348
0
  0
LAYER
  5
23
102
{ACAD_XDICTIONARY
360
529
102
}
330
2
100
AcDbSymbolTableRecord
100
AcDbLayerTableRecord
  2
CTR_LINES
 70
     0
 62
     1
  6
CENTER
370
    -3
390
4A4
347
4B6
348
0
  0
LAYER
  5
24
102
{ACAD_XDICTIONARY
360
52B
102
}
330
2
100
AcDbSymbolTableRecord
100
AcDbLayerTableRecord
  2
HATCH
 70
     0
 62
     5
  6
CONTINUOUS
370
    -3
390
4A4
347
4B6
348
0
  0
LAYER
  5
1A1
102
{ACAD_XDICTIONARY
360
52D
102
}
330
2
100
AcDbSymbolTableRecord
100
AcDbLayerTableRecord
  2
DIMS_TEXT
 70
     0
 62
     3
  6
CONTINUOUS
370
    -3
390
4A4
347
4B6
348
0
  0
LAYER
  5
1A2
102
{ACAD_XDICTIONARY
360
52F
102
}
330
2
100
AcDbSymbolTableRecord
100
AcDbLayerTableRecord
  2
HIDDEN_LINE
 70
     0
 62
     4
  6
HIDDEN2
370
    -3
390
4A4
347
4B6
348
0
  0
LAYER
  5
1AC
330
2
100
AcDbSymbolTableRecord
100
AcDbLayerTableRecord
  2
DEFPOINTS
 70
     0
 62
     7
  6
CONTINUOUS
290
     0
370
    -3
390
4A4
347
4B6
348
0
  0
ENDTAB
  0
TABLE
  2
STYLE
  5
3
330
0
100
AcDbSymbolTable
 70
     2
  0
STYLE
  5
F
330
3
100
AcDbSymbolTableRecord
100
AcDbTextStyleTableRecord
  2
STANDARD
 70
     0
 40
0.0
 41
1.0
 50
0.0
 71
     0
 42
0.15
  3
txt
  4

  0
STYLE
  5
19F
330
3
100
AcDbSymbolTableRecord
100
AcDbTextStyleTableRecord
  2

 70
     1
 40
0.0
 41
1.0
 50
0.0
 71
     0
 42
0.2
  3
ltypeshp.shx
  4

  0
ENDTAB
  0
TABLE
  2
VIEW
  5
6
330
0
100
AcDbSymbolTable
 70
     0
  0
ENDTAB
  0
TABLE
  2
UCS
  5
7
330
0
100
AcDbSymbolTable
 70
     0
  0
ENDTAB
  0
TABLE
  2
APPID
  5
9
330
0
100
AcDbSymbolTable
 70
     4
  0
APPID
  5
10
330
9
100
AcDbSymbolTableRecord
100
AcDbRegAppTableRecord
  2
ACAD
 70
     0
  0
APPID
  5
50E
330
9
100
AcDbSymbolTableRecord
100
AcDbRegAppTableRecord
  2
AcadAnnoMonitorAlertIconDisabled
 70
     0
  0
APPID
  5
50F
330
9
100
AcDbSymbolTableRecord
100
AcDbRegAppTableRecord
  2
ACAD_EXEMPT_FROM_CAD_STANDARDS
 70
     0
  0
APPID
  5
53B
330
9
100
AcDbSymbolTableRecord
100
AcDbRegAppTableRecord
  2
ACAD_NAV_VCDISPLAY
 70
     0
  0
ENDTAB
  0
TABLE
  2
DIMSTYLE
  5
A
330
0
100
AcDbSymbolTable
 70
     1
100
AcDbDimStyleTable
 71
     0
  0
DIMSTYLE
105
1D
102
{ACAD_REACTORS
330
1B0
330
1C9
330
217
330
231
330
24B
330
258
330
266
330
28B
330
2A5
330
2CB
330
2F1
330
317
330
331
330
36F
330
37D
330
3A1
102
}
330
A
100
AcDbSymbolTableRecord
100
AcDbDimStyleTableRecord
  2
STANDARD
 70
     0
340
F
  0
ENDTAB
  0
TABLE
  2
BLOCK_RECORD
  5
1
330
0
100
AcDbSymbolTable
 70
    18
  0
BLOCK_RECORD
  5
18
330
1
100
AcDbSymbolTableRecord
100
AcDbBlockTableRecord
  2
*MODEL_SPACE
340
4F4
 70
     0
280
     1
281
     0
  0
BLOCK_RECORD
  5
15
330
1
100
AcDbSymbolTableRecord
100
AcDbBlockTableRecord
  2
*PAPER_SPACE
340
4F5
 70
     0
280
     1
281
     0
  0
BLOCK_RECORD
  5
25
330
1
100
AcDbSymbolTableRecord
100
AcDbBlockTableRecord
  2
BOB
340
0
 70
     0
280
     1
281
     0
  0
BLOCK_RECORD
  5
1A4
330
1
100
AcDbSymbolTableRecord
100
AcDbBlockTableRecord
  2
*D1
340
0
 70
     0
280
     1
281
     0
  0
BLOCK_RECORD
  5
1BB
330
1
100
AcDbSymbolTableRecord
100
AcDbBlockTableRecord
  2
*D2
340
0
 70
     0
280
     1
281
     0
  0
BLOCK_RECORD
  5
20A
330
1
100
AcDbSymbolTableRecord
100
AcDbBlockTableRecord
  2
*D3
340
0
 70
     0
280
     1
281
     0
  0
BLOCK_RECORD
  5
224
330
1
100
AcDbSymbolTableRecord
100
AcDbBlockTableRecord
  2
*D4
340
0
 70
     0
280
     1
281
     0
  0
BLOCK_RECORD
  5
23E
330
1
100
AcDbSymbolTableRecord
100
AcDbBlockTableRecord
  2
*D5
340
0
 70
     0
280
     1
281
     0
  0
BLOCK_RECORD
  5
24C
330
1
100
AcDbSymbolTableRecord
100
AcDbBlockTableRecord
  2
*D6
340
0
 70
     0
280
     1
281
     0
  0
BLOCK_RECORD
  5
259
330
1
100
AcDbSymbolTableRecord
100
AcDbBlockTableRecord
  2
*D7
340
0
 70
     0
280
     1
281
     0
  0
BLOCK_RECORD
  5
27E
330
1
100
AcDbSymbolTableRecord
100
AcDbBlockTableRecord
  2
*D8
340
0
 70
     0
280
     1
281
     0
  0
BLOCK_RECORD
  5
298
330
1
100
AcDbSymbolTableRecord
100
AcDbBlockTableRecord
  2
*D9
340
0
 70
     0
280
     1
281
     0
  0
BLOCK_RECORD
  5
2BE
330
1
100
AcDbSymbolTableRecord
100
AcDbBlockTableRecord
  2
*D10
340
0
 70
     0
280
     1
281
     0
  0
BLOCK_RECORD
  5
2E4
330
1
100
AcDbSymbolTableRecord
100
AcDbBlockTableRecord
  2
*D11
340
0
 70
     0
280
     1
281
     0
  0
BLOCK_RECORD
  5
30A
330
1
100
AcDbSymbolTableRecord
100
AcDbBlockTableRecord
  2
*D12
340
0
 70
     0
280
     1
281
     0
  0
BLOCK_RECORD
  5
324
330
1
100
AcDbSymbolTableRecord
100
AcDbBlockTableRecord
  2
*D13
340
0
 70
     0
280
     1
281
     0
  0
BLOCK_RECORD
  5
362
330
1
100
AcDbSymbolTableRecord
100
AcDbBlockTableRecord
  2
*D14
340
0
 70
     0
280
     1
281
     0
  0
BLOCK_RECORD
  5
370
330
1
100
AcDbSymbolTableRecord
100
AcDbBlockTableRecord
  2
*D15
340
0
 70
     0
280
     1
281
     0
  0
BLOCK_RECORD
  5
396
330
1
100
AcDbSymbolTableRecord
100
AcDbBlockTableRecord
  2
*D16
340
0
 70
     0
280
     1
281
     0
  0
BLOCK_RECORD
  5
47A
330
1
100
AcDbSymbolTableRecord
100
AcDbBlockTableRecord
  2
TITLE_BLOCK
340
0
 70
     0
280
     1
281
     0
  0
ENDTAB
  0
ENDSEC
  0
SECTION
  2
BLOCKS
  0
BLOCK
  5
19
330
18
100
AcDbEntity
  8
0
100
AcDbBlockBegin
  2
*MODEL_SPACE
 70
     0
 10
0.0
 20
0.0
 30
0.0
  3
*MODEL_SPACE
  1

  0
ENDBLK
  5
1A
330
18
100
AcDbEntity
  8
0
100
AcDbBlockEnd
  0
BLOCK
  5
16
330
15
100
AcDbEntity
 67
     1
  8
0
100
AcDbBlockBegin
  2
*PAPER_SPACE
 70
     0
 10
0.0
 20
0.0
 30
0.0
  3
*PAPER_SPACE
  1

  0
ENDBLK
  5
17
330
15
100
AcDbEntity
 67
     1
  8
0
100
AcDbBlockEnd
  0
BLOCK
  5
C6
330
25
100
AcDbEntity
  8
0
100
AcDbBlockBegin
  2
BOB
 70
     0
 10
0.0
 20
0.0
 30
0.0
  3
BOB
  1

  0
LINE
  5
26
330
25
100
AcDbEntity
  8
0
100
AcDbLine
 10
-4.736689
 20
-1.313
 30
0.0
 11
-4.736689
 21
-0.473121
 31
0.0
  0
LINE
  5
27
330
25
100
AcDbEntity
  8
0
100
AcDbLine
 10
-3.111689
 20
-1.313
 30
0.0
 11
-3.111689
 21
-0.472158
 31
0.0
  0
LINE
  5
28
330
25
100
AcDbEntity
  8
0
100
AcDbLine
 10
3.375
 20
0.9379999999999999
 30
0.0
 11
3.375
 21
-0.9379999999999999
 31
0.0
  0
LINE
  5
29
330
25
100
AcDbEntity
  8
CTR_LINES
100
AcDbLine
 10
1.0
 20
1.106225
 30
0.0
 11
1.0
 21
-3.320389
 31
0.0
  0
LINE
  5
2A
330
25
100
AcDbEntity
  8
CTR_LINES
100
AcDbLine
 10
2.75
 20
1.135847999999999
 30
0.0
 11
2.75
 21
-3.320389
 31
0.0
  0
LINE
  5
2B
330
25
100
AcDbEntity
  8
CTR_LINES
100
AcDbLine
 10
-4.486188999999999
 20
-3.133224999999999
 30
0.0
 11
-4.486188999999999
 21
1.607831
 31
0.0
  0
LINE
  5
2C
330
25
100
AcDbEntity
  8
CTR_LINES
100
AcDbLine
 10
-3.362188999999999
 20
-3.133224999999999
 30
0.0
 11
-3.362188999999999
 21
1.607831
 31
0.0
  0
CIRCLE
  5
2D
330
25
100
AcDbEntity
  8
0
100
AcDbCircle
 10
-3.924189
 20
0.0
 30
0.0
 40
0.63
  0
LINE
  5
2E
330
25
100
AcDbEntity
  8
0
100
AcDbLine
 10
-4.798688999999999
 20
-1.187
 30
0.0
 11
-4.798688999999999
 21
-0.5629999999999999
 31
0.0
  0
LINE
  5
2F
330
25
100
AcDbEntity
  8
0
100
AcDbLine
 10
-3.046663999999999
 20
-1.187
 30
0.0
 11
-3.046663999999999
 21
-0.5629999999999999
 31
0.0
  0
LINE
  5
30
330
25
100
AcDbEntity
  8
CTR_LINES
100
AcDbLine
 10
-3.924189
 20
-5.111966
 30
0.0
 11
-3.924189
 21
3.050945999999999
 31
0.0
  0
ARC
  5
31
330
25
100
AcDbEntity
  8
0
100
AcDbCircle
 10
0.312
 20
-0.6550000000000001
 30
0.0
 40
0.062
100
AcDbArc
 50
90.0
 51
180.0
  0
ARC
  5
32
330
25
100
AcDbEntity
  8
0
100
AcDbCircle
 10
0.6254999999999999
 20
-0.6550000000000001
 30
0.0
 40
0.062
100
AcDbArc
 50
0.0
 51
90.0
  0
ARC
  5
33
330
25
100
AcDbEntity
  8
0
100
AcDbCircle
 10
3.124499999999999
 20
-0.6550000000000001
 30
0.0
 40
0.062
100
AcDbArc
 50
90.0
 51
180.0
  0
CIRCLE
  5
34
330
25
100
AcDbEntity
  8
0
100
AcDbCircle
 10
2.75
 20
-0.875
 30
0.0
 40
0.3125
  0
CIRCLE
  5
35
330
25
100
AcDbEntity
  8
0
100
AcDbCircle
 10
1.0
 20
-0.875
 30
0.0
 40
0.3125
  0
LINE
  5
36
330
25
100
AcDbEntity
  8
CTR_LINES
100
AcDbLine
 10
1.0
 20
1.106225
 30
0.0
 11
1.0
 21
-1.397063999999999
 31
0.0
  0
LINE
  5
37
330
25
100
AcDbEntity
  8
CTR_LINES
100
AcDbLine
 10
2.75
 20
1.168339
 30
0.0
 11
2.75
 21
-1.397063999999999
 31
0.0
  0
LINE
  5
38
330
25
100
AcDbEntity
  8
0
100
AcDbLine
 10
0.0
 20
1.375
 30
0.0
 11
0.0
 21
-1.375
 31
0.0
  0
LEADER
  5
39
330
25
100
AcDbEntity
  8
CTR_LINES
  6
Continuous
100
AcDbLeader
  3
STANDARD
 76
     2
 10
-4.841826999999999
 20
-5.111966
 30
0.0
 10
-3.890629
 20
-5.111966
 30
0.0
1001
ACAD
1000
DSTYLE
1002
{
1070
    78
1070
     4
1070
   284
1070
     4
1070
   140
1040
0.15
1070
   272
1070
     0
1070
   271
1070
     3
1002
}
  0
TEXT
  5
3A
330
25
100
AcDbEntity
  8
CTR_LINES
100
AcDbText
 10
-5.058008999999999
 20
-5.190379
 30
0.0
 40
0.18
  1
A
100
AcDbText
  0
ARC
  5
3B
330
25
100
AcDbEntity
  8
0
100
AcDbCircle
 10
-4.236188999999999
 20
-2.563
 30
0.0
 40
0.062
100
AcDbArc
 50
270.0
 51
0.0
  0
ARC
  5
3C
330
25
100
AcDbEntity
  8
0
100
AcDbCircle
 10
-3.612188999999999
 20
-2.563
 30
0.0
 40
0.062
100
AcDbArc
 50
180.0
 51
270.0
  0
LINE
  5
3D
330
25
100
AcDbEntity
  8
0
100
AcDbLine
 10
-3.111689
 20
-2.875
 30
0.0
 11
-3.111689
 21
-1.313
 31
0.0
  0
LINE
  5
3E
330
25
100
AcDbEntity
  8
0
100
AcDbLine
 10
-4.736689
 20
-2.875
 30
0.0
 11
-4.736689
 21
-1.313
 31
0.0
  0
LINE
  5
3F
330
25
100
AcDbEntity
  8
0
100
AcDbLine
 10
-4.236188999999999
 20
-2.625
 30
0.0
 11
-3.612188999999999
 21
-2.625
 31
0.0
  0
LINE
  5
40
330
25
100
AcDbEntity
  8
0
100
AcDbLine
 10
-4.736689
 20
-2.875
 30
0.0
 11
-3.111689
 21
-2.875
 31
0.0
  0
LINE
  5
41
330
25
100
AcDbEntity
  8
0
100
AcDbLine
 10
-4.674688999999999
 20
-2.625
 30
0.0
 11
-4.236188999999999
 21
-2.625
 31
0.0
  0
LINE
  5
42
330
25
100
AcDbEntity
  8
0
100
AcDbLine
 10
-4.736689
 20
-2.875
 30
0.0
 11
-4.736689
 21
-2.686999999999999
 31
0.0
  0
ARC
  5
43
330
25
100
AcDbEntity
  8
0
100
AcDbCircle
 10
-4.674688999999999
 20
-2.686999999999999
 30
0.0
 40
0.062
100
AcDbArc
 50
90.0
 51
180.0
  0
ARC
  5
44
330
25
100
AcDbEntity
  8
0
100
AcDbCircle
 10
-3.173688999999999
 20
-2.686999999999999
 30
0.0
 40
0.062
100
AcDbArc
 50
0.0
 51
90.0
  0
LINE
  5
45
330
25
100
AcDbEntity
  8
0
100
AcDbLine
 10
-3.612188999999999
 20
-2.625
 30
0.0
 11
-3.173688999999999
 21
-2.625
 31
0.0
  0
LINE
  5
46
330
25
100
AcDbEntity
  8
0
100
AcDbLine
 10
-3.111689
 20
-2.875
 30
0.0
 11
-3.111689
 21
-2.686999999999999
 31
0.0
  0
LINE
  5
47
330
25
100
AcDbEntity
  8
CTR_LINES
100
AcDbLine
 10
-5.311568
 20
-1.125
 30
0.0
 11
-2.774861999999999
 21
-1.125
 31
0.0
  0
LINE
  5
48
330
25
100
AcDbEntity
  8
CTR_LINES
100
AcDbLine
 10
-5.311568
 20
-1.125
 30
0.0
 11
-2.66957
 21
-1.125
 31
0.0
  0
LINE
  5
49
330
25
100
AcDbEntity
  8
0
100
AcDbLine
 10
-4.674688999999999
 20
-1.375
 30
0.0
 11
-3.173688999999999
 21
-1.375
 31
0.0
  0
LINE
  5
4A
330
25
100
AcDbEntity
  8
0
100
AcDbLine
 10
-4.174189
 20
-2.563
 30
0.0
 11
-4.174189
 21
-1.375
 31
0.0
  0
CIRCLE
  5
4B
330
25
100
AcDbEntity
  8
0
100
AcDbCircle
 10
-4.486188999999999
 20
-1.125
 30
0.0
 40
0.1325
  0
ARC
  5
4C
330
25
100
AcDbEntity
  8
0
100
AcDbCircle
 10
-4.674688999999999
 20
-1.313
 30
0.0
 40
0.062
100
AcDbArc
 50
180.0
 51
270.0
  0
LINE
  5
4D
330
25
100
AcDbEntity
  8
0
100
AcDbLine
 10
-4.798688999999999
 20
-1.187
 30
0.0
 11
-4.736689
 21
-1.187
 31
0.0
  0
LINE
  5
4E
330
25
100
AcDbEntity
  8
0
100
AcDbLine
 10
-3.674189
 20
-2.563
 30
0.0
 11
-3.674189
 21
-1.375
 31
0.0
  0
ARC
  5
4F
330
25
100
AcDbEntity
  8
0
100
AcDbCircle
 10
-3.173688999999999
 20
-1.313
 30
0.0
 40
0.062
100
AcDbArc
 50
270.0
 51
0.0
  0
CIRCLE
  5
50
330
25
100
AcDbEntity
  8
0
100
AcDbCircle
 10
-3.362188999999999
 20
-1.125
 30
0.0
 40
0.1325
  0
LINE
  5
51
330
25
100
AcDbEntity
  8
0
100
AcDbLine
 10
-3.111689
 20
-1.313
 30
0.0
 11
-3.111689
 21
-1.313
 31
0.0
  0
LINE
  5
52
330
25
100
AcDbEntity
  8
0
100
AcDbLine
 10
-3.111689
 20
-1.187
 30
0.0
 11
-3.049688999999999
 21
-1.187
 31
0.0
  0
LINE
  5
53
330
25
100
AcDbEntity
  8
CTR_LINES
100
AcDbLine
 10
-0.21442
 20
-0.875
 30
0.0
 11
4.085186
 21
-0.875
 31
0.0
  0
LINE
  5
54
330
25
100
AcDbEntity
  8
0
100
AcDbLine
 10
0.5
 20
-2.875
 30
0.0
 11
3.25
 21
-2.875
 31
0.0
  0
LINE
  5
55
330
25
100
AcDbEntity
  8
0
100
AcDbLine
 10
1.0
 20
-1.1875
 30
0.0
 11
1.219999999999999
 21
-1.1875
 31
0.0
  0
LINE
  5
56
330
25
100
AcDbEntity
  8
0
100
AcDbLine
 10
0.8129999999999999
 20
-2.625
 30
0.0
 11
1.219999999999999
 21
-2.625
 31
0.0
  0
ARC
  5
57
330
25
100
AcDbEntity
  8
0
100
AcDbCircle
 10
0.8129999999999999
 20
-2.563
 30
0.0
 40
0.062
100
AcDbArc
 50
270.0
 51
0.0
  0
LINE
  5
58
330
25
100
AcDbEntity
  8
0
100
AcDbLine
 10
0.5620000000000001
 20
-2.625
 30
0.0
 11
0.8129999999999999
 21
-2.625
 31
0.0
  0
LINE
  5
59
330
25
100
AcDbEntity
  8
0
100
AcDbLine
 10
0.5
 20
-2.686999999999999
 30
0.0
 11
0.5
 21
-2.875
 31
0.0
  0
ARC
  5
5A
330
25
100
AcDbEntity
  8
0
100
AcDbCircle
 10
0.5620000000000001
 20
-2.686999999999999
 30
0.0
 40
0.062
100
AcDbArc
 50
90.0
 51
180.0
  0
LINE
  5
5B
330
25
100
AcDbEntity
  8
0
100
AcDbLine
 10
0.875
 20
-1.199470999999999
 30
0.0
 11
0.875
 21
-2.563
 31
0.0
  0
LINE
  5
5C
330
25
100
AcDbEntity
  8
0
100
AcDbLine
 10
0.312
 20
-0.593
 30
0.0
 11
0.6254999999999999
 21
-0.593
 31
0.0
  0
LINE
  5
5D
330
25
100
AcDbEntity
  8
0
100
AcDbLine
 10
0.312
 20
-1.0
 30
0.0
 11
0.6755290000000001
 21
-1.0
 31
0.0
  0
LINE
  5
5E
330
25
100
AcDbEntity
  8
0
100
AcDbLine
 10
0.25
 20
-1.062
 30
0.0
 11
0.25
 21
-1.313
 31
0.0
  0
ARC
  5
5F
330
25
100
AcDbEntity
  8
0
100
AcDbCircle
 10
0.188
 20
-1.313
 30
0.0
 40
0.062
100
AcDbArc
 50
270.0
 51
0.0
  0
LINE
  5
60
330
25
100
AcDbEntity
  8
0
100
AcDbLine
 10
0.0
 20
-1.375
 30
0.0
 11
0.188
 21
-1.375
 31
0.0
  0
LINE
  5
61
330
25
100
AcDbEntity
  8
0
100
AcDbLine
 10
0.25
 20
-0.6550000000000001
 30
0.0
 11
0.25
 21
-1.062
 31
0.0
  0
ARC
  5
62
330
25
100
AcDbEntity
  8
0
100
AcDbCircle
 10
0.312
 20
-1.062
 30
0.0
 40
0.062
100
AcDbArc
 50
90.0
 51
180.0
  0
LINE
  5
63
330
25
100
AcDbEntity
  8
0
100
AcDbLine
 10
0.845077
 20
-1.146731999999999
 30
0.0
 11
0.838244
 21
-1.138808999999999
 31
0.0
  0
ARC
  5
64
330
25
100
AcDbEntity
  8
0
100
AcDbCircle
 10
0.8129999999999999
 20
-1.199470999999999
 30
0.0
 40
0.062
100
AcDbArc
 50
0.0
 51
60.044155
  0
LINE
  5
65
330
25
100
AcDbEntity
  8
0
100
AcDbLine
 10
0.6875
 20
-0.875
 30
0.0
 11
0.6875
 21
-0.6550000000000001
 31
0.0
  0
LINE
  5
66
330
25
100
AcDbEntity
  8
0
100
AcDbLine
 10
0.729219
 20
-1.030389999999999
 30
0.0
 11
0.7393420000000001
 21
-1.041457999999999
 31
0.0
  0
LINE
  5
67
330
25
100
AcDbEntity
  8
0
100
AcDbLine
 10
0.729247
 20
-1.031041
 30
0.0
 11
0.729247
 21
-1.031041
 31
0.0
  0
ARC
  5
68
330
25
100
AcDbEntity
  8
0
100
AcDbCircle
 10
0.6755290000000001
 20
-1.062
 30
0.0
 40
0.062
100
AcDbArc
 50
29.95584500000001
 51
90.0
  0
CIRCLE
  5
69
330
25
100
AcDbEntity
  8
0
100
AcDbCircle
 10
1.0
 20
-0.875
 30
0.0
 40
0.1325
  0
ARC
  5
6A
330
25
100
AcDbEntity
  8
0
100
AcDbCircle
 10
1.219999999999999
 20
-2.563
 30
0.0
 40
0.062
100
AcDbArc
 50
270.0
 51
0.0
  0
ARC
  5
6B
330
25
100
AcDbEntity
  8
0
100
AcDbCircle
 10
2.529999999999999
 20
-2.563
 30
0.0
 40
0.062
100
AcDbArc
 50
180.0
 51
270.0
  0
ARC
  5
6C
330
25
100
AcDbEntity
  8
0
100
AcDbCircle
 10
2.936999999999999
 20
-2.563
 30
0.0
 40
0.062
100
AcDbArc
 50
180.0
 51
270.0
  0
LINE
  5
6D
330
25
100
AcDbEntity
  8
0
100
AcDbLine
 10
2.529999999999999
 20
-2.625
 30
0.0
 11
2.936999999999999
 21
-2.625
 31
0.0
  0
LINE
  5
6E
330
25
100
AcDbEntity
  8
0
100
AcDbLine
 10
3.25
 20
-2.686999999999999
 30
0.0
 11
3.25
 21
-2.875
 31
0.0
  0
LINE
  5
6F
330
25
100
AcDbEntity
  8
0
100
AcDbLine
 10
2.936999999999999
 20
-2.625
 30
0.0
 11
3.188
 21
-2.625
 31
0.0
  0
ARC
  5
70
330
25
100
AcDbEntity
  8
0
100
AcDbCircle
 10
3.188
 20
-2.686999999999999
 30
0.0
 40
0.062
100
AcDbArc
 50
0.0
 51
90.0
  0
LINE
  5
71
330
25
100
AcDbEntity
  8
0
100
AcDbLine
 10
1.281999999999999
 20
-1.2495
 30
0.0
 11
1.281999999999999
 21
-2.563
 31
0.0
  0
LINE
  5
72
330
25
100
AcDbEntity
  8
0
100
AcDbLine
 10
2.467999999999999
 20
-1.2495
 30
0.0
 11
2.467999999999999
 21
-2.563
 31
0.0
  0
LINE
  5
73
330
25
100
AcDbEntity
  8
0
100
AcDbLine
 10
2.875
 20
-1.199470999999999
 30
0.0
 11
2.875
 21
-2.563
 31
0.0
  0
ARC
  5
74
330
25
100
AcDbEntity
  8
0
100
AcDbCircle
 10
1.219999999999999
 20
-1.2495
 30
0.0
 40
0.062
100
AcDbArc
 50
0.0
 51
90.0
  0
ARC
  5
75
330
25
100
AcDbEntity
  8
0
100
AcDbCircle
 10
2.529999999999999
 20
-1.2495
 30
0.0
 40
0.062
100
AcDbArc
 50
90.0
 51
180.0
  0
LINE
  5
76
330
25
100
AcDbEntity
  8
0
100
AcDbLine
 10
2.529999999999999
 20
-1.1875
 30
0.0
 11
2.75
 21
-1.1875
 31
0.0
  0
ARC
  5
77
330
25
100
AcDbEntity
  8
0
100
AcDbCircle
 10
2.936999999999999
 20
-1.199470999999999
 30
0.0
 40
0.062
100
AcDbArc
 50
119.955845
 51
180.0
  0
CIRCLE
  5
78
330
25
100
AcDbEntity
  8
0
100
AcDbCircle
 10
2.75
 20
-0.875
 30
0.0
 40
0.1325
  0
ARC
  5
79
330
25
100
AcDbEntity
  8
0
100
AcDbCircle
 10
3.313
 20
-0.9379999999999999
 30
0.0
 40
0.062
100
AcDbArc
 50
270.0
 51
0.0
  0
LINE
  5
7A
330
25
100
AcDbEntity
  8
0
100
AcDbLine
 10
3.124499999999999
 20
-0.593
 30
0.0
 11
3.375
 21
-0.593
 31
0.0
  0
LINE
  5
7B
330
25
100
AcDbEntity
  8
0
100
AcDbLine
 10
3.0625
 20
-0.875
 30
0.0
 11
3.0625
 21
-0.6550000000000001
 31
0.0
  0
LINE
  5
7C
330
25
100
AcDbEntity
  8
0
100
AcDbLine
 10
3.074470999999999
 20
-1.0
 30
0.0
 11
3.313
 21
-1.0
 31
0.0
  0
ARC
  5
7D
330
25
100
AcDbEntity
  8
0
100
AcDbCircle
 10
3.074470999999999
 20
-1.062
 30
0.0
 40
0.062
100
AcDbArc
 50
90.0
 51
150.044155
  0
LEADER
  5
7E
330
25
100
AcDbEntity
  8
CTR_LINES
  6
Continuous
100
AcDbLeader
  3
STANDARD
 76
     2
 10
-4.782125999999999
 20
3.050945999999999
 30
0.0
 10
-3.923869
 20
3.050945999999999
 30
0.0
1001
ACAD
1000
DSTYLE
1002
{
1070
    78
1070
     4
1070
   284
1070
     4
1070
   140
1040
0.15
1070
   272
1070
     0
1070
   271
1070
     3
1002
}
  0
LINE
  5
7F
330
25
100
AcDbEntity
  8
CTR_LINES
100
AcDbLine
 10
-5.311568
 20
0.0
 30
0.0
 11
4.028293999999999
 21
0.0
 31
0.0
  0
LINE
  5
80
330
25
100
AcDbEntity
  8
CTR_LINES
100
AcDbLine
 10
-5.311568
 20
1.125
 30
0.0
 11
-2.774861999999999
 21
1.125
 31
0.0
  0
LINE
  5
81
330
25
100
AcDbEntity
  8
CTR_LINES
100
AcDbLine
 10
-5.311568
 20
1.125
 30
0.0
 11
-2.66957
 21
1.125
 31
0.0
  0
LINE
  5
82
330
25
100
AcDbEntity
  8
0
100
AcDbLine
 10
-4.674688999999999
 20
1.375
 30
0.0
 11
-3.173688999999999
 21
1.375
 31
0.0
  0
LINE
  5
83
330
25
100
AcDbEntity
  8
0
100
AcDbLine
 10
-4.736689
 20
-0.473121
 30
0.0
 11
-4.736689
 21
0.473121
 31
0.0
  0
LINE
  5
84
330
25
100
AcDbEntity
  8
0
100
AcDbLine
 10
-4.736689
 20
-0.501
 30
0.0
 11
-4.736689
 21
0.5
 31
0.0
  0
ARC
  5
85
330
25
100
AcDbEntity
  8
0
100
AcDbCircle
 10
-4.798688999999999
 20
-0.501
 30
0.0
 40
0.062
100
AcDbArc
 50
270.0
 51
0.0
  0
LINE
  5
86
330
25
100
AcDbEntity
  8
0
100
AcDbLine
 10
-4.798688999999999
 20
-0.5629999999999999
 30
0.0
 11
-4.798688999999999
 21
-0.5629999999999999
 31
0.0
  0
LINE
  5
87
330
25
100
AcDbEntity
  8
0
  6
ACAD_ISO02W100
100
AcDbLine
 10
-4.736689
 20
0.501
 30
0.0
 11
-4.736689
 21
1.313
 31
0.0
  0
LINE
  5
88
330
25
100
AcDbEntity
  8
0
100
AcDbLine
 10
-4.798688999999999
 20
0.5620000000000001
 30
0.0
 11
-4.798688999999999
 21
1.187
 31
0.0
  0
ARC
  5
89
330
25
100
AcDbEntity
  8
0
100
AcDbCircle
 10
-4.798688999999999
 20
0.5
 30
0.0
 40
0.062
100
AcDbArc
 50
0.0
 51
90.0
  0
LINE
  5
8A
330
25
100
AcDbEntity
  8
0
100
AcDbLine
 10
-4.798688999999999
 20
0.5620000000000001
 30
0.0
 11
-4.798688999999999
 21
0.5620000000000001
 31
0.0
  0
LINE
  5
8B
330
25
100
AcDbEntity
  8
0
100
AcDbLine
 10
-4.798688999999999
 20
0.5629999999999999
 30
0.0
 11
-4.798688999999999
 21
0.5629999999999999
 31
0.0
  0
CIRCLE
  5
8C
330
25
100
AcDbEntity
  8
0
100
AcDbCircle
 10
-4.486188999999999
 20
1.125
 30
0.0
 40
0.1325
  0
LINE
  5
8D
330
25
100
AcDbEntity
  8
0
100
AcDbLine
 10
-4.798688999999999
 20
1.187
 30
0.0
 11
-4.736689
 21
1.187
 31
0.0
  0
ARC
  5
8E
330
25
100
AcDbEntity
  8
0
100
AcDbCircle
 10
-4.674688999999999
 20
1.313
 30
0.0
 40
0.062
100
AcDbArc
 50
90.0
 51
180.0
  0
LINE
  5
8F
330
25
100
AcDbEntity
  8
0
100
AcDbLine
 10
-3.111689
 20
-0.472158
 30
0.0
 11
-3.111689
 21
0.472158
 31
0.0
  0
LINE
  5
90
330
25
100
AcDbEntity
  8
0
100
AcDbLine
 10
-3.111689
 20
-0.501
 30
0.0
 11
-3.111689
 21
0.501
 31
0.0
  0
ARC
  5
91
330
25
100
AcDbEntity
  8
0
100
AcDbCircle
 10
-3.049688999999999
 20
-0.501
 30
0.0
 40
0.062
100
AcDbArc
 50
180.0
 51
270.0
  0
LINE
  5
92
330
25
100
AcDbEntity
  8
0
100
AcDbLine
 10
-3.058859999999999
 20
-0.5629999999999999
 30
0.0
 11
-3.058859999999999
 21
-0.5629999999999999
 31
0.0
  0
ARC
  5
93
330
25
100
AcDbEntity
  8
0
100
AcDbCircle
 10
-3.173688999999999
 20
1.313
 30
0.0
 40
0.062
100
AcDbArc
 50
0.0
 51
90.0
  0
CIRCLE
  5
94
330
25
100
AcDbEntity
  8
0
100
AcDbCircle
 10
-3.362188999999999
 20
1.125
 30
0.0
 40
0.1325
  0
LINE
  5
95
330
25
100
AcDbEntity
  8
0
100
AcDbLine
 10
-3.111689
 20
0.501
 30
0.0
 11
-3.111689
 21
1.187
 31
0.0
  0
LINE
  5
96
330
25
100
AcDbEntity
  8
0
100
AcDbLine
 10
-3.048346
 20
0.5629999999999999
 30
0.0
 11
-3.048346
 21
1.187
 31
0.0
  0
ARC
  5
97
330
25
100
AcDbEntity
  8
0
100
AcDbCircle
 10
-3.049688999999999
 20
0.501
 30
0.0
 40
0.062
100
AcDbArc
 50
90.0
 51
180.0
  0
LINE
  5
98
330
25
100
AcDbEntity
  8
0
100
AcDbLine
 10
-3.058859999999999
 20
0.5629999999999999
 30
0.0
 11
-3.058859999999999
 21
0.5629999999999999
 31
0.0
  0
LINE
  5
99
330
25
100
AcDbEntity
  8
0
100
AcDbLine
 10
-3.111689
 20
1.187
 30
0.0
 11
-3.111689
 21
1.313
 31
0.0
  0
LINE
  5
9A
330
25
100
AcDbEntity
  8
0
100
AcDbLine
 10
-3.111689
 20
1.187
 30
0.0
 11
-3.049688999999999
 21
1.187
 31
0.0
  0
TEXT
  5
9B
330
25
100
AcDbEntity
  8
CTR_LINES
100
AcDbText
 10
-5.058008999999999
 20
2.964104999999999
 30
0.0
 40
0.18
  1
A
100
AcDbText
  0
LINE
  5
9C
330
25
100
AcDbEntity
  8
CTR_LINES
100
AcDbLine
 10
-0.171359
 20
0.875
 30
0.0
 11
4.055673999999999
 21
0.875
 31
0.0
  0
LINE
  5
9D
330
25
100
AcDbEntity
  8
0
100
AcDbLine
 10
0.312
 20
0.593
 30
0.0
 11
1.500499999999999
 21
0.593
 31
0.0
  0
LINE
  5
9E
330
25
100
AcDbEntity
  8
0
100
AcDbLine
 10
0.312
 20
1.0
 30
0.0
 11
1.550529
 21
1.0
 31
0.0
  0
LINE
  5
9F
330
25
100
AcDbEntity
  8
0
100
AcDbLine
 10
0.25
 20
1.062
 30
0.0
 11
0.25
 21
0.6550000000000001
 31
0.0
  0
ARC
  5
A0
330
25
100
AcDbEntity
  8
0
100
AcDbCircle
 10
0.312
 20
0.6550000000000001
 30
0.0
 40
0.062
100
AcDbArc
 50
180.0
 51
270.0
  0
LINE
  5
A1
330
25
100
AcDbEntity
  8
0
100
AcDbLine
 10
0.25
 20
1.313
 30
0.0
 11
0.25
 21
1.062
 31
0.0
  0
ARC
  5
A2
330
25
100
AcDbEntity
  8
0
100
AcDbCircle
 10
0.312
 20
1.062
 30
0.0
 40
0.062
100
AcDbArc
 50
180.0
 51
270.0
  0
LINE
  5
A3
330
25
100
AcDbEntity
  8
0
100
AcDbLine
 10
0.0
 20
1.375
 30
0.0
 11
0.188
 21
1.375
 31
0.0
  0
ARC
  5
A4
330
25
100
AcDbEntity
  8
0
100
AcDbCircle
 10
0.188
 20
1.313
 30
0.0
 40
0.062
100
AcDbArc
 50
0.0
 51
90.0
  0
LINE
  5
A5
330
25
100
AcDbEntity
  8
0
100
AcDbLine
 10
2.249499999999999
 20
0.593
 30
0.0
 11
3.375
 21
0.593
 31
0.0
  0
LINE
  5
A6
330
25
100
AcDbEntity
  8
0
100
AcDbLine
 10
2.199470999999999
 20
1.0
 30
0.0
 11
3.313
 21
1.0
 31
0.0
  0
CIRCLE
  5
A7
330
25
100
AcDbEntity
  8
0
100
AcDbCircle
 10
1.875
 20
0.875
 30
0.0
 40
0.3125
  0
CIRCLE
  5
A8
330
25
100
AcDbEntity
  8
0
100
AcDbCircle
 10
1.875
 20
0.875
 30
0.0
 40
0.1325
  0
ARC
  5
A9
330
25
100
AcDbEntity
  8
0
100
AcDbCircle
 10
1.500499999999999
 20
0.6550000000000001
 30
0.0
 40
0.062
100
AcDbArc
 50
270.0
 51
0.0
  0
LINE
  5
AA
330
25
100
AcDbEntity
  8
0
100
AcDbLine
 10
1.5625
 20
0.875
 30
0.0
 11
1.5625
 21
0.6550000000000001
 31
0.0
  0
LINE
  5
AB
330
25
100
AcDbEntity
  8
0
100
AcDbLine
 10
1.604246999999999
 20
1.031041
 30
0.0
 11
1.613829
 21
1.041947999999999
 31
0.0
  0
ARC
  5
AC
330
25
100
AcDbEntity
  8
0
100
AcDbCircle
 10
1.550529
 20
1.062
 30
0.0
 40
0.062
100
AcDbArc
 50
270.0
 51
330.044155
  0
ARC
  5
AD
330
25
100
AcDbEntity
  8
0
100
AcDbCircle
 10
2.249499999999999
 20
0.6550000000000001
 30
0.0
 40
0.062
100
AcDbArc
 50
180.0
 51
270.0
  0
LINE
  5
AE
330
25
100
AcDbEntity
  8
0
100
AcDbLine
 10
2.1875
 20
0.875
 30
0.0
 11
2.1875
 21
0.6550000000000001
 31
0.0
  0
LINE
  5
AF
330
25
100
AcDbEntity
  8
0
100
AcDbLine
 10
2.145753
 20
1.031041
 30
0.0
 11
2.136968999999999
 21
1.039798999999999
 31
0.0
  0
ARC
  5
B0
330
25
100
AcDbEntity
  8
0
100
AcDbCircle
 10
2.199470999999999
 20
1.062
 30
0.0
 40
0.062
100
AcDbArc
 50
209.955845
 51
270.0
  0
ARC
  5
B1
330
25
100
AcDbEntity
  8
0
100
AcDbCircle
 10
3.313
 20
0.9379999999999999
 30
0.0
 40
0.062
100
AcDbArc
 50
0.0
 51
90.0
  0
LINE
  5
B2
330
25
100
AcDbEntity
  8
0
100
AcDbLine
 10
0.0
 20
3.458151999999999
 30
0.0
 11
1.500999999999999
 21
3.458151999999999
 31
0.0
  0
LINE
  5
B3
330
25
100
AcDbEntity
  8
0
100
AcDbLine
 10
0.6875
 20
3.396151999999999
 30
0.0
 11
1.3125
 21
3.396151999999999
 31
0.0
  0
LINE
  5
B4
330
25
100
AcDbEntity
  8
0
100
AcDbLine
 10
0.5620000000000001
 20
3.458151999999999
 30
0.0
 11
1.500999999999999
 21
3.458151999999999
 31
0.0
  0
LINE
  5
B5
330
25
100
AcDbEntity
  8
0
100
AcDbLine
 10
0.0
 20
3.458151999999999
 30
0.0
 11
0.188
 21
3.458151999999999
 31
0.0
  0
LINE
  5
B6
330
25
100
AcDbEntity
  8
0
100
AcDbLine
 10
0.6875
 20
3.396151999999999
 30
0.0
 11
0.6875
 21
3.458151999999999
 31
0.0
  0
LINE
  5
B7
330
25
100
AcDbEntity
  8
0
100
AcDbLine
 10
2.249
 20
3.458151999999999
 30
0.0
 11
3.313
 21
3.458151999999999
 31
0.0
  0
LINE
  5
B8
330
25
100
AcDbEntity
  8
0
100
AcDbLine
 10
2.249
 20
3.458151999999999
 30
0.0
 11
3.188
 21
3.458151999999999
 31
0.0
  0
LINE
  5
B9
330
25
100
AcDbEntity
  8
0
100
AcDbLine
 10
2.249
 20
3.458151999999999
 30
0.0
 11
3.313
 21
3.458151999999999
 31
0.0
  0
LINE
  5
BA
330
25
100
AcDbEntity
  8
0
100
AcDbLine
 10
2.4375
 20
3.396151999999999
 30
0.0
 11
3.0625
 21
3.396151999999999
 31
0.0
  0
LINE
  5
BB
330
25
100
AcDbEntity
  8
0
100
AcDbLine
 10
1.563
 20
3.396151999999999
 30
0.0
 11
2.186999999999999
 21
3.396151999999999
 31
0.0
  0
LINE
  5
BC
330
25
100
AcDbEntity
  8
0
100
AcDbLine
 10
1.3745
 20
3.458151999999999
 30
0.0
 11
1.500999999999999
 21
3.458151999999999
 31
0.0
  0
ARC
  5
BD
330
25
100
AcDbEntity
  8
0
100
AcDbCircle
 10
1.3745
 20
3.396151999999999
 30
0.0
 40
0.062
100
AcDbArc
 50
90.0
 51
180.0
  0
LINE
  5
BE
330
25
100
AcDbEntity
  8
0
100
AcDbLine
 10
1.3125
 20
3.396151999999999
 30
0.0
 11
1.3125
 21
3.396151999999999
 31
0.0
  0
ARC
  5
BF
330
25
100
AcDbEntity
  8
0
100
AcDbCircle
 10
1.500999999999999
 20
3.396151999999999
 30
0.0
 40
0.062
100
AcDbArc
 50
0.0
 51
90.0
  0
LINE
  5
C0
330
25
100
AcDbEntity
  8
CTR_LINES
100
AcDbLine
 10
1.563
 20
3.396151999999999
 30
0.0
 11
1.563
 21
3.396151999999999
 31
0.0
  0
ARC
  5
C1
330
25
100
AcDbEntity
  8
0
100
AcDbCircle
 10
2.249
 20
3.396151999999999
 30
0.0
 40
0.062
100
AcDbArc
 50
90.0
 51
180.0
  0
LINE
  5
C2
330
25
100
AcDbEntity
  8
CTR_LINES
100
AcDbLine
 10
2.186999999999999
 20
3.396151999999999
 30
0.0
 11
2.186999999999999
 21
3.396151999999999
 31
0.0
  0
ARC
  5
C3
330
25
100
AcDbEntity
  8
0
100
AcDbCircle
 10
2.3755
 20
3.396151999999999
 30
0.0
 40
0.062
100
AcDbArc
 50
0.0
 51
90.0
  0
LINE
  5
C4
330
25
100
AcDbEntity
  8
0
100
AcDbLine
 10
2.4375
 20
3.396151999999999
 30
0.0
 11
2.4375
 21
3.396151999999999
 31
0.0
  0
LINE
  5
C5
330
25
100
AcDbEntity
  8
0
100
AcDbLine
 10
3.0625
 20
3.396151999999999
 30
0.0
 11
3.0625
 21
3.458151999999999
 31
0.0
  0
ENDBLK
  5
C7
330
25
100
AcDbEntity
  8
0
100
AcDbBlockEnd
  0
BLOCK
  5
1B1
330
1A4
100
AcDbEntity
  8
0
100
AcDbBlockBegin
  2
*D1
 70
     1
 10
0.0
 20
0.0
 30
0.0
  3
*D1
  1

  0
LINE
  5
1B2
330
1A4
100
AcDbEntity
  8
0
  6
ByBlock
 62
     0
440
 16777216
100
AcDbLine
 10
11.849038
 20
3.478413999999999
 30
0.0
 11
11.699038
 21
3.478413999999999
 31
0.0
  0
LINE
  5
1B3
330
1A4
100
AcDbEntity
  8
0
  6
ByBlock
 62
     0
440
 16777216
100
AcDbLine
 10
11.699038
 20
3.478413999999999
 30
0.0
 11
11.054734
 21
4.023235999999999
 31
0.0
  0
MTEXT
  5
1B4
330
1A4
100
AcDbEntity
  8
0
  6
ByBlock
 62
     0
440
 16777216
100
AcDbMText
 10
12.479038
 20
3.478413999999999
 30
0.0
 40
0.12
 41
0.0
 46
0.0
 71
     5
 72
     1
  1
\A1;∅.265 THRU\PX 3
 73
     1
 44
1.0
  0
SOLID
  5
1B5
330
1A4
100
AcDbEntity
  8
0
  6
ByBlock
 62
     0
440
 16777216
100
AcDbTrace
 10
11.070877
 20
4.042326
 30
0.0
 11
11.038592
 21
4.004145999999999
 31
0.0
 12
10.940195
 22
4.120091
 32
0.0
 13
10.940195
 23
4.120091
 33
0.0
  0
LINE
  5
1B6
330
1A4
100
AcDbEntity
  8
0
  6
ByBlock
 62
     0
440
 16777216
100
AcDbLine
 10
10.749019
 20
4.205644999999999
 30
0.0
 11
10.929019
 21
4.205644999999999
 31
0.0
  0
LINE
  5
1B7
330
1A4
100
AcDbEntity
  8
0
  6
ByBlock
 62
     0
440
 16777216
100
AcDbLine
 10
10.839019
 20
4.115644999999999
 30
0.0
 11
10.839019
 21
4.295644999999999
 31
0.0
  0
POINT
  5
1B8
330
1A4
100
AcDbEntity
  8
DEFPOINTS
  6
ByBlock
 62
     0
440
 16777216
100
AcDbPoint
 10
10.940195
 20
4.120091
 30
0.0
  0
POINT
  5
1B9
330
1A4
100
AcDbEntity
  8
DEFPOINTS
  6
ByBlock
 62
     0
440
 16777216
100
AcDbPoint
 10
10.737842
 20
4.291199999999999
 30
0.0
  0
ENDBLK
  5
1BA
330
1A4
100
AcDbEntity
  8
0
100
AcDbBlockEnd
  0
BLOCK
  5
1D7
330
1BB
100
AcDbEntity
  8
0
100
AcDbBlockBegin
  2
*D2
 70
     1
 10
0.0
 20
0.0
 30
0.0
  3
*D2
  1

  0
LINE
  5
1D8
330
1BB
100
AcDbEntity
  8
0
  6
ByBlock
 62
     0
440
 16777216
100
AcDbLine
 10
11.339519
 20
2.455645
 30
0.0
 11
11.879038
 21
2.455645
 31
0.0
  0
LINE
  5
1D9
330
1BB
100
AcDbEntity
  8
0
  6
ByBlock
 62
     0
440
 16777216
100
AcDbLine
 10
11.401519
 20
2.205645
 30
0.0
 11
11.879038
 21
2.205645
 31
0.0
  0
LINE
  5
1DA
330
1BB
100
AcDbEntity
  8
0
  6
ByBlock
 62
     0
440
 16777216
100
AcDbLine
 10
11.699038
 20
2.605644999999999
 30
0.0
 11
11.699038
 21
2.755644999999999
 31
0.0
  0
LINE
  5
1DB
330
1BB
100
AcDbEntity
  8
0
  6
ByBlock
 62
     0
440
 16777216
100
AcDbLine
 10
11.699038
 20
2.055645
 30
0.0
 11
11.699038
 21
1.65955
 31
0.0
  0
LINE
  5
1DC
330
1BB
100
AcDbEntity
  8
0
  6
ByBlock
 62
     0
440
 16777216
100
AcDbLine
 10
11.699038
 20
1.65955
 30
0.0
 11
11.549038
 21
1.65955
 31
0.0
  0
SOLID
  5
1DD
330
1BB
100
AcDbEntity
  8
0
  6
ByBlock
 62
     0
440
 16777216
100
AcDbTrace
 10
11.674038
 20
2.605644999999999
 30
0.0
 11
11.724038
 21
2.605644999999999
 31
0.0
 12
11.699038
 22
2.455645
 32
0.0
 13
11.699038
 23
2.455645
 33
0.0
  0
SOLID
  5
1DE
330
1BB
100
AcDbEntity
  8
0
  6
ByBlock
 62
     0
440
 16777216
100
AcDbTrace
 10
11.674038
 20
2.055645
 30
0.0
 11
11.724038
 21
2.055645
 31
0.0
 12
11.699038
 22
2.205645
 32
0.0
 13
11.699038
 23
2.205645
 33
0.0
  0
MTEXT
  5
1DF
330
1BB
100
AcDbEntity
  8
0
  6
ByBlock
 62
     0
440
 16777216
100
AcDbMText
 10
11.279038
 20
1.65955
 30
0.0
 40
0.12
 41
0.0
 46
0.0
 71
     5
 72
     1
  1
\A1;.25\PTYP.
 73
     1
 44
1.0
  0
POINT
  5
1E0
330
1BB
100
AcDbEntity
  8
DEFPOINTS
  6
ByBlock
 62
     0
440
 16777216
100
AcDbPoint
 10
11.277019
 20
2.455645
 30
0.0
  0
POINT
  5
1E1
330
1BB
100
AcDbEntity
  8
DEFPOINTS
  6
ByBlock
 62
     0
440
 16777216
100
AcDbPoint
 10
11.339019
 20
2.205645
 30
0.0
  0
POINT
  5
1E2
330
1BB
100
AcDbEntity
  8
DEFPOINTS
  6
ByBlock
 62
     0
440
 16777216
100
AcDbPoint
 10
11.699038
 20
2.205645
 30
0.0
  0
ENDBLK
  5
1E3
330
1BB
100
AcDbEntity
  8
0
100
AcDbBlockEnd
  0
BLOCK
  5
218
330
20A
100
AcDbEntity
  8
0
100
AcDbBlockBegin
  2
*D3
 70
     1
 10
0.0
 20
0.0
 30
0.0
  3
*D3
  1

  0
LINE
  5
219
330
20A
100
AcDbEntity
  8
0
  6
ByBlock
 62
     0
440
 16777216
100
AcDbLine
 10
9.681518999999999
 20
1.205645
 30
0.0
 11
7.700918999999999
 21
1.205645
 31
0.0
  0
LINE
  5
21A
330
20A
100
AcDbEntity
  8
0
  6
ByBlock
 62
     0
440
 16777216
100
AcDbLine
 10
8.526519
 20
2.205645
 30
0.0
 11
7.700918999999999
 21
2.205645
 31
0.0
  0
LINE
  5
21B
330
20A
100
AcDbEntity
  8
0
  6
ByBlock
 62
     0
440
 16777216
100
AcDbLine
 10
7.880919
 20
1.355644999999999
 30
0.0
 11
7.880919
 21
1.455645
 31
0.0
  0
LINE
  5
21C
330
20A
100
AcDbEntity
  8
0
  6
ByBlock
 62
     0
440
 16777216
100
AcDbLine
 10
7.880919
 20
2.055645
 30
0.0
 11
7.880919
 21
1.955645
 31
0.0
  0
SOLID
  5
21D
330
20A
100
AcDbEntity
  8
0
  6
ByBlock
 62
     0
440
 16777216
100
AcDbTrace
 10
7.855919
 20
1.355644999999999
 30
0.0
 11
7.905918999999999
 21
1.355644999999999
 31
0.0
 12
7.880919
 22
1.205645
 32
0.0
 13
7.880919
 23
1.205645
 33
0.0
  0
SOLID
  5
21E
330
20A
100
AcDbEntity
  8
0
  6
ByBlock
 62
     0
440
 16777216
100
AcDbTrace
 10
7.855919
 20
2.055645
 30
0.0
 11
7.905918999999999
 21
2.055645
 31
0.0
 12
7.880919
 22
2.205645
 32
0.0
 13
7.880919
 23
2.205645
 33
0.0
  0
MTEXT
  5
21F
330
20A
100
AcDbEntity
  8
0
  6
ByBlock
 62
     0
440
 16777216
100
AcDbMText
 10
7.880919
 20
1.705645
 30
0.0
 40
0.12
 41
0.0
 46
0.0
 71
     5
 72
     1
  1
\A1;1.000\PTYP.
 73
     1
 44
1.0
  0
POINT
  5
220
330
20A
100
AcDbEntity
  8
DEFPOINTS
  6
ByBlock
 62
     0
440
 16777216
100
AcDbPoint
 10
9.744018999999999
 20
1.205645
 30
0.0
  0
POINT
  5
221
330
20A
100
AcDbEntity
  8
DEFPOINTS
  6
ByBlock
 62
     0
440
 16777216
100
AcDbPoint
 10
8.589019
 20
2.205645
 30
0.0
  0
POINT
  5
222
330
20A
100
AcDbEntity
  8
DEFPOINTS
  6
ByBlock
 62
     0
440
 16777216
100
AcDbPoint
 10
7.880919
 20
2.205645
 30
0.0
  0
ENDBLK
  5
223
330
20A
100
AcDbEntity
  8
0
100
AcDbBlockEnd
  0
BLOCK
  5
3C6
330
224
100
AcDbEntity
  8
0
100
AcDbBlockBegin
  2
*D4
 70
     1
 10
0.0
 20
0.0
 30
0.0
  3
*D4
  1

  0
LINE
  5
3C7
330
224
100
AcDbEntity
  8
0
  6
ByBlock
 62
     0
440
 16777216
100
AcDbLine
 10
6.820288
 20
5.080644999999999
 30
0.0
 11
6.411666999999999
 21
5.080644999999999
 31
0.0
  0
LINE
  5
3C8
330
224
100
AcDbEntity
  8
0
  6
ByBlock
 62
     0
440
 16777216
100
AcDbLine
 10
7.85516
 20
5.955644999999999
 30
0.0
 11
6.411666999999999
 21
5.955644999999999
 31
0.0
  0
LINE
  5
3C9
330
224
100
AcDbEntity
  8
0
  6
ByBlock
 62
     0
440
 16777216
100
AcDbLine
 10
6.591667
 20
4.930644999999999
 30
0.0
 11
6.591667
 21
4.780644999999999
 31
0.0
  0
LINE
  5
3CA
330
224
100
AcDbEntity
  8
0
  6
ByBlock
 62
     0
440
 16777216
100
AcDbLine
 10
6.591667
 20
6.105644999999999
 30
0.0
 11
6.591667
 21
6.255644999999999
 31
0.0
  0
SOLID
  5
3CB
330
224
100
AcDbEntity
  8
0
  6
ByBlock
 62
     0
440
 16777216
100
AcDbTrace
 10
6.566666999999999
 20
4.930644999999999
 30
0.0
 11
6.616666999999999
 21
4.930644999999999
 31
0.0
 12
6.591667
 22
5.080644999999999
 32
0.0
 13
6.591667
 23
5.080644999999999
 33
0.0
  0
SOLID
  5
3CC
330
224
100
AcDbEntity
  8
0
  6
ByBlock
 62
     0
440
 16777216
100
AcDbTrace
 10
6.566666999999999
 20
6.105644999999999
 30
0.0
 11
6.616666999999999
 21
6.105644999999999
 31
0.0
 12
6.591667
 22
5.955644999999999
 32
0.0
 13
6.591667
 23
5.955644999999999
 33
0.0
  0
MTEXT
  5
3CD
330
224
100
AcDbEntity
  8
0
  6
ByBlock
 62
     0
440
 16777216
100
AcDbMText
 10
6.591667
 20
5.518144999999999
 30
0.0
 40
0.12
 41
0.0
 46
0.0
 71
     5
 72
     1
  1
\A1;.875\PTYP.
 73
     1
 44
1.0
  0
POINT
  5
3CE
330
224
100
AcDbEntity
  8
DEFPOINTS
  6
ByBlock
 62
     0
440
 16777216
100
AcDbPoint
 10
6.882788
 20
5.080644999999999
 30
0.0
  0
POINT
  5
3CF
330
224
100
AcDbEntity
  8
DEFPOINTS
  6
ByBlock
 62
     0
440
 16777216
100
AcDbPoint
 10
7.91766
 20
5.955644999999999
 30
0.0
  0
POINT
  5
3D0
330
224
100
AcDbEntity
  8
DEFPOINTS
  6
ByBlock
 62
     0
440
 16777216
100
AcDbPoint
 10
6.591667
 20
5.955644999999999
 30
0.0
  0
ENDBLK
  5
3D1
330
224
100
AcDbEntity
  8
0
100
AcDbBlockEnd
  0
BLOCK
  5
267
330
23E
100
AcDbEntity
  8
0
100
AcDbBlockBegin
  2
*D5
 70
     1
 10
0.0
 20
0.0
 30
0.0
  3
*D5
  1

  0
LINE
  5
268
330
23E
100
AcDbEntity
  8
0
  6
ByBlock
 62
     0
440
 16777216
100
AcDbLine
 10
8.089019
 20
6.518144999999999
 30
0.0
 11
8.089019
 21
7.041942999999998
 31
0.0
  0
LINE
  5
269
330
23E
100
AcDbEntity
  8
0
  6
ByBlock
 62
     0
440
 16777216
100
AcDbLine
 10
9.964019
 20
6.468221999999999
 30
0.0
 11
9.964019
 21
7.041942999999998
 31
0.0
  0
LINE
  5
26A
330
23E
100
AcDbEntity
  8
0
  6
ByBlock
 62
     0
440
 16777216
100
AcDbLine
 10
8.239019
 20
6.861942999999999
 30
0.0
 11
8.716518999999999
 21
6.861942999999999
 31
0.0
  0
LINE
  5
26B
330
23E
100
AcDbEntity
  8
0
  6
ByBlock
 62
     0
440
 16777216
100
AcDbLine
 10
9.814019
 20
6.861942999999999
 30
0.0
 11
9.336519
 21
6.861942999999999
 31
0.0
  0
SOLID
  5
26C
330
23E
100
AcDbEntity
  8
0
  6
ByBlock
 62
     0
440
 16777216
100
AcDbTrace
 10
8.239019
 20
6.886942999999999
 30
0.0
 11
8.239019
 21
6.836942999999998
 31
0.0
 12
8.089019
 22
6.861942999999999
 32
0.0
 13
8.089019
 23
6.861942999999999
 33
0.0
  0
SOLID
  5
26D
330
23E
100
AcDbEntity
  8
0
  6
ByBlock
 62
     0
440
 16777216
100
AcDbTrace
 10
9.814019
 20
6.886942999999999
 30
0.0
 11
9.814019
 21
6.836942999999998
 31
0.0
 12
9.964019
 22
6.861942999999999
 32
0.0
 13
9.964019
 23
6.861942999999999
 33
0.0
  0
MTEXT
  5
26E
330
23E
100
AcDbEntity
  8
0
  6
ByBlock
 62
     0
440
 16777216
100
AcDbMText
 10
9.026519
 20
6.861942999999999
 30
0.0
 40
0.12
 41
0.0
 46
0.0
 71
     5
 72
     1
  1
\A1;1.875\PTYP.
 73
     1
 44
1.0
  0
POINT
  5
26F
330
23E
100
AcDbEntity
  8
DEFPOINTS
  6
ByBlock
 62
     0
440
 16777216
100
AcDbPoint
 10
8.089019
 20
6.455644999999999
 30
0.0
  0
POINT
  5
270
330
23E
100
AcDbEntity
  8
DEFPOINTS
  6
ByBlock
 62
     0
440
 16777216
100
AcDbPoint
 10
9.964019
 20
6.405721999999999
 30
0.0
  0
POINT
  5
271
330
23E
100
AcDbEntity
  8
DEFPOINTS
  6
ByBlock
 62
     0
440
 16777216
100
AcDbPoint
 10
9.964019
 20
6.861942999999999
 30
0.0
  0
ENDBLK
  5
272
330
23E
100
AcDbEntity
  8
0
100
AcDbBlockEnd
  0
BLOCK
  5
273
330
24C
100
AcDbEntity
  8
0
100
AcDbBlockBegin
  2
*D6
 70
     1
 10
0.0
 20
0.0
 30
0.0
  3
*D6
  1

  0
LINE
  5
274
330
24C
100
AcDbEntity
  8
0
  6
ByBlock
 62
     0
440
 16777216
100
AcDbLine
 10
10.839019
 20
6.278992999999999
 30
0.0
 11
10.839019
 21
7.041942999999998
 31
0.0
  0
LINE
  5
275
330
24C
100
AcDbEntity
  8
0
  6
ByBlock
 62
     0
440
 16777216
100
AcDbLine
 10
9.814019
 20
6.861942999999999
 30
0.0
 11
9.664018999999999
 21
6.861942999999999
 31
0.0
  0
LINE
  5
276
330
24C
100
AcDbEntity
  8
0
  6
ByBlock
 62
     0
440
 16777216
100
AcDbLine
 10
10.989019
 20
6.861942999999999
 30
0.0
 11
11.139019
 21
6.861942999999999
 31
0.0
  0
SOLID
  5
277
330
24C
100
AcDbEntity
  8
0
  6
ByBlock
 62
     0
440
 16777216
100
AcDbTrace
 10
9.814019
 20
6.886942999999999
 30
0.0
 11
9.814019
 21
6.836942999999998
 31
0.0
 12
9.964019
 22
6.861942999999999
 32
0.0
 13
9.964019
 23
6.861942999999999
 33
0.0
  0
SOLID
  5
278
330
24C
100
AcDbEntity
  8
0
  6
ByBlock
 62
     0
440
 16777216
100
AcDbTrace
 10
10.989019
 20
6.886942999999999
 30
0.0
 11
10.989019
 21
6.836942999999998
 31
0.0
 12
10.839019
 22
6.861942999999999
 32
0.0
 13
10.839019
 23
6.861942999999999
 33
0.0
  0
MTEXT
  5
279
330
24C
100
AcDbEntity
  8
0
  6
ByBlock
 62
     0
440
 16777216
100
AcDbMText
 10
10.401519
 20
6.861942999999999
 30
0.0
 40
0.12
 41
0.0
 46
0.0
 71
     5
 72
     1
  1
\A1;.875\PTYP.
 73
     1
 44
1.0
  0
POINT
  5
27A
330
24C
100
AcDbEntity
  8
DEFPOINTS
  6
ByBlock
 62
     0
440
 16777216
100
AcDbPoint
 10
9.964019
 20
6.405721999999999
 30
0.0
  0
POINT
  5
27B
330
24C
100
AcDbEntity
  8
DEFPOINTS
  6
ByBlock
 62
     0
440
 16777216
100
AcDbPoint
 10
10.839019
 20
6.216492999999999
 30
0.0
  0
POINT
  5
27C
330
24C
100
AcDbEntity
  8
DEFPOINTS
  6
ByBlock
 62
     0
440
 16777216
100
AcDbPoint
 10
10.839019
 20
6.861942999999999
 30
0.0
  0
ENDBLK
  5
27D
330
24C
100
AcDbEntity
  8
0
100
AcDbBlockEnd
  0
BLOCK
  5
2D8
330
259
100
AcDbEntity
  8
0
100
AcDbBlockBegin
  2
*D7
 70
     1
 10
0.0
 20
0.0
 30
0.0
  3
*D7
  1

  0
LINE
  5
2D9
330
259
100
AcDbEntity
  8
0
  6
ByBlock
 62
     0
440
 16777216
100
AcDbLine
 10
7.089019
 20
5.363144999999999
 30
0.0
 11
7.089019
 21
7.539639
 31
0.0
  0
LINE
  5
2DA
330
259
100
AcDbEntity
  8
0
  6
ByBlock
 62
     0
440
 16777216
100
AcDbLine
 10
11.464019
 20
6.081144999999999
 30
0.0
 11
11.464019
 21
7.539639
 31
0.0
  0
LINE
  5
2DB
330
259
100
AcDbEntity
  8
0
  6
ByBlock
 62
     0
440
 16777216
100
AcDbLine
 10
7.239018999999999
 20
7.359638999999999
 30
0.0
 11
9.006519
 21
7.359638999999999
 31
0.0
  0
LINE
  5
2DC
330
259
100
AcDbEntity
  8
0
  6
ByBlock
 62
     0
440
 16777216
100
AcDbLine
 10
11.314019
 20
7.359638999999999
 30
0.0
 11
9.546518999999999
 21
7.359638999999999
 31
0.0
  0
SOLID
  5
2DD
330
259
100
AcDbEntity
  8
0
  6
ByBlock
 62
     0
440
 16777216
100
AcDbTrace
 10
7.239018999999999
 20
7.384638999999999
 30
0.0
 11
7.239018999999999
 21
7.334639
 31
0.0
 12
7.089019
 22
7.359638999999999
 32
0.0
 13
7.089019
 23
7.359638999999999
 33
0.0
  0
SOLID
  5
2DE
330
259
100
AcDbEntity
  8
0
  6
ByBlock
 62
     0
440
 16777216
100
AcDbTrace
 10
11.314019
 20
7.384638999999999
 30
0.0
 11
11.314019
 21
7.334639
 31
0.0
 12
11.464019
 22
7.359638999999999
 32
0.0
 13
11.464019
 23
7.359638999999999
 33
0.0
  0
MTEXT
  5
2DF
330
259
100
AcDbEntity
  8
0
  6
ByBlock
 62
     0
440
 16777216
100
AcDbMText
 10
9.276519
 20
7.359638999999999
 30
0.0
 40
0.12
 41
0.0
 46
0.0
 71
     5
 72
     1
  1
\A1;4.38
 73
     1
 44
1.0
  0
POINT
  5
2E0
330
259
100
AcDbEntity
  8
DEFPOINTS
  6
ByBlock
 62
     0
440
 16777216
100
AcDbPoint
 10
7.089019
 20
5.300644999999999
 30
0.0
  0
POINT
  5
2E1
330
259
100
AcDbEntity
  8
DEFPOINTS
  6
ByBlock
 62
     0
440
 16777216
100
AcDbPoint
 10
11.464019
 20
6.018644999999999
 30
0.0
  0
POINT
  5
2E2
330
259
100
AcDbEntity
  8
DEFPOINTS
  6
ByBlock
 62
     0
440
 16777216
100
AcDbPoint
 10
11.464019
 20
7.359638999999999
 30
0.0
  0
ENDBLK
  5
2E3
330
259
100
AcDbEntity
  8
0
100
AcDbBlockEnd
  0
BLOCK
  5
28C
330
27E
100
AcDbEntity
  8
0
100
AcDbBlockBegin
  2
*D8
 70
     1
 10
0.0
 20
0.0
 30
0.0
  3
*D8
  1

  0
LINE
  5
28D
330
27E
100
AcDbEntity
  8
0
  6
ByBlock
 62
     0
440
 16777216
100
AcDbLine
 10
9.902019000000001
 20
1.143145
 30
0.0
 11
9.902019000000001
 21
0.600746
 31
0.0
  0
LINE
  5
28E
330
27E
100
AcDbEntity
  8
0
  6
ByBlock
 62
     0
440
 16777216
100
AcDbLine
 10
10.026019
 20
1.143145
 30
0.0
 11
10.026019
 21
0.600746
 31
0.0
  0
LINE
  5
28F
330
27E
100
AcDbEntity
  8
0
  6
ByBlock
 62
     0
440
 16777216
100
AcDbLine
 10
9.752019
 20
0.7807460000000001
 30
0.0
 11
9.602019
 21
0.7807460000000001
 31
0.0
  0
LINE
  5
290
330
27E
100
AcDbEntity
  8
0
  6
ByBlock
 62
     0
440
 16777216
100
AcDbLine
 10
10.176019
 20
0.7807460000000001
 30
0.0
 11
10.326019
 21
0.7807460000000001
 31
0.0
  0
SOLID
  5
291
330
27E
100
AcDbEntity
  8
0
  6
ByBlock
 62
     0
440
 16777216
100
AcDbTrace
 10
9.752019
 20
0.8057459999999998
 30
0.0
 11
9.752019
 21
0.7557460000000001
 31
0.0
 12
9.902019000000001
 22
0.7807460000000001
 32
0.0
 13
9.902019000000001
 23
0.7807460000000001
 33
0.0
  0
SOLID
  5
292
330
27E
100
AcDbEntity
  8
0
  6
ByBlock
 62
     0
440
 16777216
100
AcDbTrace
 10
10.176019
 20
0.8057459999999998
 30
0.0
 11
10.176019
 21
0.7557460000000001
 31
0.0
 12
10.026019
 22
0.7807460000000001
 32
0.0
 13
10.026019
 23
0.7807460000000001
 33
0.0
  0
MTEXT
  5
293
330
27E
100
AcDbEntity
  8
0
  6
ByBlock
 62
     0
440
 16777216
100
AcDbMText
 10
10.946019
 20
0.7807460000000001
 30
0.0
 40
0.12
 41
0.0
 46
0.0
 71
     5
 72
     1
  1
\A1;.125 X .062\PKEYWAY\PTYP.
 73
     1
 44
1.0
  0
POINT
  5
294
330
27E
100
AcDbEntity
  8
DEFPOINTS
  6
ByBlock
 62
     0
440
 16777216
100
AcDbPoint
 10
9.902019000000001
 20
1.205645
 30
0.0
  0
POINT
  5
295
330
27E
100
AcDbEntity
  8
DEFPOINTS
  6
ByBlock
 62
     0
440
 16777216
100
AcDbPoint
 10
10.026019
 20
1.205645
 30
0.0
  0
POINT
  5
296
330
27E
100
AcDbEntity
  8
DEFPOINTS
  6
ByBlock
 62
     0
440
 16777216
100
AcDbPoint
 10
10.026019
 20
0.7807460000000001
 30
0.0
  0
ENDBLK
  5
297
330
27E
100
AcDbEntity
  8
0
100
AcDbBlockEnd
  0
BLOCK
  5
2B2
330
298
100
AcDbEntity
  8
0
100
AcDbBlockBegin
  2
*D9
 70
     1
 10
0.0
 20
0.0
 30
0.0
  3
*D9
  1

  0
LINE
  5
2B3
330
298
100
AcDbEntity
  8
0
  6
ByBlock
 62
     0
440
 16777216
100
AcDbLine
 10
4.41483
 20
1.173145
 30
0.0
 11
4.41483
 21
0.581155
 31
0.0
  0
LINE
  5
2B4
330
298
100
AcDbEntity
  8
0
  6
ByBlock
 62
     0
440
 16777216
100
AcDbLine
 10
3.91483
 20
1.173145
 30
0.0
 11
3.91483
 21
0.581155
 31
0.0
  0
LINE
  5
2B5
330
298
100
AcDbEntity
  8
0
  6
ByBlock
 62
     0
440
 16777216
100
AcDbLine
 10
4.264829999999999
 20
0.7611550000000001
 30
0.0
 11
4.06483
 21
0.7611550000000001
 31
0.0
  0
LINE
  5
2B6
330
298
100
AcDbEntity
  8
0
  6
ByBlock
 62
     0
440
 16777216
100
AcDbLine
 10
3.91483
 20
0.7611550000000001
 30
0.0
 11
3.726162
 21
0.7611550000000001
 31
0.0
  0
SOLID
  5
2B7
330
298
100
AcDbEntity
  8
0
  6
ByBlock
 62
     0
440
 16777216
100
AcDbTrace
 10
4.264829999999999
 20
0.7861550000000001
 30
0.0
 11
4.264829999999999
 21
0.7361550000000001
 31
0.0
 12
4.41483
 22
0.7611550000000001
 32
0.0
 13
4.41483
 23
0.7611550000000001
 33
0.0
  0
SOLID
  5
2B8
330
298
100
AcDbEntity
  8
0
  6
ByBlock
 62
     0
440
 16777216
100
AcDbTrace
 10
4.06483
 20
0.7861550000000001
 30
0.0
 11
4.06483
 21
0.7361550000000001
 31
0.0
 12
3.91483
 22
0.7611550000000001
 32
0.0
 13
3.91483
 23
0.7611550000000001
 33
0.0
  0
MTEXT
  5
2B9
330
298
100
AcDbEntity
  8
0
  6
ByBlock
 62
     0
440
 16777216
100
AcDbMText
 10
3.416162
 20
0.7611550000000001
 30
0.0
 40
0.12
 41
0.0
 46
0.0
 71
     5
 72
     1
  1
\A1;∅.500\PTYP.
 73
     1
 44
1.0
  0
POINT
  5
2BA
330
298
100
AcDbEntity
  8
DEFPOINTS
  6
ByBlock
 62
     0
440
 16777216
100
AcDbPoint
 10
4.41483
 20
1.235645
 30
0.0
  0
POINT
  5
2BB
330
298
100
AcDbEntity
  8
DEFPOINTS
  6
ByBlock
 62
     0
440
 16777216
100
AcDbPoint
 10
3.91483
 20
1.235645
 30
0.0
  0
POINT
  5
2BC
330
298
100
AcDbEntity
  8
DEFPOINTS
  6
ByBlock
 62
     0
440
 16777216
100
AcDbPoint
 10
3.91483
 20
0.7611550000000001
 30
0.0
  0
ENDBLK
  5
2BD
330
298
100
AcDbEntity
  8
0
100
AcDbBlockEnd
  0
BLOCK
  5
2CC
330
2BE
100
AcDbEntity
  8
0
100
AcDbBlockBegin
  2
*D10
 70
     1
 10
0.0
 20
0.0
 30
0.0
  3
*D10
  1

  0
LINE
  5
2CD
330
2BE
100
AcDbEntity
  8
0
  6
ByBlock
 62
     0
440
 16777216
100
AcDbLine
 10
5.240148
 20
5.080644999999999
 30
0.0
 11
5.690357999999999
 21
5.080644999999999
 31
0.0
  0
LINE
  5
2CE
330
2BE
100
AcDbEntity
  8
0
  6
ByBlock
 62
     0
440
 16777216
100
AcDbLine
 10
5.240148
 20
6.205644999999999
 30
0.0
 11
5.690357999999999
 21
6.205644999999999
 31
0.0
  0
LINE
  5
2CF
330
2BE
100
AcDbEntity
  8
0
  6
ByBlock
 62
     0
440
 16777216
100
AcDbLine
 10
5.510358
 20
5.230644999999999
 30
0.0
 11
5.510358
 21
5.393144999999999
 31
0.0
  0
LINE
  5
2D0
330
2BE
100
AcDbEntity
  8
0
  6
ByBlock
 62
     0
440
 16777216
100
AcDbLine
 10
5.510358
 20
6.055644999999999
 30
0.0
 11
5.510358
 21
5.893144999999999
 31
0.0
  0
SOLID
  5
2D1
330
2BE
100
AcDbEntity
  8
0
  6
ByBlock
 62
     0
440
 16777216
100
AcDbTrace
 10
5.485357999999999
 20
5.230644999999999
 30
0.0
 11
5.535358
 21
5.230644999999999
 31
0.0
 12
5.510358
 22
5.080644999999999
 32
0.0
 13
5.510358
 23
5.080644999999999
 33
0.0
  0
SOLID
  5
2D2
330
2BE
100
AcDbEntity
  8
0
  6
ByBlock
 62
     0
440
 16777216
100
AcDbTrace
 10
5.485357999999999
 20
6.055644999999999
 30
0.0
 11
5.535358
 21
6.055644999999999
 31
0.0
 12
5.510358
 22
6.205644999999999
 32
0.0
 13
5.510358
 23
6.205644999999999
 33
0.0
  0
MTEXT
  5
2D3
330
2BE
100
AcDbEntity
  8
0
  6
ByBlock
 62
     0
440
 16777216
100
AcDbMText
 10
5.510358
 20
5.643144999999999
 30
0.0
 40
0.12
 41
0.0
 46
0.0
 71
     5
 72
     1
  1
\A1;1.125\PTYP.
 73
     1
 44
1.0
  0
POINT
  5
2D4
330
2BE
100
AcDbEntity
  8
DEFPOINTS
  6
ByBlock
 62
     0
440
 16777216
100
AcDbPoint
 10
5.177648
 20
5.080644999999999
 30
0.0
  0
POINT
  5
2D5
330
2BE
100
AcDbEntity
  8
DEFPOINTS
  6
ByBlock
 62
     0
440
 16777216
100
AcDbPoint
 10
5.177648
 20
6.205644999999999
 30
0.0
  0
POINT
  5
2D6
330
2BE
100
AcDbEntity
  8
DEFPOINTS
  6
ByBlock
 62
     0
440
 16777216
100
AcDbPoint
 10
5.510358
 20
6.205644999999999
 30
0.0
  0
ENDBLK
  5
2D7
330
2BE
100
AcDbEntity
  8
0
100
AcDbBlockEnd
  0
BLOCK
  5
33E
330
2E4
100
AcDbEntity
  8
0
100
AcDbBlockBegin
  2
*D11
 70
     1
 10
0.0
 20
0.0
 30
0.0
  3
*D11
  1

  0
LINE
  5
33F
330
2E4
100
AcDbEntity
  8
0
  6
ByBlock
 62
     0
440
 16777216
100
AcDbLine
 10
4.16483
 20
6.675594999999999
 30
0.0
 11
4.16483
 21
7.05236
 31
0.0
  0
LINE
  5
340
330
2E4
100
AcDbEntity
  8
0
  6
ByBlock
 62
     0
440
 16777216
100
AcDbLine
 10
4.72683
 20
6.750975999999999
 30
0.0
 11
4.72683
 21
7.05236
 31
0.0
  0
LINE
  5
341
330
2E4
100
AcDbEntity
  8
0
  6
ByBlock
 62
     0
440
 16777216
100
AcDbLine
 10
4.31483
 20
6.87236
 30
0.0
 11
4.57683
 21
6.87236
 31
0.0
  0
LINE
  5
342
330
2E4
100
AcDbEntity
  8
0
  6
ByBlock
 62
     0
440
 16777216
100
AcDbLine
 10
4.72683
 20
6.87236
 30
0.0
 11
5.115591999999999
 21
6.87236
 31
0.0
  0
SOLID
  5
343
330
2E4
100
AcDbEntity
  8
0
  6
ByBlock
 62
     0
440
 16777216
100
AcDbTrace
 10
4.31483
 20
6.89736
 30
0.0
 11
4.31483
 21
6.847360000000001
 31
0.0
 12
4.16483
 22
6.87236
 32
0.0
 13
4.16483
 23
6.87236
 33
0.0
  0
SOLID
  5
344
330
2E4
100
AcDbEntity
  8
0
  6
ByBlock
 62
     0
440
 16777216
100
AcDbTrace
 10
4.57683
 20
6.89736
 30
0.0
 11
4.57683
 21
6.847360000000001
 31
0.0
 12
4.72683
 22
6.87236
 32
0.0
 13
4.72683
 23
6.87236
 33
0.0
  0
MTEXT
  5
345
330
2E4
100
AcDbEntity
  8
0
  6
ByBlock
 62
     0
440
 16777216
100
AcDbMText
 10
5.385591999999999
 20
6.87236
 30
0.0
 40
0.12
 41
0.0
 46
0.0
 71
     5
 72
     1
  1
\A1;.562\PTYP.
 73
     1
 44
1.0
  0
POINT
  5
346
330
2E4
100
AcDbEntity
  8
DEFPOINTS
  6
ByBlock
 62
     0
440
 16777216
100
AcDbPoint
 10
4.16483
 20
6.613094999999999
 30
0.0
  0
POINT
  5
347
330
2E4
100
AcDbEntity
  8
DEFPOINTS
  6
ByBlock
 62
     0
440
 16777216
100
AcDbPoint
 10
4.72683
 20
6.688475999999999
 30
0.0
  0
POINT
  5
348
330
2E4
100
AcDbEntity
  8
DEFPOINTS
  6
ByBlock
 62
     0
440
 16777216
100
AcDbPoint
 10
4.72683
 20
6.87236
 30
0.0
  0
ENDBLK
  5
349
330
2E4
100
AcDbEntity
  8
0
100
AcDbBlockEnd
  0
BLOCK
  5
34A
330
30A
100
AcDbEntity
  8
0
100
AcDbBlockBegin
  2
*D12
 70
     1
 10
0.0
 20
0.0
 30
0.0
  3
*D12
  1

  0
LINE
  5
51B
330
30A
100
AcDbEntity
  8
DIMS_TEXT
 62
     0
440
 16777216
370
    -2
100
AcDbLine
 10
5.040672999999999
 20
6.330144999999999
 30
0.0
 11
5.040672999999999
 21
7.526164999999998
 31
0.0
  0
LINE
  5
51C
330
30A
100
AcDbEntity
  8
DIMS_TEXT
 62
     0
440
 16777216
370
    -2
100
AcDbLine
 10
4.16483
 20
6.675594999999999
 30
0.0
 11
4.16483
 21
7.526164999999998
 31
0.0
  0
LINE
  5
51D
330
30A
100
AcDbEntity
  8
DIMS_TEXT
 62
     0
440
 16777216
370
    -2
100
AcDbLine
 10
4.890672999999999
 20
7.346164999999999
 30
0.0
 11
4.872752
 21
7.346164999999999
 31
0.0
  0
LINE
  5
51E
330
30A
100
AcDbEntity
  8
DIMS_TEXT
 62
     0
440
 16777216
370
    -2
100
AcDbLine
 10
4.31483
 20
7.346164999999999
 30
0.0
 11
4.332751999999999
 21
7.346164999999999
 31
0.0
  0
SOLID
  5
51F
330
30A
100
AcDbEntity
  8
DIMS_TEXT
 62
     0
440
 16777216
100
AcDbTrace
 10
4.890672999999999
 20
7.371164999999999
 30
0.0
 11
4.890672999999999
 21
7.321164999999998
 31
0.0
 12
5.040672999999999
 22
7.346164999999999
 32
0.0
 13
5.040672999999999
 23
7.346164999999999
 33
0.0
  0
SOLID
  5
520
330
30A
100
AcDbEntity
  8
DIMS_TEXT
 62
     0
440
 16777216
100
AcDbTrace
 10
4.31483
 20
7.371164999999999
 30
0.0
 11
4.31483
 21
7.321164999999998
 31
0.0
 12
4.16483
 22
7.346164999999999
 32
0.0
 13
4.16483
 23
7.346164999999999
 33
0.0
  0
MTEXT
  5
521
330
30A
100
AcDbEntity
  8
DIMS_TEXT
 62
     0
440
 16777216
100
AcDbMText
 10
4.602751999999999
 20
7.346164999999999
 30
0.0
 40
0.12
 41
0.0
 46
0.0
 71
     5
 72
     1
  1
\A1;.875\PTYP.
 73
     1
 44
1.0
  0
POINT
  5
522
330
30A
100
AcDbEntity
  8
DEFPOINTS
 62
     0
440
 16777216
100
AcDbPoint
 10
5.040672999999999
 20
6.267644999999999
 30
0.0
  0
POINT
  5
523
330
30A
100
AcDbEntity
  8
DEFPOINTS
 62
     0
440
 16777216
100
AcDbPoint
 10
4.16483
 20
6.613094999999999
 30
0.0
  0
POINT
  5
524
330
30A
100
AcDbEntity
  8
DEFPOINTS
 62
     0
440
 16777216
100
AcDbPoint
 10
4.16483
 20
7.346164999999999
 30
0.0
  0
ENDBLK
  5
355
330
30A
100
AcDbEntity
  8
0
100
AcDbBlockEnd
  0
BLOCK
  5
356
330
324
100
AcDbEntity
  8
0
100
AcDbBlockBegin
  2
*D13
 70
     1
 10
0.0
 20
0.0
 30
0.0
  3
*D13
  1

  0
LINE
  5
357
330
324
100
AcDbEntity
  8
0
  6
ByBlock
 62
     0
440
 16777216
100
AcDbLine
 10
5.040672999999999
 20
6.330144999999999
 30
0.0
 11
5.040672999999999
 21
8.063997
 31
0.0
  0
LINE
  5
358
330
324
100
AcDbEntity
  8
0
  6
ByBlock
 62
     0
440
 16777216
100
AcDbLine
 10
3.29033
 20
6.330144999999999
 30
0.0
 11
3.29033
 21
8.063997
 31
0.0
  0
LINE
  5
359
330
324
100
AcDbEntity
  8
0
  6
ByBlock
 62
     0
440
 16777216
100
AcDbLine
 10
4.890673
 20
7.883996999999999
 30
0.0
 11
4.465501999999999
 21
7.883996999999999
 31
0.0
  0
LINE
  5
35A
330
324
100
AcDbEntity
  8
0
  6
ByBlock
 62
     0
440
 16777216
100
AcDbLine
 10
3.44033
 20
7.883996999999999
 30
0.0
 11
3.865501999999999
 21
7.883996999999999
 31
0.0
  0
SOLID
  5
35B
330
324
100
AcDbEntity
  8
0
  6
ByBlock
 62
     0
440
 16777216
100
AcDbTrace
 10
4.890673
 20
7.908997
 30
0.0
 11
4.890673
 21
7.858997
 31
0.0
 12
5.040672999999999
 22
7.883996999999999
 32
0.0
 13
5.040672999999999
 23
7.883996999999999
 33
0.0
  0
SOLID
  5
35C
330
324
100
AcDbEntity
  8
0
  6
ByBlock
 62
     0
440
 16777216
100
AcDbTrace
 10
3.44033
 20
7.908997
 30
0.0
 11
3.44033
 21
7.858997
 31
0.0
 12
3.29033
 22
7.883996999999999
 32
0.0
 13
3.29033
 23
7.883996999999999
 33
0.0
  0
MTEXT
  5
35D
330
324
100
AcDbEntity
  8
0
  6
ByBlock
 62
     0
440
 16777216
100
AcDbMText
 10
4.165502
 20
7.883996999999999
 30
0.0
 40
0.12
 41
0.0
 46
0.0
 71
     5
 72
     1
  1
\A1;1.750
 73
     1
 44
1.0
  0
POINT
  5
35E
330
324
100
AcDbEntity
  8
DEFPOINTS
  6
ByBlock
 62
     0
440
 16777216
100
AcDbPoint
 10
5.040672999999999
 20
6.267644999999999
 30
0.0
  0
POINT
  5
35F
330
324
100
AcDbEntity
  8
DEFPOINTS
  6
ByBlock
 62
     0
440
 16777216
100
AcDbPoint
 10
3.29033
 20
6.267644999999999
 30
0.0
  0
POINT
  5
360
330
324
100
AcDbEntity
  8
DEFPOINTS
  6
ByBlock
 62
     0
440
 16777216
100
AcDbPoint
 10
3.29033
 20
7.883996999999999
 30
0.0
  0
ENDBLK
  5
361
330
324
100
AcDbEntity
  8
0
100
AcDbBlockEnd
  0
BLOCK
  5
363
330
362
100
AcDbEntity
  8
0
100
AcDbBlockBegin
  2
*D14
 70
     1
 10
0.0
 20
0.0
 30
0.0
  3
*D14
  1

  0
LINE
  5
364
330
362
100
AcDbEntity
  8
0
  6
ByBlock
 62
     0
440
 16777216
100
AcDbLine
 10
3.28983
 20
2.205645
 30
0.0
 11
2.502320999999999
 21
2.205645
 31
0.0
  0
LINE
  5
365
330
362
100
AcDbEntity
  8
0
  6
ByBlock
 62
     0
440
 16777216
100
AcDbLine
 10
3.118886
 20
5.080644999999999
 30
0.0
 11
2.502320999999999
 21
5.080644999999999
 31
0.0
  0
LINE
  5
366
330
362
100
AcDbEntity
  8
0
  6
ByBlock
 62
     0
440
 16777216
100
AcDbLine
 10
2.682320999999999
 20
2.355644999999999
 30
0.0
 11
2.682320999999999
 21
3.493144999999999
 31
0.0
  0
LINE
  5
367
330
362
100
AcDbEntity
  8
0
  6
ByBlock
 62
     0
440
 16777216
100
AcDbLine
 10
2.682320999999999
 20
4.930644999999999
 30
0.0
 11
2.682320999999999
 21
3.793144999999999
 31
0.0
  0
SOLID
  5
368
330
362
100
AcDbEntity
  8
0
  6
ByBlock
 62
     0
440
 16777216
100
AcDbTrace
 10
2.657321
 20
2.355644999999999
 30
0.0
 11
2.707320999999999
 21
2.355644999999999
 31
0.0
 12
2.682320999999999
 22
2.205645
 32
0.0
 13
2.682320999999999
 23
2.205645
 33
0.0
  0
SOLID
  5
369
330
362
100
AcDbEntity
  8
0
  6
ByBlock
 62
     0
440
 16777216
100
AcDbTrace
 10
2.657321
 20
4.930644999999999
 30
0.0
 11
2.707320999999999
 21
4.930644999999999
 31
0.0
 12
2.682320999999999
 22
5.080644999999999
 32
0.0
 13
2.682320999999999
 23
5.080644999999999
 33
0.0
  0
MTEXT
  5
36A
330
362
100
AcDbEntity
  8
0
  6
ByBlock
 62
     0
440
 16777216
100
AcDbMText
 10
2.682320999999999
 20
3.643144999999999
 30
0.0
 40
0.12
 41
0.0
 46
0.0
 71
     5
 72
     1
  1
\A1;2.875
 73
     1
 44
1.0
  0
POINT
  5
36B
330
362
100
AcDbEntity
  8
DEFPOINTS
  6
ByBlock
 62
     0
440
 16777216
100
AcDbPoint
 10
3.35233
 20
2.205645
 30
0.0
  0
POINT
  5
36C
330
362
100
AcDbEntity
  8
DEFPOINTS
  6
ByBlock
 62
     0
440
 16777216
100
AcDbPoint
 10
3.181386
 20
5.080644999999999
 30
0.0
  0
POINT
  5
36D
330
362
100
AcDbEntity
  8
DEFPOINTS
  6
ByBlock
 62
     0
440
 16777216
100
AcDbPoint
 10
2.682320999999999
 20
5.080644999999999
 30
0.0
  0
ENDBLK
  5
36E
330
362
100
AcDbEntity
  8
0
100
AcDbBlockEnd
  0
BLOCK
  5
38A
330
370
100
AcDbEntity
  8
0
100
AcDbBlockBegin
  2
*D15
 70
     1
 10
0.0
 20
0.0
 30
0.0
  3
*D15
  1

  0
LINE
  5
38B
330
370
100
AcDbEntity
  8
0
  6
ByBlock
 62
     0
440
 16777216
100
AcDbLine
 10
3.88233
 20
1.205645
 30
0.0
 11
1.836899999999999
 21
1.205645
 31
0.0
  0
LINE
  5
38C
330
370
100
AcDbEntity
  8
0
  6
ByBlock
 62
     0
440
 16777216
100
AcDbLine
 10
3.35183
 20
6.455644999999999
 30
0.0
 11
1.836899999999999
 21
6.455644999999999
 31
0.0
  0
LINE
  5
38D
330
370
100
AcDbEntity
  8
0
  6
ByBlock
 62
     0
440
 16777216
100
AcDbLine
 10
2.0169
 20
1.355644999999999
 30
0.0
 11
2.0169
 21
4.306413
 31
0.0
  0
LINE
  5
38E
330
370
100
AcDbEntity
  8
0
  6
ByBlock
 62
     0
440
 16777216
100
AcDbLine
 10
2.0169
 20
6.305644999999999
 30
0.0
 11
2.0169
 21
4.606412999999999
 31
0.0
  0
SOLID
  5
38F
330
370
100
AcDbEntity
  8
0
  6
ByBlock
 62
     0
440
 16777216
100
AcDbTrace
 10
1.9919
 20
1.355644999999999
 30
0.0
 11
2.0419
 21
1.355644999999999
 31
0.0
 12
2.0169
 22
1.205645
 32
0.0
 13
2.0169
 23
1.205645
 33
0.0
  0
SOLID
  5
390
330
370
100
AcDbEntity
  8
0
  6
ByBlock
 62
     0
440
 16777216
100
AcDbTrace
 10
1.9919
 20
6.305644999999999
 30
0.0
 11
2.0419
 21
6.305644999999999
 31
0.0
 12
2.0169
 22
6.455644999999999
 32
0.0
 13
2.0169
 23
6.455644999999999
 33
0.0
  0
MTEXT
  5
391
330
370
100
AcDbEntity
  8
0
  6
ByBlock
 62
     0
440
 16777216
100
AcDbMText
 10
2.0169
 20
4.456412999999999
 30
0.0
 40
0.12
 41
0.0
 46
0.0
 71
     5
 72
     1
  1
\A1;5.28
 73
     1
 44
1.0
  0
POINT
  5
392
330
370
100
AcDbEntity
  8
DEFPOINTS
  6
ByBlock
 62
     0
440
 16777216
100
AcDbPoint
 10
3.94483
 20
1.205645
 30
0.0
  0
POINT
  5
393
330
370
100
AcDbEntity
  8
DEFPOINTS
  6
ByBlock
 62
     0
440
 16777216
100
AcDbPoint
 10
3.41433
 20
6.455644999999999
 30
0.0
  0
POINT
  5
394
330
370
100
AcDbEntity
  8
DEFPOINTS
  6
ByBlock
 62
     0
440
 16777216
100
AcDbPoint
 10
2.0169
 20
6.455644999999999
 30
0.0
  0
ENDBLK
  5
395
330
370
100
AcDbEntity
  8
0
100
AcDbBlockEnd
  0
BLOCK
  5
3B6
330
396
100
AcDbEntity
  8
0
100
AcDbBlockBegin
  2
*D16
 70
     1
 10
0.0
 20
0.0
 30
0.0
  3
*D16
  1

  0
LINE
  5
3B7
330
396
100
AcDbEntity
  8
0
  6
ByBlock
 62
     0
440
 16777216
100
AcDbLine
 10
5.712583999999999
 20
3.439233
 30
0.0
 11
5.562583999999999
 21
3.439233
 31
0.0
  0
LINE
  5
3B8
330
396
100
AcDbEntity
  8
0
  6
ByBlock
 62
     0
440
 16777216
100
AcDbLine
 10
5.562583999999999
 20
3.439233
 30
0.0
 11
4.967152999999999
 21
3.807148999999999
 31
0.0
  0
MTEXT
  5
3B9
330
396
100
AcDbEntity
  8
0
  6
ByBlock
 62
     0
440
 16777216
100
AcDbMText
 10
6.342583999999999
 20
3.439233
 30
0.0
 40
0.12
 41
0.0
 46
0.0
 71
     5
 72
     1
  1
\A1;∅.265 THRU\PX 4\PTYP.
 73
     1
 44
1.0
  0
SOLID
  5
3BA
330
396
100
AcDbEntity
  8
0
  6
ByBlock
 62
     0
440
 16777216
100
AcDbTrace
 10
4.980294999999999
 20
3.828416999999999
 30
0.0
 11
4.954012
 21
3.785881999999999
 31
0.0
 12
4.839548
 22
3.885997
 32
0.0
 13
4.839548
 23
3.885997
 33
0.0
  0
LINE
  5
3BB
330
396
100
AcDbEntity
  8
0
  6
ByBlock
 62
     0
440
 16777216
100
AcDbLine
 10
4.63683
 20
3.955644999999999
 30
0.0
 11
4.81683
 21
3.955644999999999
 31
0.0
  0
LINE
  5
3BC
330
396
100
AcDbEntity
  8
0
  6
ByBlock
 62
     0
440
 16777216
100
AcDbLine
 10
4.72683
 20
3.865644999999999
 30
0.0
 11
4.72683
 21
4.045644999999999
 31
0.0
  0
POINT
  5
3BD
330
396
100
AcDbEntity
  8
DEFPOINTS
  6
ByBlock
 62
     0
440
 16777216
100
AcDbPoint
 10
4.839548
 20
3.885997
 30
0.0
  0
POINT
  5
3BE
330
396
100
AcDbEntity
  8
DEFPOINTS
  6
ByBlock
 62
     0
440
 16777216
100
AcDbPoint
 10
4.614112
 20
4.025294
 30
0.0
  0
ENDBLK
  5
3BF
330
396
100
AcDbEntity
  8
0
100
AcDbBlockEnd
  0
BLOCK
  5
489
330
47A
100
AcDbEntity
  8
0
100
AcDbBlockBegin
  2
TITLE_BLOCK
 70
     0
 10
0.0
 20
0.0
 30
0.0
  3
TITLE_BLOCK
  1

  0
TEXT
  5
47B
330
47A
100
AcDbEntity
  8
DIMS_TEXT
100
AcDbText
 10
-2.625251
 20
-1.013129
 30
0.0
 40
0.2
  1
HAR121   135818(C1)/135817(C2)   1:1
 41
0.7
100
AcDbText
  0
TEXT
  5
47C
330
47A
100
AcDbEntity
  8
DIMS_TEXT
100
AcDbText
 10
-2.687755
 20
-0.107889
 30
0.0
 40
0.15
  1
Tel. (508) 278-2422     Fax (508) 278-7863
 41
0.9
100
AcDbText
  0
TEXT
  5
47D
330
47A
100
AcDbEntity
  8
DIMS_TEXT
100
AcDbText
 10
-2.413383
 20
0.5243790000000001
 30
0.0
 40
0.2
  1
Two Way Right Angle Gear Drive
 41
0.9
100
AcDbText
  0
TEXT
  5
47E
330
47A
100
AcDbEntity
  8
DIMS_TEXT
100
AcDbText
 10
-1.826670999999999
 20
0.987066
 30
0.0
 40
0.3
  1
 MITRPAK
 41
1.5
100
AcDbText
  0
LINE
  5
47F
330
47A
100
AcDbEntity
  8
DIMS_TEXT
100
AcDbLine
 10
-2.723036999999999
 20
-0.5330960000000001
 30
0.0
 11
2.500333
 21
-0.5330960000000001
 31
0.0
  0
LINE
  5
480
330
47A
100
AcDbEntity
  8
DIMS_TEXT
100
AcDbLine
 10
-2.723036999999999
 20
-0.199514
 30
0.0
 11
2.500333
 21
-0.199514
 31
0.0
  0
LINE
  5
481
330
47A
100
AcDbEntity
  8
DIMS_TEXT
100
AcDbLine
 10
-2.723036999999999
 20
0.125931
 30
0.0
 11
2.500333
 21
0.125931
 31
0.0
  0
LINE
  5
482
330
47A
100
AcDbEntity
  8
DIMS_TEXT
100
AcDbLine
 10
-2.723036999999999
 20
0.451377
 30
0.0
 11
2.500333
 21
0.451377
 31
0.0
  0
LINE
  5
483
330
47A
100
AcDbEntity
  8
DIMS_TEXT
100
AcDbLine
 10
-2.723036999999999
 20
0.8744569999999999
 30
0.0
 11
2.500333
 21
0.8744569999999999
 31
0.0
  0
TEXT
  5
484
330
47A
100
AcDbEntity
  8
DIMS_TEXT
100
AcDbText
 10
-2.633399999999999
 20
-0.468007
 30
0.0
 40
0.2
  1
MODEL   PART NUMBER  RATIO
100
AcDbText
  0
LWPOLYLINE
  5
485
330
47A
100
AcDbEntity
  8
DIMS_TEXT
100
AcDbPolyline
 90
        4
 70
     1
 43
0.0
 10
-2.723036999999999
 20
1.39517
 10
2.500333
 20
1.39517
 10
2.500333
 20
-1.143307
 10
-2.723036999999999
 20
-1.143307
  0
TEXT
  5
486
330
47A
100
AcDbEntity
  8
DIMS_TEXT
100
AcDbText
 10
-2.687755
 20
0.215921
 30
0.0
 40
0.15
  1
Uxbridge, MA 01569              U.S.A.
100
AcDbText
  0
LINE
  5
487
330
47A
100
AcDbEntity
  8
DIMS_TEXT
100
AcDbLine
 10
-1.394784999999999
 20
-0.199514
 30
0.0
 11
-1.394784999999999
 21
-1.143307
 31
0.0
  0
LINE
  5
488
330
47A
100
AcDbEntity
  8
DIMS_TEXT
100
AcDbLine
 10
1.294312999999999
 20
-0.199514
 30
0.0
 11
1.294312999999999
 21
-1.143307
 31
0.0
  0
ENDBLK
  5
48A
330
47A
100
AcDbEntity
  8
0
100
AcDbBlockEnd
  0
ENDSEC
  0
SECTION
  2
ENTITIES
  0
LINE
  5
CA
330
18
100
AcDbEntity
  8
0
100
AcDbLine
 10
4.97733
 20
4.530644999999999
 30
0.0
 11
4.97733
 21
4.608487
 31
0.0
  0
LINE
  5
CB
330
18
100
AcDbEntity
  8
0
100
AcDbLine
 10
11.464019
 20
6.018644999999999
 30
0.0
 11
11.464019
 21
4.142644999999999
 31
0.0
  0
LINE
  5
CD
330
18
100
AcDbEntity
  8
CTR_LINES
100
AcDbLine
 10
10.839019
 20
6.216492999999999
 30
0.0
 11
10.839019
 21
3.744976999999999
 31
0.0
  0
LINE
  5
CF
330
18
100
AcDbEntity
  8
CTR_LINES
100
AcDbLine
 10
4.72683
 20
5.825076999999999
 30
0.0
 11
4.72683
 21
6.688475999999999
 31
0.0
  0
CIRCLE
  5
D0
330
18
100
AcDbEntity
  8
0
100
AcDbCircle
 10
4.16483
 20
5.080644999999999
 30
0.0
 40
0.63
  0
LINE
  5
D1
330
18
100
AcDbEntity
  8
0
100
AcDbLine
 10
3.29033
 20
3.940644999999999
 30
0.0
 11
3.29033
 21
4.845644999999999
 31
0.0
  0
LINE
  5
D2
330
18
100
AcDbEntity
  8
0
100
AcDbLine
 10
5.042355
 20
3.940644999999999
 30
0.0
 11
5.042355
 21
4.470644999999999
 31
0.0
  0
LINE
  5
D3
330
18
100
AcDbEntity
  8
CTR_LINES
100
AcDbLine
 10
4.16483
 20
1.055492
 30
0.0
 11
4.16483
 21
6.613094999999999
 31
0.0
  0
ARC
  5
D4
330
18
100
AcDbEntity
  8
0
100
AcDbCircle
 10
8.401018999999999
 20
4.425644999999999
 30
0.0
 40
0.062
100
AcDbArc
 50
90.0
 51
180.0
  0
LINE
  5
DB
330
18
100
AcDbEntity
  8
0
100
AcDbLine
 10
8.089019
 20
6.455644999999999
 30
0.0
 11
8.089019
 21
3.705644999999999
 31
0.0
  0
ARC
  5
DE
330
18
100
AcDbEntity
  8
0
100
AcDbCircle
 10
3.85283
 20
2.517644999999999
 30
0.0
 40
0.062
100
AcDbArc
 50
270.0
 51
0.0
  0
ARC
  5
DF
330
18
100
AcDbEntity
  8
0
100
AcDbCircle
 10
4.47683
 20
2.517644999999999
 30
0.0
 40
0.062
100
AcDbArc
 50
180.0
 51
270.0
  0
LINE
  5
E0
330
18
100
AcDbEntity
  8
0
100
AcDbLine
 10
4.97733
 20
2.205645
 30
0.0
 11
4.97733
 21
3.767644999999999
 31
0.0
  0
LINE
  5
E1
330
18
100
AcDbEntity
  8
0
100
AcDbLine
 10
3.35233
 20
2.205645
 30
0.0
 11
3.35233
 21
3.767644999999999
 31
0.0
  0
LINE
  5
E2
330
18
100
AcDbEntity
  8
0
100
AcDbLine
 10
3.85283
 20
2.455645
 30
0.0
 11
4.47683
 21
2.455645
 31
0.0
  0
LINE
  5
E3
330
18
100
AcDbEntity
  8
0
100
AcDbLine
 10
3.35233
 20
2.205645
 30
0.0
 11
4.97733
 21
2.205645
 31
0.0
  0
LINE
  5
E4
330
18
100
AcDbEntity
  8
0
100
AcDbLine
 10
3.41433
 20
2.455645
 30
0.0
 11
3.85283
 21
2.455645
 31
0.0
  0
LINE
  5
E5
330
18
100
AcDbEntity
  8
0
100
AcDbLine
 10
3.35233
 20
2.205645
 30
0.0
 11
3.35233
 21
2.393645
 31
0.0
  0
ARC
  5
E6
330
18
100
AcDbEntity
  8
0
100
AcDbCircle
 10
3.41433
 20
2.393645
 30
0.0
 40
0.062
100
AcDbArc
 50
90.0
 51
180.0
  0
ARC
  5
E7
330
18
100
AcDbEntity
  8
0
100
AcDbCircle
 10
4.915329999999999
 20
2.393645
 30
0.0
 40
0.062
100
AcDbArc
 50
0.0
 51
90.0
  0
LINE
  5
E8
330
18
100
AcDbEntity
  8
0
100
AcDbLine
 10
4.47683
 20
2.455645
 30
0.0
 11
4.915329999999999
 21
2.455645
 31
0.0
  0
LINE
  5
E9
330
18
100
AcDbEntity
  8
0
100
AcDbLine
 10
4.97733
 20
2.205645
 30
0.0
 11
4.97733
 21
2.393645
 31
0.0
  0
LINE
  5
EC
330
18
100
AcDbEntity
  8
0
100
AcDbLine
 10
3.41433
 20
3.705644999999999
 30
0.0
 11
4.915329999999999
 21
3.705644999999999
 31
0.0
  0
LINE
  5
ED
330
18
100
AcDbEntity
  8
0
100
AcDbLine
 10
3.91483
 20
2.517644999999999
 30
0.0
 11
3.91483
 21
3.705644999999999
 31
0.0
  0
CIRCLE
  5
EE
330
18
100
AcDbEntity
  8
0
100
AcDbCircle
 10
3.60283
 20
3.955644999999999
 30
0.0
 40
0.1325
  0
ARC
  5
EF
330
18
100
AcDbEntity
  8
0
100
AcDbCircle
 10
3.41433
 20
3.767644999999999
 30
0.0
 40
0.062
100
AcDbArc
 50
180.0
 51
270.0
  0
LINE
  5
F1
330
18
100
AcDbEntity
  8
0
100
AcDbLine
 10
4.41483
 20
2.517644999999999
 30
0.0
 11
4.41483
 21
3.705644999999999
 31
0.0
  0
ARC
  5
F2
330
18
100
AcDbEntity
  8
0
100
AcDbCircle
 10
4.915329999999999
 20
3.767644999999999
 30
0.0
 40
0.062
100
AcDbArc
 50
270.0
 51
0.0
  0
CIRCLE
  5
F3
330
18
100
AcDbEntity
  8
0
100
AcDbCircle
 10
4.72683
 20
3.955644999999999
 30
0.0
 40
0.1325
  0
LINE
  5
F4
330
18
100
AcDbEntity
  8
0
100
AcDbLine
 10
4.97733
 20
3.767644999999999
 30
0.0
 11
4.97733
 21
3.767644999999999
 31
0.0
  0
LINE
  5
F6
330
18
100
AcDbEntity
  8
CTR_LINES
100
AcDbLine
 10
10.376246
 20
4.205644999999999
 30
0.0
 11
11.582321
 21
4.205644999999999
 31
0.0
  0
LINE
  5
F7
330
18
100
AcDbEntity
  8
0
100
AcDbLine
 10
8.589019
 20
2.205645
 30
0.0
 11
11.339019
 21
2.205645
 31
0.0
  0
LINE
  5
F9
330
18
100
AcDbEntity
  8
0
100
AcDbLine
 10
8.902019000000001
 20
2.455645
 30
0.0
 11
9.309019000000001
 21
2.455645
 31
0.0
  0
ARC
  5
FA
330
18
100
AcDbEntity
  8
0
100
AcDbCircle
 10
8.902019000000001
 20
2.517644999999999
 30
0.0
 40
0.062
100
AcDbArc
 50
270.0
 51
0.0
  0
LINE
  5
FB
330
18
100
AcDbEntity
  8
0
100
AcDbLine
 10
8.651018999999999
 20
2.455645
 30
0.0
 11
8.902019000000001
 21
2.455645
 31
0.0
  0
LINE
  5
FC
330
18
100
AcDbEntity
  8
0
100
AcDbLine
 10
8.589019
 20
2.393645
 30
0.0
 11
8.589019
 21
2.205645
 31
0.0
  0
ARC
  5
FD
330
18
100
AcDbEntity
  8
0
100
AcDbCircle
 10
8.651018999999999
 20
2.393645
 30
0.0
 40
0.062
100
AcDbArc
 50
90.0
 51
180.0
  0
LINE
  5
FE
330
18
100
AcDbEntity
  8
0
100
AcDbLine
 10
8.964019
 20
3.938437
 30
0.0
 11
8.964019
 21
2.517644999999999
 31
0.0
  0
LINE
  5
FF
330
18
100
AcDbEntity
  8
0
100
AcDbLine
 10
8.401018999999999
 20
4.487644999999999
 30
0.0
 11
8.764019000000001
 21
4.487644999999999
 31
0.0
  0
LINE
  5
100
330
18
100
AcDbEntity
  8
0
100
AcDbLine
 10
8.401018999999999
 20
4.080644999999999
 30
0.0
 11
8.821811
 21
4.080644999999999
 31
0.0
  0
LINE
  5
101
330
18
100
AcDbEntity
  8
0
100
AcDbLine
 10
8.339019
 20
4.018644999999999
 30
0.0
 11
8.339019
 21
3.767644999999999
 31
0.0
  0
ARC
  5
102
330
18
100
AcDbEntity
  8
0
100
AcDbCircle
 10
8.277019000000001
 20
3.767644999999999
 30
0.0
 40
0.062
100
AcDbArc
 50
270.0
 51
0.0
  0
LINE
  5
103
330
18
100
AcDbEntity
  8
0
100
AcDbLine
 10
8.089019
 20
3.705644999999999
 30
0.0
 11
8.277019000000001
 21
3.705644999999999
 31
0.0
  0
LINE
  5
104
330
18
100
AcDbEntity
  8
0
100
AcDbLine
 10
8.339019
 20
4.425644999999999
 30
0.0
 11
8.339019
 21
4.018644999999999
 31
0.0
  0
ARC
  5
105
330
18
100
AcDbEntity
  8
0
100
AcDbCircle
 10
8.401018999999999
 20
4.018644999999999
 30
0.0
 40
0.062
100
AcDbArc
 50
90.0
 51
180.0
  0
CIRCLE
  5
10C
330
18
100
AcDbEntity
  8
0
100
AcDbCircle
 10
9.089019
 20
4.205644999999999
 30
0.0
 40
0.1325
  0
ARC
  5
10D
330
18
100
AcDbEntity
  8
0
100
AcDbCircle
 10
9.309019000000001
 20
2.517644999999999
 30
0.0
 40
0.062
100
AcDbArc
 50
270.0
 51
0.0
  0
ARC
  5
10E
330
18
100
AcDbEntity
  8
0
100
AcDbCircle
 10
10.619019
 20
2.517644999999999
 30
0.0
 40
0.062
100
AcDbArc
 50
180.0
 51
270.0
  0
ARC
  5
10F
330
18
100
AcDbEntity
  8
0
100
AcDbCircle
 10
11.026019
 20
2.517644999999999
 30
0.0
 40
0.062
100
AcDbArc
 50
180.0
 51
270.0
  0
LINE
  5
110
330
18
100
AcDbEntity
  8
0
100
AcDbLine
 10
10.619019
 20
2.455645
 30
0.0
 11
11.026019
 21
2.455645
 31
0.0
  0
LINE
  5
111
330
18
100
AcDbEntity
  8
0
100
AcDbLine
 10
11.339019
 20
2.393645
 30
0.0
 11
11.339019
 21
2.205645
 31
0.0
  0
LINE
  5
112
330
18
100
AcDbEntity
  8
0
100
AcDbLine
 10
11.026019
 20
2.455645
 30
0.0
 11
11.277019
 21
2.455645
 31
0.0
  0
ARC
  5
113
330
18
100
AcDbEntity
  8
0
100
AcDbCircle
 10
11.277019
 20
2.393645
 30
0.0
 40
0.062
100
AcDbArc
 50
0.0
 51
90.0
  0
LINE
  5
114
330
18
100
AcDbEntity
  8
0
100
AcDbLine
 10
9.371019
 20
3.880644999999999
 30
0.0
 11
9.371019
 21
2.517644999999999
 31
0.0
  0
LINE
  5
115
330
18
100
AcDbEntity
  8
0
100
AcDbLine
 10
10.557019
 20
3.880644999999999
 30
0.0
 11
10.557019
 21
2.517644999999999
 31
0.0
  0
LINE
  5
116
330
18
100
AcDbEntity
  8
0
100
AcDbLine
 10
10.964019
 20
3.938437
 30
0.0
 11
10.964019
 21
2.517644999999999
 31
0.0
  0
CIRCLE
  5
11B
330
18
100
AcDbEntity
  8
0
100
AcDbCircle
 10
10.839019
 20
4.205644999999999
 30
0.0
 40
0.1325
  0
ARC
  5
11C
330
18
100
AcDbEntity
  8
0
100
AcDbCircle
 10
11.402019
 20
4.142644999999999
 30
0.0
 40
0.062
100
AcDbArc
 50
270.0
 51
0.0
  0
LINE
  5
11D
330
18
100
AcDbEntity
  8
0
100
AcDbLine
 10
11.164019
 20
4.487644999999999
 30
0.0
 11
11.464019
 21
4.487644999999999
 31
0.0
  0
LINE
  5
11F
330
18
100
AcDbEntity
  8
0
100
AcDbLine
 10
11.106226
 20
4.080644999999999
 30
0.0
 11
11.402019
 21
4.080644999999999
 31
0.0
  0
LINE
  5
122
330
18
100
AcDbEntity
  8
CTR_LINES
100
AcDbLine
 10
3.181386
 20
5.080644999999999
 30
0.0
 11
5.177648
 21
5.080644999999999
 31
0.0
  0
LINE
  5
124
330
18
100
AcDbEntity
  8
CTR_LINES
100
AcDbLine
 10
4.512226999999999
 20
6.205644999999999
 30
0.0
 11
5.177648
 21
6.205644999999999
 31
0.0
  0
LINE
  5
125
330
18
100
AcDbEntity
  8
0
100
AcDbLine
 10
3.41433
 20
6.455644999999999
 30
0.0
 11
4.915329999999999
 21
6.455644999999999
 31
0.0
  0
LINE
  5
126
330
18
100
AcDbEntity
  8
0
100
AcDbLine
 10
3.35233
 20
4.905644999999999
 30
0.0
 11
3.35233
 21
5.553766
 31
0.0
  0
LINE
  5
127
330
18
100
AcDbEntity
  8
0
100
AcDbLine
 10
3.35233
 20
3.767644999999999
 30
0.0
 11
3.35233
 21
6.393644999999999
 31
0.0
  0
LINE
  5
129
330
18
100
AcDbEntity
  8
0
100
AcDbLine
 10
3.29033
 20
4.517644999999999
 30
0.0
 11
3.29033
 21
4.517644999999999
 31
0.0
  0
LINE
  5
12A
330
18
100
AcDbEntity
  8
0
  6
ACAD_ISO02W100
100
AcDbLine
 10
3.35233
 20
5.581644999999999
 30
0.0
 11
3.35233
 21
5.630644999999999
 31
0.0
  0
LINE
  5
12B
330
18
100
AcDbEntity
  8
0
100
AcDbLine
 10
3.29033
 20
5.690644999999999
 30
0.0
 11
3.29033
 21
6.220644999999999
 31
0.0
  0
CIRCLE
  5
12F
330
18
100
AcDbEntity
  8
0
100
AcDbCircle
 10
3.60283
 20
6.205644999999999
 30
0.0
 40
0.1325
  0
ARC
  5
131
330
18
100
AcDbEntity
  8
0
100
AcDbCircle
 10
3.41433
 20
6.393644999999999
 30
0.0
 40
0.062
100
AcDbArc
 50
90.0
 51
180.0
  0
LINE
  5
132
330
18
100
AcDbEntity
  8
0
100
AcDbLine
 10
4.97733
 20
4.608487
 30
0.0
 11
4.97733
 21
5.552802999999999
 31
0.0
  0
LINE
  5
133
330
18
100
AcDbEntity
  8
0
100
AcDbLine
 10
4.97733
 20
3.767644999999999
 30
0.0
 11
4.97733
 21
6.393644999999999
 31
0.0
  0
ARC
  5
136
330
18
100
AcDbEntity
  8
0
100
AcDbCircle
 10
4.915329999999999
 20
6.393644999999999
 30
0.0
 40
0.062
100
AcDbArc
 50
0.0
 51
90.0
  0
CIRCLE
  5
137
330
18
100
AcDbEntity
  8
0
100
AcDbCircle
 10
4.72683
 20
6.205644999999999
 30
0.0
 40
0.1325
  0
LINE
  5
138
330
18
100
AcDbEntity
  8
0
100
AcDbLine
 10
4.97733
 20
5.581644999999999
 30
0.0
 11
4.97733
 21
5.630644999999999
 31
0.0
  0
LINE
  5
139
330
18
100
AcDbEntity
  8
0
100
AcDbLine
 10
5.040672999999999
 20
5.690644999999999
 30
0.0
 11
5.040672999999999
 21
6.220644999999999
 31
0.0
  0
LINE
  5
13F
330
18
100
AcDbEntity
  8
CTR_LINES
100
AcDbLine
 10
7.91766
 20
5.955644999999999
 30
0.0
 11
10.471954
 21
5.955644999999999
 31
0.0
  0
LINE
  5
140
330
18
100
AcDbEntity
  8
0
100
AcDbLine
 10
8.401018999999999
 20
5.673644999999999
 30
0.0
 11
9.639019000000001
 21
5.673644999999999
 31
0.0
  0
LINE
  5
141
330
18
100
AcDbEntity
  8
0
100
AcDbLine
 10
8.401018999999999
 20
6.080644999999999
 30
0.0
 11
9.696811
 21
6.080644999999999
 31
0.0
  0
LINE
  5
142
330
18
100
AcDbEntity
  8
0
100
AcDbLine
 10
8.339019
 20
6.142644999999999
 30
0.0
 11
8.339019
 21
5.735644999999999
 31
0.0
  0
ARC
  5
143
330
18
100
AcDbEntity
  8
0
100
AcDbCircle
 10
8.401018999999999
 20
5.735644999999999
 30
0.0
 40
0.062
100
AcDbArc
 50
180.0
 51
270.0
  0
LINE
  5
144
330
18
100
AcDbEntity
  8
0
100
AcDbLine
 10
8.339019
 20
6.393644999999999
 30
0.0
 11
8.339019
 21
6.142644999999999
 31
0.0
  0
ARC
  5
145
330
18
100
AcDbEntity
  8
0
100
AcDbCircle
 10
8.401018999999999
 20
6.142644999999999
 30
0.0
 40
0.062
100
AcDbArc
 50
180.0
 51
270.0
  0
LINE
  5
146
330
18
100
AcDbEntity
  8
0
100
AcDbLine
 10
8.089019
 20
6.455644999999999
 30
0.0
 11
8.277019000000001
 21
6.455644999999999
 31
0.0
  0
ARC
  5
147
330
18
100
AcDbEntity
  8
0
100
AcDbCircle
 10
8.277019000000001
 20
6.393644999999999
 30
0.0
 40
0.062
100
AcDbArc
 50
0.0
 51
90.0
  0
LINE
  5
148
330
18
100
AcDbEntity
  8
0
100
AcDbLine
 10
10.289019
 20
5.673644999999999
 30
0.0
 11
11.464019
 21
5.673644999999999
 31
0.0
  0
LINE
  5
149
330
18
100
AcDbEntity
  8
0
100
AcDbLine
 10
10.231226
 20
6.080644999999999
 30
0.0
 11
11.402019
 21
6.080644999999999
 31
0.0
  0
CIRCLE
  5
14B
330
18
100
AcDbEntity
  8
0
100
AcDbCircle
 10
9.964019
 20
5.955644999999999
 30
0.0
 40
0.1325
  0
ARC
  5
154
330
18
100
AcDbEntity
  8
0
100
AcDbCircle
 10
11.402019
 20
6.018644999999999
 30
0.0
 40
0.062
100
AcDbArc
 50
0.0
 51
90.0
  0
LINE
  5
16F
330
18
100
AcDbEntity
  8
CTR_LINES
100
AcDbLine
 10
6.882788
 20
5.080644999999999
 30
0.0
 11
11.582321
 21
5.080644999999999
 31
0.0
  0
LINE
  5
172
330
18
100
AcDbEntity
  8
CTR_LINES
100
AcDbLine
 10
9.964019
 20
6.405721999999999
 30
0.0
 11
9.964019
 21
0.9725419999999999
 31
0.0
  0
LINE
  5
17D
330
18
100
AcDbEntity
  8
0
100
AcDbLine
 10
3.94483
 20
1.205645
 30
0.0
 11
4.38483
 21
1.205645
 31
0.0
  0
LINE
  5
17E
330
18
100
AcDbEntity
  8
0
100
AcDbLine
 10
9.744018999999999
 20
1.205645
 30
0.0
 11
10.184019
 21
1.205645
 31
0.0
  0
LINE
  5
17F
330
18
100
AcDbEntity
  8
0
100
AcDbLine
 10
7.089019
 20
5.300644999999999
 30
0.0
 11
7.089019
 21
4.860644999999999
 31
0.0
  0
LINE
  5
181
330
18
100
AcDbEntity
  8
0
100
AcDbLine
 10
4.41483
 20
1.235645
 30
0.0
 11
4.41483
 21
2.205645
 31
0.0
  0
LINE
  5
182
330
18
100
AcDbEntity
  8
0
100
AcDbLine
 10
3.91483
 20
1.235645
 30
0.0
 11
3.91483
 21
2.205645
 31
0.0
  0
LINE
  5
183
330
18
100
AcDbEntity
  8
0
100
AcDbLine
 10
7.119019
 20
5.330644999999999
 30
0.0
 11
8.089019
 21
5.330644999999999
 31
0.0
  0
LINE
  5
184
330
18
100
AcDbEntity
  8
0
100
AcDbLine
 10
7.119019
 20
4.830644999999999
 30
0.0
 11
8.089019
 21
4.830644999999999
 31
0.0
  0
LINE
  5
185
330
18
100
AcDbEntity
  8
0
100
AcDbLine
 10
10.214019
 20
2.205645
 30
0.0
 11
10.214019
 21
1.235645
 31
0.0
  0
LINE
  5
186
330
18
100
AcDbEntity
  8
0
100
AcDbLine
 10
9.714019
 20
2.205645
 30
0.0
 11
9.714019
 21
1.235645
 31
0.0
  0
LINE
  5
188
330
18
100
AcDbEntity
  8
0
100
AcDbLine
 10
10.214019
 20
1.235645
 30
0.0
 11
10.184019
 21
1.205645
 31
0.0
  0
LINE
  5
189
330
18
100
AcDbEntity
  8
0
100
AcDbLine
 10
9.744018999999999
 20
1.205645
 30
0.0
 11
9.714019
 21
1.235645
 31
0.0
  0
LINE
  5
18B
330
18
100
AcDbEntity
  8
0
100
AcDbLine
 10
9.714019
 20
1.235645
 30
0.0
 11
9.902019000000001
 21
1.235645
 31
0.0
  0
LINE
  5
18C
330
18
100
AcDbEntity
  8
0
100
AcDbLine
 10
7.119019
 20
5.330644999999999
 30
0.0
 11
7.089019
 21
5.300644999999999
 31
0.0
  0
LINE
  5
18D
330
18
100
AcDbEntity
  8
0
100
AcDbLine
 10
7.089019
 20
4.860644999999999
 30
0.0
 11
7.119019
 21
4.830644999999999
 31
0.0
  0
LINE
  5
18E
330
18
100
AcDbEntity
  8
0
100
AcDbLine
 10
7.119019
 20
4.830644999999999
 30
0.0
 11
7.119019
 21
5.018644999999999
 31
0.0
  0
LINE
  5
18F
330
18
100
AcDbEntity
  8
0
100
AcDbLine
 10
4.41483
 20
1.235645
 30
0.0
 11
4.38483
 21
1.205645
 31
0.0
  0
LINE
  5
190
330
18
100
AcDbEntity
  8
0
100
AcDbLine
 10
3.94483
 20
1.205645
 30
0.0
 11
3.91483
 21
1.235645
 31
0.0
  0
LINE
  5
191
330
18
100
AcDbEntity
  8
0
100
AcDbLine
 10
3.91483
 20
1.235645
 30
0.0
 11
4.41483
 21
1.235645
 31
0.0
  0
LINE
  5
192
330
18
100
AcDbEntity
  8
0
100
AcDbLine
 10
10.026019
 20
2.145645
 30
0.0
 11
10.026019
 21
1.205645
 31
0.0
  0
LINE
  5
193
330
18
100
AcDbEntity
  8
0
100
AcDbLine
 10
9.902019000000001
 20
2.145645
 30
0.0
 11
9.902019000000001
 21
1.205645
 31
0.0
  0
LINE
  5
194
330
18
100
AcDbEntity
  8
0
100
AcDbLine
 10
7.089019
 20
5.142644999999999
 30
0.0
 11
8.029018999999999
 21
5.142644999999999
 31
0.0
  0
LINE
  5
195
330
18
100
AcDbEntity
  8
0
100
AcDbLine
 10
7.089019
 20
5.018644999999999
 30
0.0
 11
8.029018999999999
 21
5.018644999999999
 31
0.0
  0
LINE
  5
196
330
18
100
AcDbEntity
  8
0
100
AcDbLine
 10
9.902019000000001
 20
2.145645
 30
0.0
 11
10.026019
 21
2.145645
 31
0.0
  0
LINE
  5
197
330
18
100
AcDbEntity
  8
0
100
AcDbLine
 10
10.026019
 20
1.235645
 30
0.0
 11
10.214019
 21
1.235645
 31
0.0
  0
LINE
  5
198
330
18
100
AcDbEntity
  8
0
100
AcDbLine
 10
8.029018999999999
 20
5.142644999999999
 30
0.0
 11
8.029018999999999
 21
5.018644999999999
 31
0.0
  0
LINE
  5
199
330
18
100
AcDbEntity
  8
0
100
AcDbLine
 10
7.119019
 20
5.142644999999999
 30
0.0
 11
7.119019
 21
5.330644999999999
 31
0.0
  0
LINE
  5
19A
330
18
100
AcDbEntity
  8
HIDDEN_LINE
100
AcDbLine
 10
4.33983
 20
1.205645
 30
0.0
 11
4.33983
 21
1.955645
 31
0.0
  0
ARC
  5
19D
330
18
100
AcDbEntity
  8
HIDDEN_LINE
100
AcDbCircle
 10
4.71483
 20
1.955645
 30
0.0
 40
0.375
100
AcDbArc
 50
143.130102
 51
180.0
  0
DIMENSION
  5
1B0
330
18
100
AcDbEntity
  8
DIMS_TEXT
100
AcDbDimension
280
     0
  2
*D1
 10
10.737842
 20
4.291199999999999
 30
0.0
 11
12.479038
 21
3.478413999999999
 31
0.0
 70
   163
  1
<> THRU\PX 3
 71
     5
 42
-1.0
 73
     0
 74
     0
 75
     0
  3
STANDARD
100
AcDbDiametricDimension
 15
10.940195
 25
4.120091
 35
0.0
 40
0.0
1001
ACAD
1000
DSTYLE
1002
{
1070
    78
1070
     4
1070
   288
1070
     1
1070
   140
1040
0.12
1070
   271
1070
     3
1070
    41
1040
0.15
1002
}
  0
DIMENSION
  5
1C9
330
18
100
AcDbEntity
  8
DIMS_TEXT
100
AcDbDimension
280
     0
  2
*D2
 10
11.699038
 20
2.205645
 30
0.0
 11
11.279038
 21
1.65955
 31
0.0
 70
   160
  1
.25\PTYP.
 71
     5
 42
-1.0
 73
     0
 74
     0
 75
     0
  3
STANDARD
100
AcDbAlignedDimension
 13
11.277019
 23
2.455645
 33
0.0
 14
11.339019
 24
2.205645
 34
0.0
 50
90.0
100
AcDbRotatedDimension
1001
ACAD
1000
DSTYLE
1002
{
1070
    78
1070
     4
1070
   140
1040
0.12
1070
   271
1070
     3
1070
    41
1040
0.15
1002
}
  0
DIMENSION
  5
217
330
18
100
AcDbEntity
  8
DIMS_TEXT
100
AcDbDimension
280
     0
  2
*D3
 10
7.880919
 20
2.205645
 30
0.0
 11
7.880919
 21
1.705645
 31
0.0
 70
    32
  1
<>\PTYP.
 71
     5
 42
-1.0
 73
     0
 74
     0
 75
     0
  3
STANDARD
100
AcDbAlignedDimension
 13
9.744018999999999
 23
1.205645
 33
0.0
 14
8.589019
 24
2.205645
 34
0.0
 50
90.0
100
AcDbRotatedDimension
1001
ACAD
1000
DSTYLE
1002
{
1070
    78
1070
     4
1070
   140
1040
0.12
1070
   271
1070
     3
1070
    41
1040
0.15
1002
}
  0
DIMENSION
  5
231
330
18
100
AcDbEntity
  8
DIMS_TEXT
100
AcDbDimension
280
     0
  2
*D4
 10
6.591667
 20
5.955644999999999
 30
0.0
 11
6.591667
 21
5.518144999999999
 31
0.0
 70
    32
  1
.875\PTYP.
 71
     5
 42
-1.0
 73
     0
 74
     0
 75
     0
  3
STANDARD
100
AcDbAlignedDimension
 13
6.882788
 23
5.080644999999999
 33
0.0
 14
7.91766
 24
5.955644999999999
 34
0.0
 50
90.0
100
AcDbRotatedDimension
1001
ACAD
1000
DSTYLE
1002
{
1070
    78
1070
     4
1070
   140
1040
0.12
1070
   271
1070
     3
1070
    41
1040
0.15
1002
}
  0
DIMENSION
  5
24B
330
18
100
AcDbEntity
  8
DIMS_TEXT
100
AcDbDimension
280
     0
  2
*D5
 10
9.964019
 20
6.861942999999999
 30
0.0
 11
9.026519
 21
6.861942999999999
 31
0.0
 70
    32
  1
<>\PTYP.
 71
     5
 42
-1.0
 73
     0
 74
     0
 75
     0
  3
STANDARD
100
AcDbAlignedDimension
 13
8.089019
 23
6.455644999999999
 33
0.0
 14
9.964019
 24
6.405721999999999
 34
0.0
100
AcDbRotatedDimension
1001
ACAD
1000
DSTYLE
1002
{
1070
    78
1070
     4
1070
   140
1040
0.12
1070
   271
1070
     3
1070
    41
1040
0.15
1002
}
  0
DIMENSION
  5
258
330
18
100
AcDbEntity
  8
DIMS_TEXT
100
AcDbDimension
280
     0
  2
*D6
 10
10.839019
 20
6.861942999999999
 30
0.0
 11
10.401519
 21
6.861942999999999
 31
0.0
 70
    32
  1
<>\PTYP.
 71
     5
 42
-1.0
 73
     0
 74
     0
 75
     0
  3
STANDARD
100
AcDbAlignedDimension
 13
9.964019
 23
6.405721999999999
 33
0.0
 14
10.839019
 24
6.216492999999999
 34
0.0
100
AcDbRotatedDimension
1001
ACAD
1000
DSTYLE
1002
{
1070
    78
1070
     4
1070
   140
1040
0.12
1070
    75
1070
     1
1070
   287
1070
     4
1070
   271
1070
     3
1070
    41
1040
0.15
1002
}
  0
DIMENSION
  5
266
330
18
100
AcDbEntity
  8
DIMS_TEXT
100
AcDbDimension
280
     0
  2
*D7
 10
11.464019
 20
7.359638999999999
 30
0.0
 11
9.276519
 21
7.359638999999999
 31
0.0
 70
    32
  1
4.38
 71
     5
 42
-1.0
 73
     0
 74
     0
 75
     0
  3
STANDARD
100
AcDbAlignedDimension
 13
7.089019
 23
5.300644999999999
 33
0.0
 14
11.464019
 24
6.018644999999999
 34
0.0
100
AcDbRotatedDimension
1001
ACAD
1000
DSTYLE
1002
{
1070
    78
1070
     4
1070
   140
1040
0.12
1070
   271
1070
     3
1070
    41
1040
0.15
1002
}
  0
DIMENSION
  5
28B
330
18
100
AcDbEntity
  8
DIMS_TEXT
100
AcDbDimension
280
     0
  2
*D8
 10
10.026019
 20
0.7807460000000001
 30
0.0
 11
10.946019
 21
0.7807460000000001
 31
0.0
 70
    32
  1
.125 X .062\PKEYWAY\PTYP.
 71
     5
 42
-1.0
 73
     0
 74
     0
 75
     0
  3
STANDARD
100
AcDbAlignedDimension
 13
9.902019000000001
 23
1.205645
 33
0.0
 14
10.026019
 24
1.205645
 34
0.0
100
AcDbRotatedDimension
1001
ACAD
1000
DSTYLE
1002
{
1070
    78
1070
     4
1070
   140
1040
0.12
1070
   271
1070
     3
1070
    41
1040
0.15
1002
}
  0
DIMENSION
  5
2A5
330
18
100
AcDbEntity
  8
DIMS_TEXT
100
AcDbDimension
280
     0
  2
*D9
 10
3.91483
 20
0.7611550000000001
 30
0.0
 11
3.416162
 21
0.7611550000000001
 31
0.0
 70
   160
  1
%%C<>\PTYP.
 71
     5
 42
-1.0
 73
     0
 74
     0
 75
     0
  3
STANDARD
100
AcDbAlignedDimension
 13
4.41483
 23
1.235645
 33
0.0
 14
3.91483
 24
1.235645
 34
0.0
100
AcDbRotatedDimension
1001
ACAD
1000
DSTYLE
1002
{
1070
    78
1070
     4
1070
   140
1040
0.12
1070
   271
1070
     3
1070
    41
1040
0.15
1002
}
  0
DIMENSION
  5
2CB
330
18
100
AcDbEntity
  8
DIMS_TEXT
100
AcDbDimension
280
     0
  2
*D10
 10
5.510358
 20
6.205644999999999
 30
0.0
 11
5.510358
 21
5.643144999999999
 31
0.0
 70
    32
  1
<>\PTYP.
 71
     5
 42
-1.0
 73
     0
 74
     0
 75
     0
  3
STANDARD
100
AcDbAlignedDimension
 13
5.177648
 23
5.080644999999999
 33
0.0
 14
5.177648
 24
6.205644999999999
 34
0.0
 50
90.0
100
AcDbRotatedDimension
1001
ACAD
1000
DSTYLE
1002
{
1070
    78
1070
     4
1070
   140
1040
0.12
1070
   271
1070
     3
1070
    41
1040
0.15
1002
}
  0
DIMENSION
  5
2F1
330
18
100
AcDbEntity
  8
DIMS_TEXT
100
AcDbDimension
280
     0
  2
*D11
 10
4.72683
 20
6.87236
 30
0.0
 11
5.385591999999999
 21
6.87236
 31
0.0
 70
   160
  1
<>\PTYP.
 71
     5
 42
-1.0
 73
     0
 74
     0
 75
     0
  3
STANDARD
100
AcDbAlignedDimension
 13
4.16483
 23
6.613094999999999
 33
0.0
 14
4.72683
 24
6.688475999999999
 34
0.0
100
AcDbRotatedDimension
1001
ACAD
1000
DSTYLE
1002
{
1070
    78
1070
     4
1070
   140
1040
0.12
1070
   271
1070
     3
1070
    41
1040
0.15
1002
}
  0
DIMENSION
  5
317
330
18
100
AcDbEntity
  8
DIMS_TEXT
100
AcDbDimension
280
     0
  2
*D12
 10
4.16483
 20
7.346164999999999
 30
0.0
 11
4.602751999999999
 21
7.346164999999999
 31
0.0
 70
   160
  1
.875\PTYP.
 71
     5
 42
0.8758429999999997
 73
     0
 74
     0
 75
     0
  3
STANDARD
100
AcDbAlignedDimension
 13
5.040672999999999
 23
6.267644999999999
 33
0.0
 14
4.16483
 24
6.613094999999999
 34
0.0
100
AcDbRotatedDimension
1001
ACAD
1000
DSTYLE
1002
{
1070
    78
1070
     4
1070
   140
1040
0.12
1070
   271
1070
     3
1070
    41
1040
0.15
1002
}
  0
DIMENSION
  5
331
330
18
100
AcDbEntity
  8
DIMS_TEXT
100
AcDbDimension
280
     0
  2
*D13
 10
3.29033
 20
7.883996999999999
 30
0.0
 11
4.165502
 21
7.883996999999999
 31
0.0
 70
   160
 71
     5
 42
-1.0
 73
     0
 74
     0
 75
     0
  3
STANDARD
100
AcDbAlignedDimension
 13
5.040672999999999
 23
6.267644999999999
 33
0.0
 14
3.29033
 24
6.267644999999999
 34
0.0
100
AcDbRotatedDimension
1001
ACAD
1000
DSTYLE
1002
{
1070
    78
1070
     4
1070
   140
1040
0.12
1070
   271
1070
     3
1070
    41
1040
0.15
1002
}
  0
DIMENSION
  5
36F
330
18
100
AcDbEntity
  8
DIMS_TEXT
100
AcDbDimension
280
     0
  2
*D14
 10
2.682320999999999
 20
5.080644999999999
 30
0.0
 11
2.682320999999999
 21
3.643144999999999
 31
0.0
 70
    32
 71
     5
 42
-1.0
 73
     0
 74
     0
 75
     0
  3
STANDARD
100
AcDbAlignedDimension
 13
3.35233
 23
2.205645
 33
0.0
 14
3.181386
 24
5.080644999999999
 34
0.0
 50
90.0
100
AcDbRotatedDimension
1001
ACAD
1000
DSTYLE
1002
{
1070
    78
1070
     4
1070
   140
1040
0.12
1070
   271
1070
     3
1070
    41
1040
0.15
1002
}
  0
DIMENSION
  5
37D
330
18
100
AcDbEntity
  8
DIMS_TEXT
100
AcDbDimension
280
     0
  2
*D15
 10
2.0169
 20
6.455644999999999
 30
0.0
 11
2.0169
 21
4.456412999999999
 31
0.0
 70
   160
  1
5.28
 71
     5
 42
-1.0
 73
     0
 74
     0
 75
     0
  3
STANDARD
100
AcDbAlignedDimension
 13
3.94483
 23
1.205645
 33
0.0
 14
3.41433
 24
6.455644999999999
 34
0.0
 50
90.0
100
AcDbRotatedDimension
1001
ACAD
1000
DSTYLE
1002
{
1070
    78
1070
     4
1070
   140
1040
0.12
1070
   271
1070
     3
1070
    41
1040
0.15
1002
}
  0
DIMENSION
  5
3A1
330
18
100
AcDbEntity
  8
DIMS_TEXT
100
AcDbDimension
280
     0
  2
*D16
 10
4.614112
 20
4.025294
 30
0.0
 11
6.342583999999999
 21
3.439233
 31
0.0
 70
   163
  1
<> THRU\PX 4\PTYP.
 71
     5
 42
-1.0
 73
     0
 74
     0
 75
     0
  3
STANDARD
100
AcDbDiametricDimension
 15
4.839548
 25
3.885997
 35
0.0
 40
0.0
1001
ACAD
1000
DSTYLE
1002
{
1070
    78
1070
     4
1070
   288
1070
     1
1070
   140
1040
0.12
1070
   271
1070
     3
1070
    41
1040
0.15
1002
}
  0
CIRCLE
  5
3C0
330
18
100
AcDbEntity
  8
0
100
AcDbCircle
 10
4.16483
 20
5.080644999999999
 30
0.0
 40
0.25
  0
CIRCLE
  5
3C1
330
18
100
AcDbEntity
  8
0
100
AcDbCircle
 10
4.16483
 20
5.080644999999999
 30
0.0
 40
0.22
  0
CIRCLE
  5
3C2
330
18
100
AcDbEntity
  8
0
100
AcDbCircle
 10
4.512226999999999
 20
5.41033
 30
0.0
 40
0.0625
  0
CIRCLE
  5
3C3
330
18
100
AcDbEntity
  8
0
100
AcDbCircle
 10
3.817433
 20
4.75096
 30
0.0
 40
0.0625
  0
CIRCLE
  5
3F1
330
18
100
AcDbEntity
  8
0
100
AcDbCircle
 10
9.964019
 20
5.955644999999999
 30
0.0
 40
0.265
  0
CIRCLE
  5
3F2
330
18
100
AcDbEntity
  8
0
100
AcDbCircle
 10
10.839019
 20
4.205644999999999
 30
0.0
 40
0.265
  0
CIRCLE
  5
3F3
330
18
100
AcDbEntity
  8
0
100
AcDbCircle
 10
9.089019
 20
4.205644999999999
 30
0.0
 40
0.265
  0
ARC
  5
3F4
330
18
100
AcDbEntity
  8
0
100
AcDbCircle
 10
9.696811
 20
6.140645
 30
0.0
 40
0.06
100
AcDbArc
 50
270.0
 51
325.303398
  0
ARC
  5
3F5
330
18
100
AcDbEntity
  8
0
100
AcDbCircle
 10
10.231226
 20
6.140645
 30
0.0
 40
0.06
100
AcDbArc
 50
214.696602
 51
270.0
  0
LINE
  5
3F6
330
18
100
AcDbEntity
  8
0
100
AcDbLine
 10
9.699018999999999
 20
5.955644999999999
 30
0.0
 11
9.699018999999999
 21
5.733645
 31
0.0
  0
LINE
  5
3F7
330
18
100
AcDbEntity
  8
0
100
AcDbLine
 10
10.229019
 20
5.955644999999999
 30
0.0
 11
10.229019
 21
5.733645
 31
0.0
  0
ARC
  5
3F8
330
18
100
AcDbEntity
  8
0
100
AcDbCircle
 10
10.289019
 20
5.733645
 30
0.0
 40
0.06
100
AcDbArc
 50
180.0
 51
270.0
  0
ARC
  5
3F9
330
18
100
AcDbEntity
  8
0
100
AcDbCircle
 10
9.639019000000001
 20
5.733645
 30
0.0
 40
0.06
100
AcDbArc
 50
270.0
 51
0.0
  0
ARC
  5
3FA
330
18
100
AcDbEntity
  8
0
100
AcDbCircle
 10
8.821811
 20
4.020645
 30
0.0
 40
0.06
100
AcDbArc
 50
34.696602
 51
90.0
  0
ARC
  5
3FB
330
18
100
AcDbEntity
  8
0
100
AcDbCircle
 10
8.904018999999999
 20
3.938437
 30
0.0
 40
0.06
100
AcDbArc
 50
0.0
 51
55.303398
  0
LINE
  5
3FE
330
18
100
AcDbEntity
  8
0
100
AcDbLine
 10
8.824018999999999
 20
4.205644999999999
 30
0.0
 11
8.824018999999999
 21
4.427645
 31
0.0
  0
LINE
  5
3FF
330
18
100
AcDbEntity
  8
0
100
AcDbLine
 10
9.089019
 20
3.940644999999999
 30
0.0
 11
9.311018999999999
 21
3.940644999999999
 31
0.0
  0
ARC
  5
400
330
18
100
AcDbEntity
  8
0
100
AcDbCircle
 10
9.311018999999999
 20
3.880644999999999
 30
0.0
 40
0.06
100
AcDbArc
 50
0.0
 51
90.0
  0
ARC
  5
401
330
18
100
AcDbEntity
  8
0
100
AcDbCircle
 10
8.764019000000001
 20
4.427645
 30
0.0
 40
0.06
100
AcDbArc
 50
0.0
 51
90.0
  0
ARC
  5
402
330
18
100
AcDbEntity
  8
0
100
AcDbCircle
 10
11.024019
 20
3.938437
 30
0.0
 40
0.06
100
AcDbArc
 50
124.696602
 51
180.0
  0
ARC
  5
403
330
18
100
AcDbEntity
  8
0
100
AcDbCircle
 10
11.106226
 20
4.020645
 30
0.0
 40
0.06
100
AcDbArc
 50
90.0
 51
145.303398
  0
LINE
  5
404
330
18
100
AcDbEntity
  8
0
100
AcDbLine
 10
11.104019
 20
4.205644999999999
 30
0.0
 11
11.104019
 21
4.427645
 31
0.0
  0
LINE
  5
405
330
18
100
AcDbEntity
  8
0
100
AcDbLine
 10
10.839019
 20
3.940644999999999
 30
0.0
 11
10.617019
 21
3.940644999999999
 31
0.0
  0
ARC
  5
406
330
18
100
AcDbEntity
  8
0
100
AcDbCircle
 10
10.617019
 20
3.880644999999999
 30
0.0
 40
0.06
100
AcDbArc
 50
90.0
 51
180.0
  0
ARC
  5
407
330
18
100
AcDbEntity
  8
0
100
AcDbCircle
 10
11.164019
 20
4.427645
 30
0.0
 40
0.06
100
AcDbArc
 50
90.0
 51
180.0
  0
LINE
  5
408
330
18
100
AcDbEntity
  8
0
100
AcDbLine
 10
5.040672999999999
 20
6.220644999999999
 30
0.0
 11
4.97733
 21
6.220644999999999
 31
0.0
  0
LINE
  5
409
330
18
100
AcDbEntity
  8
0
100
AcDbLine
 10
5.040672999999999
 20
5.690644999999999
 30
0.0
 11
5.037329999999999
 21
5.690644999999999
 31
0.0
  0
LINE
  5
40A
330
18
100
AcDbEntity
  8
0
100
AcDbLine
 10
5.042355
 20
4.470644999999999
 30
0.0
 11
5.037329999999999
 21
4.470644999999999
 31
0.0
  0
LINE
  5
40B
330
18
100
AcDbEntity
  8
0
100
AcDbLine
 10
5.042355
 20
3.940644999999999
 30
0.0
 11
4.97733
 21
3.940644999999999
 31
0.0
  0
ARC
  5
410
330
18
100
AcDbEntity
  8
HIDDEN_LINE
100
AcDbCircle
 10
9.589019
 20
4.580644999999999
 30
0.0
 40
0.265
100
AcDbArc
 50
306.869898
 51
126.869898
  0
CIRCLE
  5
412
330
18
100
AcDbEntity
  8
HIDDEN_LINE
100
AcDbCircle
 10
9.589019
 20
4.580644999999999
 30
0.0
 40
0.123
  0
CIRCLE
  5
414
330
18
100
AcDbEntity
  8
HIDDEN_LINE
100
AcDbCircle
 10
9.589019
 20
4.580644999999999
 30
0.0
 40
0.155
  0
LINE
  5
415
330
18
100
AcDbEntity
  8
HIDDEN_LINE
100
AcDbLine
 10
8.930018999999999
 20
4.417644999999999
 30
0.0
 11
9.430018999999999
 21
4.792644999999999
 31
0.0
  0
LINE
  5
416
330
18
100
AcDbEntity
  8
HIDDEN_LINE
100
AcDbLine
 10
9.248019000000001
 20
3.993644999999999
 30
0.0
 11
9.748019000000001
 21
4.368644999999999
 31
0.0
  0
LINE
  5
417
330
18
100
AcDbEntity
  8
HIDDEN_LINE
100
AcDbLine
 10
3.29233
 20
4.845644999999999
 30
0.0
 11
3.29033
 21
4.845644999999999
 31
0.0
  0
LINE
  5
418
330
18
100
AcDbEntity
  8
0
100
AcDbLine
 10
3.29233
 20
5.690644999999999
 30
0.0
 11
3.29033
 21
5.690644999999999
 31
0.0
  0
LINE
  5
419
330
18
100
AcDbEntity
  8
0
100
AcDbLine
 10
3.35233
 20
6.220644999999999
 30
0.0
 11
3.29033
 21
6.220644999999999
 31
0.0
  0
LINE
  5
41A
330
18
100
AcDbEntity
  8
0
100
AcDbLine
 10
3.734477999999999
 20
6.220644999999999
 30
0.0
 11
3.471181999999999
 21
6.220644999999999
 31
0.0
  0
LINE
  5
41B
330
18
100
AcDbEntity
  8
0
100
AcDbLine
 10
4.858477999999999
 20
6.220644999999999
 30
0.0
 11
4.595182
 21
6.220644999999999
 31
0.0
  0
ARC
  5
41C
330
18
100
AcDbEntity
  8
0
100
AcDbCircle
 10
3.29233
 20
5.630644999999999
 30
0.0
 40
0.06
100
AcDbArc
 50
360.0
 51
90.0
  0
ARC
  5
41D
330
18
100
AcDbEntity
  8
0
100
AcDbCircle
 10
5.037329999999999
 20
5.630644999999999
 30
0.0
 40
0.06
100
AcDbArc
 50
90.0
 51
180.0
  0
LINE
  5
41E
330
18
100
AcDbEntity
  8
0
100
AcDbLine
 10
3.29233
 20
4.470644999999999
 30
0.0
 11
3.29033
 21
4.470644999999999
 31
0.0
  0
LINE
  5
41F
330
18
100
AcDbEntity
  8
0
100
AcDbLine
 10
4.858477999999999
 20
3.940644999999999
 30
0.0
 11
4.595182
 21
3.940644999999999
 31
0.0
  0
LINE
  5
420
330
18
100
AcDbEntity
  8
0
100
AcDbLine
 10
3.734477999999999
 20
3.940644999999999
 30
0.0
 11
3.471181999999999
 21
3.940644999999999
 31
0.0
  0
LINE
  5
421
330
18
100
AcDbEntity
  8
0
100
AcDbLine
 10
3.35233
 20
3.940644999999999
 30
0.0
 11
3.29033
 21
3.940644999999999
 31
0.0
  0
ARC
  5
422
330
18
100
AcDbEntity
  8
0
100
AcDbCircle
 10
5.037329999999999
 20
4.530644999999999
 30
0.0
 40
0.06
100
AcDbArc
 50
180.0
 51
270.0
  0
ARC
  5
423
330
18
100
AcDbEntity
  8
0
100
AcDbCircle
 10
3.29233
 20
4.905644999999999
 30
0.0
 40
0.06
100
AcDbArc
 50
270.0
 51
0.0
  0
ARC
  5
424
330
18
100
AcDbEntity
  8
0
100
AcDbCircle
 10
3.29233
 20
4.530644999999999
 30
0.0
 40
0.06
100
AcDbArc
 50
270.0
 51
0.0
  0
LINE
  5
431
330
18
100
AcDbEntity
  8
HIDDEN_LINE
100
AcDbLine
 10
3.372468
 20
5.598545999999999
 30
0.0
 11
3.89778
 21
6.06549
 31
0.0
  0
LINE
  5
432
330
18
100
AcDbEntity
  8
HIDDEN_LINE
100
AcDbLine
 10
3.937641999999999
 20
6.080644999999999
 30
0.0
 11
4.392018
 21
6.080644999999999
 31
0.0
  0
LINE
  5
433
330
18
100
AcDbEntity
  8
HIDDEN_LINE
100
AcDbLine
 10
4.43188
 20
6.06549
 30
0.0
 11
4.957192
 21
5.598545999999999
 31
0.0
  0
LINE
  5
434
330
18
100
AcDbEntity
  8
HIDDEN_LINE
100
AcDbLine
 10
4.957192
 20
4.562744999999999
 30
0.0
 11
4.43188
 21
4.095800999999999
 31
0.0
  0
LINE
  5
435
330
18
100
AcDbEntity
  8
HIDDEN_LINE
100
AcDbLine
 10
4.392018
 20
4.080644999999999
 30
0.0
 11
3.937641999999999
 21
4.080644999999999
 31
0.0
  0
LINE
  5
436
330
18
100
AcDbEntity
  8
HIDDEN_LINE
100
AcDbLine
 10
3.89778
 20
4.095800999999999
 30
0.0
 11
3.372468
 21
4.562744999999999
 31
0.0
  0
ARC
  5
437
330
18
100
AcDbEntity
  8
HIDDEN_LINE
100
AcDbCircle
 10
4.392018
 20
6.020645
 30
0.0
 40
0.06
100
AcDbArc
 50
48.366461
 51
90.0
  0
ARC
  5
438
330
18
100
AcDbEntity
  8
HIDDEN_LINE
100
AcDbCircle
 10
3.937641999999999
 20
6.020645
 30
0.0
 40
0.06
100
AcDbArc
 50
90.0
 51
131.633539
  0
ARC
  5
439
330
18
100
AcDbEntity
  8
HIDDEN_LINE
100
AcDbCircle
 10
4.392018
 20
4.140645
 30
0.0
 40
0.06
100
AcDbArc
 50
270.0
 51
311.633539
  0
ARC
  5
43A
330
18
100
AcDbEntity
  8
HIDDEN_LINE
100
AcDbCircle
 10
3.937641999999999
 20
4.140645
 30
0.0
 40
0.06
100
AcDbArc
 50
228.366461
 51
270.0
  0
ARC
  5
43B
330
18
100
AcDbEntity
  8
HIDDEN_LINE
100
AcDbCircle
 10
3.41233
 20
4.607588999999999
 30
0.0
 40
0.06
100
AcDbArc
 50
180.0
 51
228.366461
  0
ARC
  5
43C
330
18
100
AcDbEntity
  8
HIDDEN_LINE
100
AcDbCircle
 10
4.91733
 20
4.607588999999999
 30
0.0
 40
0.06
100
AcDbArc
 50
311.633539
 51
0.0
  0
ARC
  5
43D
330
18
100
AcDbEntity
  8
HIDDEN_LINE
100
AcDbCircle
 10
4.91733
 20
5.553701
 30
0.0
 40
0.06
100
AcDbArc
 50
0.0
 51
48.366461
  0
ARC
  5
43E
330
18
100
AcDbEntity
  8
HIDDEN_LINE
100
AcDbCircle
 10
3.41233
 20
5.553701
 30
0.0
 40
0.06
100
AcDbArc
 50
131.633539
 51
180.0
  0
LEADER
  5
43F
330
18
100
AcDbEntity
  8
DIMS_TEXT
100
AcDbLeader
  3
STANDARD
 73
     0
 40
0.5200000000000001
 41
0.8
 76
     3
 10
3.820698
 20
4.750480999999999
 30
0.0
 10
3.054486999999999
 20
6.931839
 30
0.0
 10
2.993128
 20
6.931839
 30
0.0
340
440
1001
ACAD
1000
DSTYLE
1002
{
1070
    78
1070
     4
1070
   140
1040
0.12
1070
   271
1070
     3
1070
    41
1040
0.15
1002
}
  0
MTEXT
  5
440
102
{ACAD_REACTORS
330
43F
102
}
330
18
100
AcDbEntity
  8
DIMS_TEXT
100
AcDbMText
 10
2.903127999999999
 20
6.931839
 30
0.0
 40
0.12
 41
0.0
 46
0.0
 71
     6
 72
     1
  1
\A1;SPANNER\PWRENCH\PHOLES
 73
     1
 44
1.0
  0
LEADER
  5
441
330
18
100
AcDbEntity
  8
DIMS_TEXT
100
AcDbLeader
  3
STANDARD
 73
     0
 40
0.3200000000000001
 41
0.4400000000000001
 76
     3
 10
9.619519
 20
4.607966
 30
0.0
 10
11.882422
 20
5.672661999999999
 30
0.0
 10
11.956576
 20
5.672661999999999
 30
0.0
340
442
1001
ACAD
1000
DSTYLE
1002
{
1070
    78
1070
     4
1070
   140
1040
0.12
1070
   271
1070
     3
1070
    41
1040
0.15
1002
}
  0
MTEXT
  5
442
102
{ACAD_REACTORS
330
441
102
}
330
18
100
AcDbEntity
  8
DIMS_TEXT
100
AcDbMText
 10
12.046576
 20
5.672661999999999
 30
0.0
 40
0.12
 41
0.0
 46
0.0
 71
     4
 72
     1
  1
\A1;PIPE\PPLUG
 73
     1
 44
1.0
  0
LINE
  5
44F
330
18
100
AcDbEntity
  8
HIDDEN_LINE
100
AcDbLine
 10
4.859329999999999
 20
2.205645
 30
0.0
 11
4.859329999999999
 21
2.455645
 31
0.0
  0
LINE
  5
450
330
18
100
AcDbEntity
  8
HIDDEN_LINE
100
AcDbLine
 10
4.59433
 20
2.205645
 30
0.0
 11
4.59433
 21
2.455645
 31
0.0
  0
LINE
  5
451
330
18
100
AcDbEntity
  8
HIDDEN_LINE
100
AcDbLine
 10
3.47033
 20
2.205645
 30
0.0
 11
3.47033
 21
2.455645
 31
0.0
  0
LINE
  5
452
330
18
100
AcDbEntity
  8
HIDDEN_LINE
100
AcDbLine
 10
3.73533
 20
2.205645
 30
0.0
 11
3.73533
 21
2.455645
 31
0.0
  0
LINE
  5
453
330
18
100
AcDbEntity
  8
HIDDEN_LINE
100
AcDbLine
 10
8.706519
 20
2.455645
 30
0.0
 11
8.706519
 21
2.205645
 31
0.0
  0
LINE
  5
454
330
18
100
AcDbEntity
  8
HIDDEN_LINE
100
AcDbLine
 10
8.971519
 20
2.455645
 30
0.0
 11
8.971519
 21
2.205645
 31
0.0
  0
LINE
  5
455
330
18
100
AcDbEntity
  8
HIDDEN_LINE
100
AcDbLine
 10
10.956519
 20
2.455645
 30
0.0
 11
10.956519
 21
2.205645
 31
0.0
  0
LINE
  5
456
330
18
100
AcDbEntity
  8
HIDDEN_LINE
100
AcDbLine
 10
11.221519
 20
2.455645
 30
0.0
 11
11.221519
 21
2.205645
 31
0.0
  0
LINE
  5
457
330
18
100
AcDbEntity
  8
HIDDEN_LINE
100
AcDbLine
 10
8.089019
 20
6.338144999999999
 30
0.0
 11
8.339019
 21
6.338144999999999
 31
0.0
  0
LINE
  5
458
330
18
100
AcDbEntity
  8
HIDDEN_LINE
100
AcDbLine
 10
8.089019
 20
6.073144999999999
 30
0.0
 11
8.339019
 21
6.073144999999999
 31
0.0
  0
LINE
  5
459
330
18
100
AcDbEntity
  8
HIDDEN_LINE
100
AcDbLine
 10
8.089019
 20
4.088144999999999
 30
0.0
 11
8.339019
 21
4.088144999999999
 31
0.0
  0
LINE
  5
45A
330
18
100
AcDbEntity
  8
HIDDEN_LINE
100
AcDbLine
 10
8.089019
 20
3.823144999999999
 30
0.0
 11
8.339019
 21
3.823144999999999
 31
0.0
  0
LINE
  5
45D
330
18
100
AcDbEntity
  8
HIDDEN_LINE
100
AcDbLine
 10
3.35233
 20
3.940644999999999
 30
0.0
 11
3.471181999999999
 21
3.940644999999999
 31
0.0
  0
LINE
  5
45E
330
18
100
AcDbEntity
  8
HIDDEN_LINE
100
AcDbLine
 10
3.734477999999999
 20
3.940644999999999
 30
0.0
 11
3.85483
 21
3.940644999999999
 31
0.0
  0
LINE
  5
45F
330
18
100
AcDbEntity
  8
HIDDEN_LINE
100
AcDbLine
 10
3.91483
 20
3.705644999999999
 30
0.0
 11
3.91483
 21
3.880644999999999
 31
0.0
  0
LINE
  5
460
330
18
100
AcDbEntity
  8
HIDDEN_LINE
100
AcDbLine
 10
4.41483
 20
3.705644999999999
 30
0.0
 11
4.41483
 21
3.880644999999999
 31
0.0
  0
LINE
  5
461
330
18
100
AcDbEntity
  8
HIDDEN_LINE
100
AcDbLine
 10
4.97733
 20
3.940644999999999
 30
0.0
 11
4.858477999999999
 21
3.940644999999999
 31
0.0
  0
LINE
  5
462
330
18
100
AcDbEntity
  8
HIDDEN_LINE
100
AcDbLine
 10
4.595182
 20
3.940644999999999
 30
0.0
 11
4.474829999999999
 21
3.940644999999999
 31
0.0
  0
ARC
  5
463
330
18
100
AcDbEntity
  8
HIDDEN_LINE
100
AcDbCircle
 10
4.474829999999999
 20
3.880644999999999
 30
0.0
 40
0.06
100
AcDbArc
 50
90.0
 51
180.0
  0
ARC
  5
464
330
18
100
AcDbEntity
  8
HIDDEN_LINE
100
AcDbCircle
 10
3.85483
 20
3.880644999999999
 30
0.0
 40
0.06
100
AcDbArc
 50
0.0
 51
90.0
  0
LINE
  5
465
330
18
100
AcDbEntity
  8
HIDDEN_LINE
100
AcDbLine
 10
3.85483
 20
3.940644999999999
 30
0.0
 11
4.474829999999999
 21
3.940644999999999
 31
0.0
  0
LINE
  5
466
330
18
100
AcDbEntity
  8
HIDDEN_LINE
100
AcDbLine
 10
4.97733
 20
6.220644999999999
 30
0.0
 11
4.858477999999999
 21
6.220644999999999
 31
0.0
  0
LINE
  5
467
330
18
100
AcDbEntity
  8
HIDDEN_LINE
100
AcDbLine
 10
4.595182
 20
6.220644999999999
 30
0.0
 11
3.734477999999999
 21
6.220644999999999
 31
0.0
  0
LINE
  5
468
330
18
100
AcDbEntity
  8
HIDDEN_LINE
100
AcDbLine
 10
3.471181999999999
 20
6.220644999999999
 30
0.0
 11
3.35233
 21
6.220644999999999
 31
0.0
  0
LINE
  5
470
330
18
100
AcDbEntity
  8
HIDDEN_LINE
100
AcDbLine
 10
5.040672999999999
 20
6.088144999999999
 30
0.0
 11
3.29033
 21
6.088144999999999
 31
0.0
  0
LINE
  5
471
330
18
100
AcDbEntity
  8
HIDDEN_LINE
100
AcDbLine
 10
5.040672999999999
 20
5.823144999999999
 30
0.0
 11
3.29033
 21
5.823144999999999
 31
0.0
  0
LINE
  5
472
330
18
100
AcDbEntity
  8
HIDDEN_LINE
100
AcDbLine
 10
5.042355
 20
4.338144999999999
 30
0.0
 11
3.29033
 21
4.338144999999999
 31
0.0
  0
LINE
  5
473
330
18
100
AcDbEntity
  8
HIDDEN_LINE
100
AcDbLine
 10
5.042355
 20
4.073144999999999
 30
0.0
 11
3.29033
 21
4.073144999999999
 31
0.0
  0
TEXT
  5
48C
330
18
100
AcDbEntity
  8
DIMS_TEXT
100
AcDbText
 10
12.299889
 20
-1.070822999999999
 30
0.0
 40
0.2
  1
R081     135664(C1)/135670(C2)    1:1
 41
0.7
100
AcDbText
  0
TEXT
  5
48D
330
18
100
AcDbEntity
  8
DIMS_TEXT
100
AcDbText
 10
12.108421
 20
-0.165583
 30
0.0
 40
0.15
  1
Tel. (508) 278-2422    Fax (508) 278-7863
 41
0.9
100
AcDbText
  0
TEXT
  5
48E
330
18
100
AcDbEntity
  8
DIMS_TEXT
100
AcDbText
 10
12.162026
 20
0.4666850000000001
 30
0.0
 40
0.2
  1
Two Way Right Angle Gear Drive
 41
0.9
100
AcDbText
  0
TEXT
  5
48F
330
18
100
AcDbEntity
  8
DIMS_TEXT
100
AcDbText
 10
12.969506
 20
0.929372
 30
0.0
 40
0.3
  1
 MITRPAK
 41
1.5
100
AcDbText
  0
LINE
  5
490
330
18
100
AcDbEntity
  8
DIMS_TEXT
100
AcDbLine
 10
12.07314
 20
-0.59079
 30
0.0
 11
17.29651
 21
-0.59079
 31
0.0
  0
LINE
  5
491
330
18
100
AcDbEntity
  8
DIMS_TEXT
100
AcDbLine
 10
12.07314
 20
-0.257208
 30
0.0
 11
17.29651
 21
-0.257208
 31
0.0
  0
LINE
  5
492
330
18
100
AcDbEntity
  8
DIMS_TEXT
100
AcDbLine
 10
12.07314
 20
0.068238
 30
0.0
 11
17.29651
 21
0.068238
 31
0.0
  0
LINE
  5
493
330
18
100
AcDbEntity
  8
DIMS_TEXT
100
AcDbLine
 10
12.07314
 20
0.393683
 30
0.0
 11
17.29651
 21
0.393683
 31
0.0
  0
LINE
  5
494
330
18
100
AcDbEntity
  8
DIMS_TEXT
100
AcDbLine
 10
12.07314
 20
0.816763
 30
0.0
 11
17.29651
 21
0.816763
 31
0.0
  0
TEXT
  5
495
330
18
100
AcDbEntity
  8
DIMS_TEXT
100
AcDbText
 10
12.162776
 20
-0.525701
 30
0.0
 40
0.2
  1
MODEL   PART NUMBER  RATIO
100
AcDbText
  0
LWPOLYLINE
  5
496
330
18
100
AcDbEntity
  8
DIMS_TEXT
100
AcDbPolyline
 90
        4
 70
     1
 43
0.0
 10
12.07314
 20
1.337476
 10
17.29651
 20
1.337476
 10
17.29651
 20
-1.201000999999999
 10
12.07314
 20
-1.201000999999999
  0
TEXT
  5
497
330
18
100
AcDbEntity
  8
DIMS_TEXT
100
AcDbText
 10
12.108421
 20
0.158227
 30
0.0
 40
0.15
  1
Uxbridge, MA 01569              U.S.A.
100
AcDbText
  0
LINE
  5
498
330
18
100
AcDbEntity
  8
DIMS_TEXT
100
AcDbLine
 10
13.401391
 20
-0.257208
 30
0.0
 11
13.401391
 21
-1.201000999999999
 31
0.0
  0
LINE
  5
499
330
18
100
AcDbEntity
  8
DIMS_TEXT
100
AcDbLine
 10
16.09049
 20
-0.257208
 30
0.0
 11
16.09049
 21
-1.201000999999999
 31
0.0
  0
ENDSEC
  0
SECTION
  2
OBJECTS
  0
DICTIONARY
  5
C
330
0
100
AcDbDictionary
281
     1
  3
ACAD_CIP_PREVIOUS_PRODUCT_INFO
350
4F8
  3
ACAD_COLOR
350
4D7
  3
ACAD_DETAILVIEWSTYLE
350
4F0
  3
ACAD_GROUP
350
D
  3
ACAD_LAYOUT
350
4F2
  3
ACAD_MATERIAL
350
4A5
  3
ACAD_MLEADERSTYLE
350
4EC
  3
ACAD_MLINESTYLE
350
1B
  3
ACAD_PLOTSETTINGS
350
4F3
  3
ACAD_PLOTSTYLENAME
350
4A3
  3
ACAD_SCALELIST
350
4DA
  3
ACAD_SECTIONVIEWSTYLE
350
4EE
  3
ACAD_TABLESTYLE
350
4D8
  3
ACAD_VISUALSTYLE
350
4BE
  3
ACDB_RECOMPOSE_DATA
350
542
  3
AcDbVariableDictionary
350
531
  0
DICTIONARY
  5
525
330
E
100
AcDbDictionary
280
     1
281
     1
  3
ADSK_XREC_LAYER_RECONCILED
360
526
  0
DICTIONARY
  5
527
330
22
100
AcDbDictionary
280
     1
281
     1
  3
ADSK_XREC_LAYER_RECONCILED
360
528
  0
DICTIONARY
  5
529
330
23
100
AcDbDictionary
280
     1
281
     1
  3
ADSK_XREC_LAYER_RECONCILED
360
52A
  0
DICTIONARY
  5
52B
330
24
100
AcDbDictionary
280
     1
281
     1
  3
ADSK_XREC_LAYER_RECONCILED
360
52C
  0
DICTIONARY
  5
52D
330
1A1
100
AcDbDictionary
280
     1
281
     1
  3
ADSK_XREC_LAYER_RECONCILED
360
52E
  0
DICTIONARY
  5
52F
330
1A2
100
AcDbDictionary
280
     1
281
     1
  3
ADSK_XREC_LAYER_RECONCILED
360
530
  0
XRECORD
  5
4F8
102
{ACAD_REACTORS
330
C
102
}
330
C
100
AcDbXrecord
280
     1
300
ACDLT
300
2014
300
ACDLT_F_S
  0
DICTIONARY
  5
4D7
102
{ACAD_REACTORS
330
C
102
}
330
C
100
AcDbDictionary
281
     1
  0
DICTIONARY
  5
4F0
102
{ACAD_REACTORS
330
C
102
}
330
C
100
AcDbDictionary
281
     1
  3
Imperial24
350
4F1
  0
DICTIONARY
  5
D
102
{ACAD_REACTORS
330
C
102
}
330
C
100
AcDbDictionary
281
     1
  0
DICTIONARY
  5
4F2
102
{ACAD_REACTORS
330
C
102
}
330
C
100
AcDbDictionary
281
     1
  3
Layout1
350
4F5
  3
Model
350
4F4
  0
DICTIONARY
  5
4A5
102
{ACAD_REACTORS
330
C
102
}
330
C
100
AcDbDictionary
281
     1
  3
ByBlock
350
4AE
  3
ByLayer
350
4A6
  3
Global
350
4B6
  0
DICTIONARY
  5
4EC
102
{ACAD_REACTORS
330
C
102
}
330
C
100
AcDbDictionary
281
     1
  3
Standard
350
4ED
  0
DICTIONARY
  5
1B
102
{ACAD_REACTORS
330
C
102
}
330
C
100
AcDbDictionary
281
     1
  3
STANDARD
350
1C
  0
DICTIONARY
  5
4F3
102
{ACAD_REACTORS
330
C
102
}
330
C
100
AcDbDictionary
281
     1
  0
ACDBDICTIONARYWDFLT
  5
4A3
102
{ACAD_REACTORS
330
C
102
}
330
C
100
AcDbDictionary
281
     1
  3
Normal
350
4A4
100
AcDbDictionaryWithDefault
340
4A4
  0
DICTIONARY
  5
4DA
102
{ACAD_REACTORS
330
C
102
}
330
C
100
AcDbDictionary
281
     1
  3
A0
350
4DB
  3
A1
350
4DC
  3
A2
350
4DD
  3
A3
350
4DE
  3
A4
350
4DF
  3
A5
350
4E0
  3
A6
350
4E1
  3
A7
350
4E2
  3
A8
350
4E3
  3
A9
350
4E4
  3
B0
350
4E5
  3
B1
350
4E6
  3
B2
350
4E7
  3
B3
350
4E8
  3
B4
350
4E9
  3
B5
350
4EA
  3
B6
350
4EB
  0
DICTIONARY
  5
4EE
102
{ACAD_REACTORS
330
C
102
}
330
C
100
AcDbDictionary
281
     1
  3
Imperial24
350
4EF
  0
DICTIONARY
  5
4D8
102
{ACAD_REACTORS
330
C
102
}
330
C
100
AcDbDictionary
281
     1
  3
Standard
350
4D9
  0
DICTIONARY
  5
4BE
102
{ACAD_REACTORS
330
C
102
}
330
C
100
AcDbDictionary
281
     1
  3
2dWireframe
350
4C4
  3
Basic
350
4C3
  3
Brighten
350
4CA
  3
ColorChange
350
4CE
  3
Conceptual
350
4C7
  3
Dim
350
4C9
  3
EdgeColorOff
350
4D6
  3
Facepattern
350
4CD
  3
Flat
350
4BF
  3
FlatWithEdges
350
4C0
  3
Gouraud
350
4C1
  3
GouraudWithEdges
350
4C2
  3
Hidden
350
4C6
  3
JitterOff
350
4D4
  3
Linepattern
350
4CC
  3
OverhangOff
350
4D5
  3
Realistic
350
4C8
  3
Shaded
350
4D3
  3
Shaded with edges
350
4D2
  3
Shades of Gray
350
4CF
  3
Sketchy
350
4D0
  3
Thicken
350
4CB
  3
Wireframe
350
4C5
  3
X-Ray
350
4D1
  0
XRECORD
  5
542
102
{ACAD_REACTORS
330
C
102
}
330
C
100
AcDbXrecord
280
     1
 90
        1
330
4D9
330
4EF
330
4F1
  0
DICTIONARY
  5
531
102
{ACAD_REACTORS
330
C
102
}
330
C
100
AcDbDictionary
281
     1
  3
CANNOSCALE
350
537
  3
CMLEADERSTYLE
350
533
  3
CTABLESTYLE
350
532
  3
CVIEWDETAILSTYLE
350
534
  3
CVIEWSECTIONSTYLE
350
535
  3
LAYEREVAL
350
539
  3
LAYERNOTIFY
350
53A
  3
LIGHTINGUNITS
350
538
  3
MSLTSCALE
350
536
  0
XRECORD
  5
526
102
{ACAD_REACTORS
330
525
102
}
330
525
100
AcDbXrecord
280
     1
290
     1
  0
XRECORD
  5
528
102
{ACAD_REACTORS
330
527
102
}
330
527
100
AcDbXrecord
280
     1
290
     1
  0
XRECORD
  5
52A
102
{ACAD_REACTORS
330
529
102
}
330
529
100
AcDbXrecord
280
     1
290
     1
  0
XRECORD
  5
52C
102
{ACAD_REACTORS
330
52B
102
}
330
52B
100
AcDbXrecord
280
     1
290
     1
  0
XRECORD
  5
52E
102
{ACAD_REACTORS
330
52D
102
}
330
52D
100
AcDbXrecord
280
     1
290
     1
  0
XRECORD
  5
530
102
{ACAD_REACTORS
330
52F
102
}
330
52F
100
AcDbXrecord
280
     1
290
     1
  0
ACDBDETAILVIEWSTYLE
  5
4F1
102
{ACAD_XDICTIONARY
360
540
102
}
102
{ACAD_REACTORS
330
4F0
102
}
330
4F0
100
AcDbModelDocViewStyle
 70
     0
  3
Imperial24
290
     0
100
AcDbDetailViewStyle
 70
     0
 71
     0
 90
        3
 71
     1
340
F
 62
   256
 40
0.24
340
0
 62
   256
 40
0.24
300

 40
0.36
280
     3
 71
     2
340
14
 90
       25
 62
   256
 71
     3
340
F
 62
   256
 40
0.24
 90
        1
 40
0.75
 90
        1
300
%<\AcVar ViewType \f "%tc1">% %<\AcVar ViewDetailId>%\PSCALE %<\AcVar ViewScale \f "%sn">%
 71
     4
340
14
 90
       25
 62
   256
340
14
 90
       25
 62
   256
280
     0
  0
LAYOUT
  5
4F5
102
{ACAD_REACTORS
330
4F2
102
}
330
4F2
100
AcDbPlotSettings
  1

  2
HP OfficeJet Pro 9010 series
  4

  6

 40
0.0
 41
0.0
 42
0.0
 43
0.0
 44
0.0
 45
0.0
 46
0.0
 47
0.0
 48
0.0
 49
0.0
140
0.0
141
0.0
142
1.0
143
1.0
 70
   688
 72
     0
 73
     0
 74
     5
  7

 75
    16
147
1.0
 76
     0
 77
     2
 78
   300
148
0.0
149
0.0
100
AcDbLayout
  1
Layout1
 70
     1
 71
     1
 10
0.0
 20
0.0
 11
12.0
 21
9.0
 12
0.0
 22
0.0
 32
0.0
 14
1.000000000000000E+20
 24
1.000000000000000E+20
 34
1.000000000000000E+20
 15
-1.000000000000000E+20
 25
-1.000000000000000E+20
 35
-1.000000000000000E+20
146
0.0
 13
0.0
 23
0.0
 33
0.0
 16
1.0
 26
0.0
 36
0.0
 17
0.0
 27
1.0
 37
0.0
 76
     0
330
15
  0
LAYOUT
  5
4F4
102
{ACAD_REACTORS
330
4F2
102
}
330
4F2
100
AcDbPlotSettings
  1

  2
HP OfficeJet Pro 9010 series
  4

  6

 40
0.0
 41
0.0
 42
0.0
 43
0.0
 44
0.0
 45
0.0
 46
0.0
 47
0.0
 48
0.0
 49
0.0
140
0.0
141
0.0
142
1.0
143
1.0
 70
  1712
 72
     0
 73
     0
 74
     0
  7

 75
     0
147
1.0
 76
     0
 77
     2
 78
   300
148
0.0
149
0.0
100
AcDbLayout
  1
Model
 70
     1
 71
     0
 10
0.0
 20
0.0
 11
12.0
 21
9.0
 12
0.0
 22
0.0
 32
0.0
 14
0.0
 24
0.0
 34
0.0
 15
0.0
 25
0.0
 35
0.0
146
0.0
 13
0.0
 23
0.0
 33
0.0
 16
1.0
 26
0.0
 36
0.0
 17
0.0
 27
1.0
 37
0.0
 76
     0
330
18
331
49B
  0
MATERIAL
  5
4AE
102
{ACAD_XDICTIONARY
360
4AF
102
}
102
{ACAD_REACTORS
330
4A5
102
}
330
4A5
100
AcDbMaterial
  1
ByBlock
 72
     0
 43
0.0208333333333333
 43
0.0
 43
0.0
 43
0.0
 43
0.0
 43
0.0208333333333333
 43
0.0
 43
0.0
 43
0.0
 43
0.0
 43
1.0
 43
0.0
 43
0.0
 43
0.0
 43
0.0
 43
1.0
 77
     0
 47
0.0208333333333333
 47
0.0
 47
0.0
 47
0.0
 47
0.0
 47
0.0208333333333333
 47
0.0
 47
0.0
 47
0.0
 47
0.0
 47
1.0
 47
0.0
 47
0.0
 47
0.0
 47
0.0
 47
1.0
171
     0
 49
0.0208333333333333
 49
0.0
 49
0.0
 49
0.0
 49
0.0
 49
0.0208333333333333
 49
0.0
 49
0.0
 49
0.0
 49
0.0
 49
1.0
 49
0.0
 49
0.0
 49
0.0
 49
0.0
 49
1.0
175
     0
142
0.0208333333333333
142
0.0
142
0.0
142
0.0
142
0.0
142
0.0208333333333333
142
0.0
142
0.0
142
0.0
142
0.0
142
1.0
142
0.0
142
0.0
142
0.0
142
0.0
142
1.0
179
     0
144
0.0208333333333333
144
0.0
144
0.0
144
0.0
144
0.0
144
0.0208333333333333
144
0.0
144
0.0
144
0.0
144
0.0
144
1.0
144
0.0
144
0.0
144
0.0
144
0.0
144
1.0
147
0.0208333333333333
147
0.0
147
0.0
147
0.0
147
0.0
147
0.0208333333333333
147
0.0
147
0.0
147
0.0
147
0.0
147
1.0
147
0.0
147
0.0
147
0.0
147
0.0
147
1.0
  0
MATERIAL
  5
4A6
102
{ACAD_XDICTIONARY
360
4A7
102
}
102
{ACAD_REACTORS
330
4A5
102
}
330
4A5
100
AcDbMaterial
  1
ByLayer
 72
     0
 43
0.0208333333333333
 43
0.0
 43
0.0
 43
0.0
 43
0.0
 43
0.0208333333333333
 43
0.0
 43
0.0
 43
0.0
 43
0.0
 43
1.0
 43
0.0
 43
0.0
 43
0.0
 43
0.0
 43
1.0
 77
     0
 47
0.0208333333333333
 47
0.0
 47
0.0
 47
0.0
 47
0.0
 47
0.0208333333333333
 47
0.0
 47
0.0
 47
0.0
 47
0.0
 47
1.0
 47
0.0
 47
0.0
 47
0.0
 47
0.0
 47
1.0
171
     0
 49
0.0208333333333333
 49
0.0
 49
0.0
 49
0.0
 49
0.0
 49
0.0208333333333333
 49
0.0
 49
0.0
 49
0.0
 49
0.0
 49
1.0
 49
0.0
 49
0.0
 49
0.0
 49
0.0
 49
1.0
175
     0
142
0.0208333333333333
142
0.0
142
0.0
142
0.0
142
0.0
142
0.0208333333333333
142
0.0
142
0.0
142
0.0
142
0.0
142
1.0
142
0.0
142
0.0
142
0.0
142
0.0
142
1.0
179
     0
144
0.0208333333333333
144
0.0
144
0.0
144
0.0
144
0.0
144
0.0208333333333333
144
0.0
144
0.0
144
0.0
144
0.0
144
1.0
144
0.0
144
0.0
144
0.0
144
0.0
144
1.0
147
0.0208333333333333
147
0.0
147
0.0
147
0.0
147
0.0
147
0.0208333333333333
147
0.0
147
0.0
147
0.0
147
0.0
147
1.0
147
0.0
147
0.0
147
0.0
147
0.0
147
1.0
  0
MATERIAL
  5
4B6
102
{ACAD_XDICTIONARY
360
4B7
102
}
102
{ACAD_REACTORS
330
4A5
102
}
330
4A5
100
AcDbMaterial
  1
Global
 72
     0
 43
0.0208333333333333
 43
0.0
 43
0.0
 43
0.0
 43
0.0
 43
0.0208333333333333
 43
0.0
 43
0.0
 43
0.0
 43
0.0
 43
1.0
 43
0.0
 43
0.0
 43
0.0
 43
0.0
 43
1.0
 77
     0
 47
0.0208333333333333
 47
0.0
 47
0.0
 47
0.0
 47
0.0
 47
0.0208333333333333
 47
0.0
 47
0.0
 47
0.0
 47
0.0
 47
1.0
 47
0.0
 47
0.0
 47
0.0
 47
0.0
 47
1.0
171
     0
 49
0.0208333333333333
 49
0.0
 49
0.0
 49
0.0
 49
0.0
 49
0.0208333333333333
 49
0.0
 49
0.0
 49
0.0
 49
0.0
 49
1.0
 49
0.0
 49
0.0
 49
0.0
 49
0.0
 49
1.0
175
     0
142
0.0208333333333333
142
0.0
142
0.0
142
0.0
142
0.0
142
0.0208333333333333
142
0.0
142
0.0
142
0.0
142
0.0
142
1.0
142
0.0
142
0.0
142
0.0
142
0.0
142
1.0
179
     0
144
0.0208333333333333
144
0.0
144
0.0
144
0.0
144
0.0
144
0.0208333333333333
144
0.0
144
0.0
144
0.0
144
0.0
144
1.0
144
0.0
144
0.0
144
0.0
144
0.0
144
1.0
147
0.0208333333333333
147
0.0
147
0.0
147
0.0
147
0.0
147
0.0208333333333333
147
0.0
147
0.0
147
0.0
147
0.0
147
1.0
147
0.0
147
0.0
147
0.0
147
0.0
147
1.0
  0
MLEADERSTYLE
  5
4ED
102
{ACAD_REACTORS
330
4EC
102
}
330
4EC
100
AcDbMLeaderStyle
179
     2
170
     2
171
     1
172
     0
 90
        2
 40
0.0
 41
0.0
173
     1
 91
-1056964608
340
12
 92
       -2
290
     1
 42
0.09
291
     1
 43
0.36
  3
Standard
 44
0.18
300

342
F
174
     1
178
     6
175
     1
176
     0
 93
-1056964608
 45
0.18
292
     0
297
     0
 46
0.18
 94
-1056964608
 47
1.0
 49
1.0
140
1.0
293
     1
141
0.0
294
     1
177
     0
142
1.0
295
     0
296
     0
143
0.125
271
     0
272
     9
273
     9
298
     0
  0
MLINESTYLE
  5
1C
102
{ACAD_REACTORS
330
1B
102
}
330
1B
100
AcDbMlineStyle
  2
STANDARD
 70
     0
  3

 62
   256
 51
90.0
 52
90.0
 71
     2
 49
0.5
 62
   256
  6
BYLAYER
 49
-0.5
 62
   256
  6
BYLAYER
  0
ACDBPLACEHOLDER
  5
4A4
102
{ACAD_REACTORS
330
4A3
102
}
330
4A3
  0
SCALE
  5
4DB
102
{ACAD_REACTORS
330
4DA
102
}
330
4DA
100
AcDbScale
 70
     0
300
1:1
140
1.0
141
1.0
290
     1
  0
SCALE
  5
4DC
102
{ACAD_REACTORS
330
4DA
102
}
330
4DA
100
AcDbScale
 70
     0
300
1/128" = 1'-0"
140
0.0078125
141
12.0
290
     0
  0
SCALE
  5
4DD
102
{ACAD_REACTORS
330
4DA
102
}
330
4DA
100
AcDbScale
 70
     0
300
1/64" = 1'-0"
140
0.015625
141
12.0
290
     0
  0
SCALE
  5
4DE
102
{ACAD_REACTORS
330
4DA
102
}
330
4DA
100
AcDbScale
 70
     0
300
1/32" = 1'-0"
140
0.03125
141
12.0
290
     0
  0
SCALE
  5
4DF
102
{ACAD_REACTORS
330
4DA
102
}
330
4DA
100
AcDbScale
 70
     0
300
1/16" = 1'-0"
140
0.0625
141
12.0
290
     0
  0
SCALE
  5
4E0
102
{ACAD_REACTORS
330
4DA
102
}
330
4DA
100
AcDbScale
 70
     0
300
3/32" = 1'-0"
140
0.09375
141
12.0
290
     0
  0
SCALE
  5
4E1
102
{ACAD_REACTORS
330
4DA
102
}
330
4DA
100
AcDbScale
 70
     0
300
1/8" = 1'-0"
140
0.125
141
12.0
290
     0
  0
SCALE
  5
4E2
102
{ACAD_REACTORS
330
4DA
102
}
330
4DA
100
AcDbScale
 70
     0
300
3/16" = 1'-0"
140
0.1875
141
12.0
290
     0
  0
SCALE
  5
4E3
102
{ACAD_REACTORS
330
4DA
102
}
330
4DA
100
AcDbScale
 70
     0
300
1/4" = 1'-0"
140
0.25
141
12.0
290
     0
  0
SCALE
  5
4E4
102
{ACAD_REACTORS
330
4DA
102
}
330
4DA
100
AcDbScale
 70
     0
300
3/8" = 1'-0"
140
0.375
141
12.0
290
     0
  0
SCALE
  5
4E5
102
{ACAD_REACTORS
330
4DA
102
}
330
4DA
100
AcDbScale
 70
     0
300
1/2" = 1'-0"
140
0.5
141
12.0
290
     0
  0
SCALE
  5
4E6
102
{ACAD_REACTORS
330
4DA
102
}
330
4DA
100
AcDbScale
 70
     0
300
3/4" = 1'-0"
140
0.75
141
12.0
290
     0
  0
SCALE
  5
4E7
102
{ACAD_REACTORS
330
4DA
102
}
330
4DA
100
AcDbScale
 70
     0
300
1" = 1'-0"
140
1.0
141
12.0
290
     0
  0
SCALE
  5
4E8
102
{ACAD_REACTORS
330
4DA
102
}
330
4DA
100
AcDbScale
 70
     0
300
1-1/2" = 1'-0"
140
1.5
141
12.0
290
     0
  0
SCALE
  5
4E9
102
{ACAD_REACTORS
330
4DA
102
}
330
4DA
100
AcDbScale
 70
     0
300
3" = 1'-0"
140
3.0
141
12.0
290
     0
  0
SCALE
  5
4EA
102
{ACAD_REACTORS
330
4DA
102
}
330
4DA
100
AcDbScale
 70
     0
300
6" = 1'-0"
140
6.0
141
12.0
290
     0
  0
SCALE
  5
4EB
102
{ACAD_REACTORS
330
4DA
102
}
330
4DA
100
AcDbScale
 70
     0
300
1'-0" = 1'-0"
140
12.0
141
12.0
290
     0
  0
ACDBSECTIONVIEWSTYLE
  5
4EF
102
{ACAD_XDICTIONARY
360
53E
102
}
102
{ACAD_REACTORS
330
4EE
102
}
330
4EE
100
AcDbModelDocViewStyle
 70
     0
  3
Imperial24
290
     0
100
AcDbSectionViewStyle
 70
     0
 71
     0
 90
       78
 71
     1
340
F
 62
   256
 40
0.24
340
0
340
0
 62
   256
 40
0.24
300
I, O, Q, S, X, Z
 40
0.48
 90
        3
 40
0.18
 90
        1
 71
     2
340
14
 90
       25
 62
   256
340
14
 90
       50
 62
   256
 40
0.24
 40
0.0
 40
0.24
 71
     3
340
F
 62
   256
 40
0.24
 90
        1
 40
0.75
 90
        1
300
%<\AcVar ViewType \f "%tc1">% %<\AcVar ViewSectionStartId>%-%<\AcVar ViewSectionEndId>%\PSCALE %<\AcVar ViewScale \f "%sn">%
 71
     4
 62
   256
 62
   257
300
ANSI31
 40
1.0
 90
        0
290
     0
290
     0
 90
        6
 40
0.0
 40
1.570796326794896
 40
0.2617993877991494
 40
1.308996938995747
 40
-0.2617993877991494
 40
1.832595714594046
  0
TABLESTYLE
  5
4D9
102
{ACAD_XDICTIONARY
360
53C
102
}
102
{ACAD_REACTORS
330
4D8
102
}
330
4D8
100
AcDbTableStyle
280
     0
  3
Standard
 70
     0
 71
     0
 40
0.06
 41
0.06
280
     0
281
     0
  7
STANDARD
140
0.18
170
     2
 62
     0
 63
     7
283
     0
 90
      512
 91
        0
  1

274
    -2
284
     1
 64
     0
275
    -2
285
     1
 65
     0
276
    -2
286
     1
 66
     0
277
    -2
287
     1
 67
     0
278
    -2
288
     1
 68
     0
279
    -2
289
     1
 69
     0
  7
STANDARD
140
0.25
170
     5
 62
     0
 63
     7
283
     0
 90
      512
 91
        0
  1

274
    -2
284
     1
 64
     0
275
    -2
285
     1
 65
     0
276
    -2
286
     1
 66
     0
277
    -2
287
     1
 67
     0
278
    -2
288
     1
 68
     0
279
    -2
289
     1
 69
     0
  7
STANDARD
140
0.18
170
     5
 62
     0
 63
     7
283
     0
 90
      512
 91
        0
  1

274
    -2
284
     1
 64
     0
275
    -2
285
     1
 65
     0
276
    -2
286
     1
 66
     0
277
    -2
287
     1
 67
     0
278
    -2
288
     1
 68
     0
279
    -2
289
     1
 69
     0
  0
VISUALSTYLE
  5
4C4
102
{ACAD_REACTORS
330
4BE
102
}
330
4BE
100
AcDbVisualStyle
  2
2dWireframe
 70
     4
177
     3
291
     0
 70
    58
 90
        0
176
     1
 90
        2
176
     1
 90
        0
176
     1
 90
        0
176
     1
 40
0.6
176
     1
 40
30.0
176
     1
 62
     7
420
 16777215
176
     1
 90
        1
176
     1
 90
        4
176
     1
 62
     7
176
     1
 62
   257
176
     1
 90
        1
176
     1
 90
        1
176
     1
 40
1.0
176
     1
 90
        0
176
     1
 62
   257
176
     1
 40
1.0
176
     1
 90
        1
176
     1
 90
        6
176
     1
 90
        2
176
     1
 62
     7
176
     1
 90
        5
176
     1
 90
        0
176
     1
 90
        0
176
     1
290
     0
176
     1
 90
        1
176
     1
 40
0.0
176
     1
 90
        0
176
     1
290
     1
176
     1
290
     1
176
     1
290
     0
176
     1
290
     0
176
     1
290
     0
176
     1
290
     0
176
     1
290
     0
176
     1
290
     0
176
     1
290
     0
176
     1
 90
       50
176
     1
 40
0.0
176
     1
 40
1.0
176
     1
 90
        0
176
     1
 62
    18
420
        0
176
     1
 90
       50
176
     1
 90
        3
176
     1
 62
     5
420
      255
176
     1
290
     0
176
     1
 90
       50
176
     1
 90
       50
176
     1
 90
       50
176
     1
290
     0
176
     1
 90
       50
176
     1
 62
   256
176
     0
 40
1.0
176
     0
 90
        2
176
     1
  1
strokes_ogs.tif
176
     1
290
     0
176
     1
 40
1.0
176
     1
 40
1.0
176
     1
  0
VISUALSTYLE
  5
4C3
102
{ACAD_REACTORS
330
4BE
102
}
330
4BE
100
AcDbVisualStyle
  2
Basic
 70
     7
177
     3
291
     1
 70
    58
 90
        1
176
     1
 90
        0
176
     1
 90
        1
176
     1
 90
        0
176
     1
 40
0.6
176
     1
 40
30.0
176
     1
 62
     7
420
 16777215
176
     1
 90
        0
176
     1
 90
        4
176
     1
 62
     7
176
     1
 62
   257
176
     1
 90
        1
176
     1
 90
        1
176
     1
 40
1.0
176
     1
 90
        8
176
     1
 62
     7
176
     1
 40
1.0
176
     1
 90
        1
176
     1
 90
        6
176
     1
 90
        2
176
     1
 62
     7
176
     1
 90
        5
176
     1
 90
        0
176
     1
 90
        0
176
     1
290
     0
176
     1
 90
        1
176
     1
 40
0.0
176
     1
 90
        0
176
     1
290
     0
176
     1
290
     1
176
     1
290
     1
176
     1
290
     0
176
     1
290
     0
176
     1
290
     0
176
     1
290
     0
176
     1
290
     0
176
     1
290
     0
176
     1
 90
       50
176
     1
 40
0.0
176
     1
 40
1.0
176
     1
 90
        0
176
     1
 62
    18
420
        0
176
     1
 90
       50
176
     1
 90
        3
176
     1
 62
     5
420
      255
176
     1
290
     0
176
     1
 90
       50
176
     1
 90
       50
176
     1
 90
       50
176
     1
290
     0
176
     1
 90
       50
176
     1
 62
   256
176
     0
 40
1.0
176
     0
 90
        2
176
     1
  1
strokes_ogs.tif
176
     1
290
     0
176
     1
 40
1.0
176
     1
 40
1.0
176
     1
  0
VISUALSTYLE
  5
4CA
102
{ACAD_REACTORS
330
4BE
102
}
330
4BE
100
AcDbVisualStyle
  2
Brighten
 70
    12
177
     3
291
     1
 70
    58
 90
        2
176
     1
 90
        2
176
     1
 90
        0
176
     1
 90
        0
176
     1
 40
0.6
176
     1
 40
30.0
176
     1
 62
     7
420
 16777215
176
     1
 90
        1
176
     1
 90
        4
176
     1
 62
     7
176
     1
 62
   257
176
     1
 90
        1
176
     1
 90
        1
176
     1
 40
1.0
176
     1
 90
        8
176
     1
 62
     7
176
     1
 40
1.0
176
     1
 90
        1
176
     1
 90
        6
176
     1
 90
        2
176
     1
 62
     7
176
     1
 90
        5
176
     1
 90
        0
176
     1
 90
        0
176
     1
290
     0
176
     1
 90
        1
176
     1
 40
50.0
176
     1
 90
        0
176
     1
290
     0
176
     1
290
     1
176
     1
290
     1
176
     1
290
     0
176
     1
290
     0
176
     1
290
     0
176
     1
290
     0
176
     1
290
     0
176
     1
290
     0
176
     1
 90
       50
176
     1
 40
0.0
176
     1
 40
1.0
176
     1
 90
        0
176
     1
 62
    18
420
        0
176
     1
 90
       50
176
     1
 90
        3
176
     1
 62
     5
420
      255
176
     1
290
     0
176
     1
 90
       50
176
     1
 90
       50
176
     1
 90
       50
176
     1
290
     0
176
     1
 90
       50
176
     1
 62
   256
176
     0
 40
1.0
176
     0
 90
        2
176
     1
  1
strokes_ogs.tif
176
     1
290
     0
176
     1
 40
1.0
176
     1
 40
1.0
176
     1
  0
VISUALSTYLE
  5
4CE
102
{ACAD_REACTORS
330
4BE
102
}
330
4BE
100
AcDbVisualStyle
  2
ColorChange
 70
    16
177
     3
291
     1
 70
    58
 90
        2
176
     1
 90
        2
176
     1
 90
        3
176
     1
 90
        0
176
     1
 40
0.6
176
     1
 40
30.0
176
     1
 62
     8
420
  8421504
176
     1
 90
        1
176
     1
 90
        4
176
     1
 62
     7
176
     1
 62
   257
176
     1
 90
        1
176
     1
 90
        1
176
     1
 40
1.0
176
     1
 90
        8
176
     1
 62
     8
420
  8421504
176
     1
 40
1.0
176
     1
 90
        1
176
     1
 90
        6
176
     1
 90
        2
176
     1
 62
     7
176
     1
 90
        5
176
     1
 90
        0
176
     1
 90
        0
176
     1
290
     0
176
     1
 90
        1
176
     1
 40
0.0
176
     1
 90
        0
176
     1
290
     0
176
     1
290
     1
176
     1
290
     1
176
     1
290
     0
176
     1
290
     0
176
     1
290
     0
176
     1
290
     0
176
     1
290
     0
176
     1
290
     0
176
     1
 90
       50
176
     1
 40
0.0
176
     1
 40
1.0
176
     1
 90
        0
176
     1
 62
    18
420
        0
176
     1
 90
       50
176
     1
 90
        3
176
     1
 62
     5
420
      255
176
     1
290
     0
176
     1
 90
       50
176
     1
 90
       50
176
     1
 90
       50
176
     1
290
     0
176
     1
 90
       50
176
     1
 62
   256
176
     0
 40
1.0
176
     0
 90
        2
176
     1
  1
strokes_ogs.tif
176
     1
290
     0
176
     1
 40
1.0
176
     1
 40
1.0
176
     1
  0
VISUALSTYLE
  5
4C7
102
{ACAD_REACTORS
330
4BE
102
}
330
4BE
100
AcDbVisualStyle
  2
Conceptual
 70
     9
177
     3
291
     0
 70
    58
 90
        3
176
     1
 90
        2
176
     1
 90
        0
176
     1
 90
        0
176
     1
 40
0.6
176
     1
 40
30.0
176
     1
 62
     7
420
 16777215
176
     1
 90
        2
176
     1
 90
        2
176
     1
 62
     7
176
     1
 62
   257
176
     1
 90
        1
176
     1
 90
        1
176
     1
 40
179.0
176
     1
 90
        8
176
     1
 62
     7
176
     1
 40
1.0
176
     1
 90
        1
176
     1
 90
        6
176
     1
 90
        2
176
     1
 62
     7
176
     1
 90
        3
176
     1
 90
        0
176
     1
 90
        0
176
     1
290
     0
176
     1
 90
        1
176
     1
 40
0.0
176
     1
 90
        0
176
     1
290
     0
176
     1
290
     1
176
     1
290
     1
176
     1
290
     0
176
     1
290
     0
176
     1
290
     0
176
     1
290
     0
176
     1
290
     0
176
     1
290
     0
176
     1
 90
       50
176
     1
 40
0.0
176
     1
 40
1.0
176
     1
 90
        0
176
     1
 62
    18
420
        0
176
     1
 90
       50
176
     1
 90
        3
176
     1
 62
     5
420
      255
176
     1
290
     0
176
     1
 90
       50
176
     1
 90
       50
176
     1
 90
       50
176
     1
290
     0
176
     1
 90
       50
176
     1
 62
   256
176
     0
 40
1.0
176
     0
 90
        2
176
     1
  1
strokes_ogs.tif
176
     1
290
     0
176
     1
 40
1.0
176
     1
 40
1.0
176
     1
  0
VISUALSTYLE
  5
4C9
102
{ACAD_REACTORS
330
4BE
102
}
330
4BE
100
AcDbVisualStyle
  2
Dim
 70
    11
177
     3
291
     1
 70
    58
 90
        2
176
     1
 90
        2
176
     1
 90
        0
176
     1
 90
        0
176
     1
 40
0.6
176
     1
 40
30.0
176
     1
 62
     7
420
 16777215
176
     1
 90
        1
176
     1
 90
        4
176
     1
 62
     7
176
     1
 62
   257
176
     1
 90
        1
176
     1
 90
        1
176
     1
 40
1.0
176
     1
 90
        8
176
     1
 62
     7
176
     1
 40
1.0
176
     1
 90
        1
176
     1
 90
        6
176
     1
 90
        2
176
     1
 62
     7
176
     1
 90
        5
176
     1
 90
        0
176
     1
 90
        0
176
     1
290
     0
176
     1
 90
        1
176
     1
 40
-50.0
176
     1
 90
        0
176
     1
290
     0
176
     1
290
     1
176
     1
290
     1
176
     1
290
     0
176
     1
290
     0
176
     1
290
     0
176
     1
290
     0
176
     1
290
     0
176
     1
290
     0
176
     1
 90
       50
176
     1
 40
0.0
176
     1
 40
1.0
176
     1
 90
        0
176
     1
 62
    18
420
        0
176
     1
 90
       50
176
     1
 90
        3
176
     1
 62
     5
420
      255
176
     1
290
     0
176
     1
 90
       50
176
     1
 90
       50
176
     1
 90
       50
176
     1
290
     0
176
     1
 90
       50
176
     1
 62
   256
176
     0
 40
1.0
176
     0
 90
        2
176
     1
  1
strokes_ogs.tif
176
     1
290
     0
176
     1
 40
1.0
176
     1
 40
1.0
176
     1
  0
VISUALSTYLE
  5
4D6
102
{ACAD_REACTORS
330
4BE
102
}
330
4BE
100
AcDbVisualStyle
  2
EdgeColorOff
 70
    22
177
     3
291
     1
 70
    58
 90
        2
176
     0
 90
        2
176
     0
 90
        0
176
     0
 90
        0
176
     0
 40
0.6
176
     0
 40
30.0
176
     0
 62
     7
420
 16777215
176
     0
 90
        1
176
     0
 90
        4
176
     0
 62
     7
176
     0
 62
   257
176
     0
 90
        1
176
     0
 90
        1
176
     0
 40
1.0
176
     0
 90
        8
176
     2
 62
     7
176
     0
 40
1.0
176
     0
 90
        1
176
     0
 90
        6
176
     0
 90
        2
176
     0
 62
     7
176
     0
 90
        5
176
     0
 90
        0
176
     0
 90
        0
176
     0
290
     0
176
     0
 90
        1
176
     0
 40
0.0
176
     0
 90
        0
176
     0
290
     0
176
     1
290
     1
176
     1
290
     1
176
     1
290
     0
176
     1
290
     0
176
     1
290
     0
176
     1
290
     0
176
     1
290
     0
176
     1
290
     0
176
     1
 90
       50
176
     0
 40
0.0
176
     0
 40
1.0
176
     0
 90
        0
176
     0
 62
    18
420
        0
176
     0
 90
       50
176
     0
 90
        3
176
     0
 62
     5
420
      255
176
     0
290
     0
176
     1
 90
       50
176
     0
 90
       50
176
     0
 90
       50
176
     0
290
     0
176
     1
 90
       50
176
     0
 62
   256
176
     0
 40
1.0
176
     0
 90
        2
176
     0
  1
strokes_ogs.tif
176
     0
290
     0
176
     1
 40
1.0
176
     0
 40
1.0
176
     0
  0
VISUALSTYLE
  5
4CD
102
{ACAD_REACTORS
330
4BE
102
}
330
4BE
100
AcDbVisualStyle
  2
Facepattern
 70
    15
177
     3
291
     1
 70
    58
 90
        2
176
     1
 90
        2
176
     1
 90
        0
176
     1
 90
        0
176
     1
 40
0.6
176
     1
 40
30.0
176
     1
 62
     7
420
 16777215
176
     1
 90
        1
176
     1
 90
        4
176
     1
 62
     7
176
     1
 62
   257
176
     1
 90
        1
176
     1
 90
        1
176
     1
 40
1.0
176
     1
 90
        8
176
     1
 62
     7
176
     1
 40
1.0
176
     1
 90
        1
176
     1
 90
        6
176
     1
 90
        2
176
     1
 62
     7
176
     1
 90
        5
176
     1
 90
        0
176
     1
 90
        0
176
     1
290
     0
176
     1
 90
        1
176
     1
 40
0.0
176
     1
 90
        0
176
     1
290
     0
176
     1
290
     1
176
     1
290
     1
176
     1
290
     0
176
     1
290
     0
176
     1
290
     0
176
     1
290
     0
176
     1
290
     0
176
     1
290
     0
176
     1
 90
       50
176
     1
 40
0.0
176
     1
 40
1.0
176
     1
 90
        0
176
     1
 62
    18
420
        0
176
     1
 90
       50
176
     1
 90
        3
176
     1
 62
     5
420
      255
176
     1
290
     0
176
     1
 90
       50
176
     1
 90
       50
176
     1
 90
       50
176
     1
290
     0
176
     1
 90
       50
176
     1
 62
   256
176
     0
 40
1.0
176
     0
 90
        2
176
     1
  1
strokes_ogs.tif
176
     1
290
     0
176
     1
 40
1.0
176
     1
 40
1.0
176
     1
  0
VISUALSTYLE
  5
4BF
102
{ACAD_REACTORS
330
4BE
102
}
330
4BE
100
AcDbVisualStyle
  2
Flat
 70
     0
177
     3
291
     1
 70
    58
 90
        2
176
     1
 90
        1
176
     1
 90
        1
176
     1
 90
        2
176
     1
 40
0.6
176
     1
 40
30.0
176
     1
 62
     7
420
 16777215
176
     1
 90
        0
176
     1
 90
        0
176
     1
 62
     7
176
     1
 62
   257
176
     1
 90
        1
176
     1
 90
        1
176
     1
 40
1.0
176
     1
 90
        8
176
     1
 62
     7
176
     1
 40
1.0
176
     1
 90
        1
176
     1
 90
        6
176
     1
 90
        2
176
     1
 62
     7
176
     1
 90
        5
176
     1
 90
        0
176
     1
 90
        0
176
     1
290
     0
176
     1
 90
       13
176
     1
 40
0.0
176
     1
 90
        0
176
     1
290
     0
176
     1
290
     1
176
     1
290
     1
176
     1
290
     0
176
     1
290
     0
176
     1
290
     0
176
     1
290
     0
176
     1
290
     0
176
     1
290
     0
176
     1
 90
       50
176
     1
 40
0.0
176
     1
 40
1.0
176
     1
 90
        0
176
     1
 62
    18
420
        0
176
     1
 90
       50
176
     1
 90
        3
176
     1
 62
     5
420
      255
176
     1
290
     0
176
     1
 90
       50
176
     1
 90
       50
176
     1
 90
       50
176
     1
290
     0
176
     1
 90
       50
176
     1
 62
   256
176
     0
 40
1.0
176
     0
 90
        2
176
     1
  1
strokes_ogs.tif
176
     1
290
     0
176
     1
 40
1.0
176
     1
 40
1.0
176
     1
  0
VISUALSTYLE
  5
4C0
102
{ACAD_REACTORS
330
4BE
102
}
330
4BE
100
AcDbVisualStyle
  2
FlatWithEdges
 70
     1
177
     3
291
     1
 70
    58
 90
        2
176
     1
 90
        1
176
     1
 90
        1
176
     1
 90
        2
176
     1
 40
0.6
176
     1
 40
30.0
176
     1
 62
     7
420
 16777215
176
     1
 90
        1
176
     1
 90
        0
176
     1
 62
     7
176
     1
 62
   257
176
     1
 90
        1
176
     1
 90
        1
176
     1
 40
1.0
176
     1
 90
        0
176
     1
 62
   257
176
     1
 40
1.0
176
     1
 90
        1
176
     1
 90
        6
176
     1
 90
        2
176
     1
 62
     7
176
     1
 90
        5
176
     1
 90
        0
176
     1
 90
        0
176
     1
290
     0
176
     1
 90
       13
176
     1
 40
0.0
176
     1
 90
        0
176
     1
290
     0
176
     1
290
     1
176
     1
290
     1
176
     1
290
     0
176
     1
290
     0
176
     1
290
     0
176
     1
290
     0
176
     1
290
     0
176
     1
290
     0
176
     1
 90
       50
176
     1
 40
0.0
176
     1
 40
1.0
176
     1
 90
        0
176
     1
 62
    18
420
        0
176
     1
 90
       50
176
     1
 90
        3
176
     1
 62
     5
420
      255
176
     1
290
     0
176
     1
 90
       50
176
     1
 90
       50
176
     1
 90
       50
176
     1
290
     0
176
     1
 90
       50
176
     1
 62
   256
176
     0
 40
1.0
176
     0
 90
        2
176
     1
  1
strokes_ogs.tif
176
     1
290
     0
176
     1
 40
1.0
176
     1
 40
1.0
176
     1
  0
VISUALSTYLE
  5
4C1
102
{ACAD_REACTORS
330
4BE
102
}
330
4BE
100
AcDbVisualStyle
  2
Gouraud
 70
     2
177
     3
291
     1
 70
    58
 90
        2
176
     1
 90
        2
176
     1
 90
        1
176
     1
 90
        2
176
     1
 40
0.6
176
     1
 40
30.0
176
     1
 62
     7
420
 16777215
176
     1
 90
        0
176
     1
 90
        0
176
     1
 62
     7
176
     1
 62
   257
176
     1
 90
        1
176
     1
 90
        1
176
     1
 40
1.0
176
     1
 90
        0
176
     1
 62
     7
176
     1
 40
1.0
176
     1
 90
        1
176
     1
 90
        6
176
     1
 90
        2
176
     1
 62
     7
176
     1
 90
        5
176
     1
 90
        0
176
     1
 90
        0
176
     1
290
     0
176
     1
 90
       13
176
     1
 40
0.0
176
     1
 90
        0
176
     1
290
     0
176
     1
290
     1
176
     1
290
     1
176
     1
290
     0
176
     1
290
     0
176
     1
290
     0
176
     1
290
     0
176
     1
290
     0
176
     1
290
     0
176
     1
 90
       50
176
     1
 40
0.0
176
     1
 40
1.0
176
     1
 90
        0
176
     1
 62
    18
420
        0
176
     1
 90
       50
176
     1
 90
        3
176
     1
 62
     5
420
      255
176
     1
290
     0
176
     1
 90
       50
176
     1
 90
       50
176
     1
 90
       50
176
     1
290
     0
176
     1
 90
       50
176
     1
 62
   256
176
     0
 40
1.0
176
     0
 90
        2
176
     1
  1
strokes_ogs.tif
176
     1
290
     0
176
     1
 40
1.0
176
     1
 40
1.0
176
     1
  0
VISUALSTYLE
  5
4C2
102
{ACAD_REACTORS
330
4BE
102
}
330
4BE
100
AcDbVisualStyle
  2
GouraudWithEdges
 70
     3
177
     3
291
     1
 70
    58
 90
        2
176
     1
 90
        2
176
     1
 90
        1
176
     1
 90
        2
176
     1
 40
0.6
176
     1
 40
30.0
176
     1
 62
     7
420
 16777215
176
     1
 90
        1
176
     1
 90
        0
176
     1
 62
     7
176
     1
 62
   257
176
     1
 90
        1
176
     1
 90
        1
176
     1
 40
1.0
176
     1
 90
        0
176
     1
 62
   257
176
     1
 40
1.0
176
     1
 90
        1
176
     1
 90
        6
176
     1
 90
        2
176
     1
 62
     7
176
     1
 90
        5
176
     1
 90
        0
176
     1
 90
        0
176
     1
290
     0
176
     1
 90
       13
176
     1
 40
0.0
176
     1
 90
        0
176
     1
290
     0
176
     1
290
     1
176
     1
290
     1
176
     1
290
     0
176
     1
290
     0
176
     1
290
     0
176
     1
290
     0
176
     1
290
     0
176
     1
290
     0
176
     1
 90
       50
176
     1
 40
0.0
176
     1
 40
1.0
176
     1
 90
        0
176
     1
 62
    18
420
        0
176
     1
 90
       50
176
     1
 90
        3
176
     1
 62
     5
420
      255
176
     1
290
     0
176
     1
 90
       50
176
     1
 90
       50
176
     1
 90
       50
176
     1
290
     0
176
     1
 90
       50
176
     1
 62
   256
176
     0
 40
1.0
176
     0
 90
        2
176
     1
  1
strokes_ogs.tif
176
     1
290
     0
176
     1
 40
1.0
176
     1
 40
1.0
176
     1
  0
VISUALSTYLE
  5
4C6
102
{ACAD_REACTORS
330
4BE
102
}
330
4BE
100
AcDbVisualStyle
  2
Hidden
 70
     6
177
     3
291
     0
 70
    58
 90
        1
176
     1
 90
        2
176
     1
 90
        2
176
     1
 90
        0
176
     1
 40
0.6
176
     1
 40
30.0
176
     1
 62
     7
420
 16777215
176
     1
 90
        2
176
     1
 90
        2
176
     1
 62
     7
176
     1
 62
   257
176
     1
 90
        2
176
     1
 90
        1
176
     1
 40
40.0
176
     1
 90
        0
176
     1
 62
   257
176
     1
 40
1.0
176
     1
 90
        1
176
     1
 90
        6
176
     1
 90
        2
176
     1
 62
     7
176
     1
 90
        3
176
     1
 90
        0
176
     1
 90
        0
176
     1
290
     0
176
     1
 90
        1
176
     1
 40
0.0
176
     1
 90
        0
176
     1
290
     0
176
     1
290
     1
176
     1
290
     1
176
     1
290
     0
176
     1
290
     0
176
     1
290
     0
176
     1
290
     0
176
     1
290
     0
176
     1
290
     0
176
     1
 90
       50
176
     1
 40
0.0
176
     1
 40
1.0
176
     1
 90
        0
176
     1
 62
    18
420
        0
176
     1
 90
       50
176
     1
 90
        3
176
     1
 62
     5
420
      255
176
     1
290
     0
176
     1
 90
       50
176
     1
 90
       50
176
     1
 90
       50
176
     1
290
     0
176
     1
 90
       50
176
     1
 62
   256
176
     0
 40
1.0
176
     0
 90
        2
176
     1
  1
strokes_ogs.tif
176
     1
290
     0
176
     1
 40
1.0
176
     1
 40
1.0
176
     1
  0
VISUALSTYLE
  5
4D4
102
{ACAD_REACTORS
330
4BE
102
}
330
4BE
100
AcDbVisualStyle
  2
JitterOff
 70
    20
177
     3
291
     1
 70
    58
 90
        2
176
     0
 90
        2
176
     0
 90
        0
176
     0
 90
        0
176
     0
 40
0.6
176
     0
 40
30.0
176
     0
 62
     7
420
 16777215
176
     0
 90
        1
176
     0
 90
        4
176
     0
 62
     7
176
     0
 62
   257
176
     0
 90
        1
176
     0
 90
        1
176
     0
 40
1.0
176
     0
 90
       10
176
     2
 62
     7
176
     0
 40
1.0
176
     0
 90
        1
176
     0
 90
        6
176
     0
 90
        2
176
     0
 62
     7
176
     0
 90
        5
176
     0
 90
        0
176
     0
 90
        0
176
     0
290
     0
176
     0
 90
        1
176
     0
 40
0.0
176
     0
 90
        0
176
     0
290
     0
176
     1
290
     1
176
     1
290
     1
176
     1
290
     0
176
     1
290
     0
176
     1
290
     0
176
     1
290
     0
176
     1
290
     0
176
     1
290
     0
176
     1
 90
       50
176
     0
 40
0.0
176
     0
 40
1.0
176
     0
 90
        0
176
     0
 62
    18
420
        0
176
     0
 90
       50
176
     0
 90
        3
176
     0
 62
     5
420
      255
176
     0
290
     0
176
     1
 90
       50
176
     0
 90
       50
176
     0
 90
       50
176
     0
290
     0
176
     1
 90
       50
176
     0
 62
   256
176
     0
 40
1.0
176
     0
 90
        2
176
     0
  1
strokes_ogs.tif
176
     0
290
     0
176
     1
 40
1.0
176
     0
 40
1.0
176
     0
  0
VISUALSTYLE
  5
4CC
102
{ACAD_REACTORS
330
4BE
102
}
330
4BE
100
AcDbVisualStyle
  2
Linepattern
 70
    14
177
     3
291
     1
 70
    58
 90
        2
176
     1
 90
        2
176
     1
 90
        0
176
     1
 90
        0
176
     1
 40
0.6
176
     1
 40
30.0
176
     1
 62
     7
420
 16777215
176
     1
 90
        1
176
     1
 90
        4
176
     1
 62
     7
176
     1
 62
   257
176
     1
 90
        7
176
     1
 90
        7
176
     1
 40
1.0
176
     1
 90
        8
176
     1
 62
     7
176
     1
 40
1.0
176
     1
 90
        1
176
     1
 90
        6
176
     1
 90
        2
176
     1
 62
     7
176
     1
 90
        5
176
     1
 90
        0
176
     1
 90
        0
176
     1
290
     0
176
     1
 90
        1
176
     1
 40
0.0
176
     1
 90
        0
176
     1
290
     0
176
     1
290
     1
176
     1
290
     1
176
     1
290
     0
176
     1
290
     0
176
     1
290
     0
176
     1
290
     0
176
     1
290
     0
176
     1
290
     0
176
     1
 90
       50
176
     1
 40
0.0
176
     1
 40
1.0
176
     1
 90
        0
176
     1
 62
    18
420
        0
176
     1
 90
       50
176
     1
 90
        3
176
     1
 62
     5
420
      255
176
     1
290
     0
176
     1
 90
       50
176
     1
 90
       50
176
     1
 90
       50
176
     1
290
     0
176
     1
 90
       50
176
     1
 62
   256
176
     0
 40
1.0
176
     0
 90
        2
176
     1
  1
strokes_ogs.tif
176
     1
290
     0
176
     1
 40
1.0
176
     1
 40
1.0
176
     1
  0
VISUALSTYLE
  5
4D5
102
{ACAD_REACTORS
330
4BE
102
}
330
4BE
100
AcDbVisualStyle
  2
OverhangOff
 70
    21
177
     3
291
     1
 70
    58
 90
        2
176
     0
 90
        2
176
     0
 90
        0
176
     0
 90
        0
176
     0
 40
0.6
176
     0
 40
30.0
176
     0
 62
     7
420
 16777215
176
     0
 90
        1
176
     0
 90
        4
176
     0
 62
     7
176
     0
 62
   257
176
     0
 90
        1
176
     0
 90
        1
176
     0
 40
1.0
176
     0
 90
        9
176
     2
 62
     7
176
     0
 40
1.0
176
     0
 90
        1
176
     0
 90
        6
176
     0
 90
        2
176
     0
 62
     7
176
     0
 90
        5
176
     0
 90
        0
176
     0
 90
        0
176
     0
290
     0
176
     0
 90
        1
176
     0
 40
0.0
176
     0
 90
        0
176
     0
290
     0
176
     1
290
     1
176
     1
290
     1
176
     1
290
     0
176
     1
290
     0
176
     1
290
     0
176
     1
290
     0
176
     1
290
     0
176
     1
290
     0
176
     1
 90
       50
176
     0
 40
0.0
176
     0
 40
1.0
176
     0
 90
        0
176
     0
 62
    18
420
        0
176
     0
 90
       50
176
     0
 90
        3
176
     0
 62
     5
420
      255
176
     0
290
     0
176
     1
 90
       50
176
     0
 90
       50
176
     0
 90
       50
176
     0
290
     0
176
     1
 90
       50
176
     0
 62
   256
176
     0
 40
1.0
176
     0
 90
        2
176
     0
  1
strokes_ogs.tif
176
     0
290
     0
176
     1
 40
1.0
176
     0
 40
1.0
176
     0
  0
VISUALSTYLE
  5
4C8
102
{ACAD_REACTORS
330
4BE
102
}
330
4BE
100
AcDbVisualStyle
  2
Realistic
 70
     8
177
     3
291
     0
 70
    58
 90
        2
176
     1
 90
        3
176
     1
 90
        0
176
     1
 90
        2
176
     1
 40
0.6
176
     1
 40
30.0
176
     1
 62
     7
420
 16777215
176
     1
 90
        0
176
     1
 90
        0
176
     1
 62
     7
176
     1
 62
   257
176
     1
 90
        1
176
     1
 90
        1
176
     1
 40
1.0
176
     1
 90
        8
176
     1
 62
   257
176
     1
 40
1.0
176
     1
 90
        1
176
     1
 90
        6
176
     1
 90
        2
176
     1
 62
     7
176
     1
 90
        3
176
     1
 90
        0
176
     1
 90
        0
176
     1
290
     0
176
     1
 90
       13
176
     1
 40
0.0
176
     1
 90
        0
176
     1
290
     0
176
     1
290
     1
176
     1
290
     1
176
     1
290
     0
176
     1
290
     0
176
     1
290
     0
176
     1
290
     0
176
     1
290
     0
176
     1
290
     0
176
     1
 90
       50
176
     1
 40
0.0
176
     1
 40
1.0
176
     1
 90
        0
176
     1
 62
    18
420
        0
176
     1
 90
       50
176
     1
 90
        3
176
     1
 62
     5
420
      255
176
     1
290
     0
176
     1
 90
       50
176
     1
 90
       50
176
     1
 90
       50
176
     1
290
     0
176
     1
 90
       50
176
     1
 62
   256
176
     0
 40
1.0
176
     0
 90
        2
176
     1
  1
strokes_ogs.tif
176
     1
290
     0
176
     1
 40
1.0
176
     1
 40
1.0
176
     1
  0
VISUALSTYLE
  5
4D3
102
{ACAD_REACTORS
330
4BE
102
}
330
4BE
100
AcDbVisualStyle
  2
Shaded
 70
    27
177
     3
291
     0
 70
    58
 90
        2
176
     1
 90
        2
176
     1
 90
        1
176
     1
 90
        2
176
     1
 40
0.6
176
     1
 40
30.0
176
     1
 62
     7
420
 16777215
176
     1
 90
        0
176
     1
 90
        4
176
     1
 62
     7
176
     1
 62
   257
176
     1
 90
        1
176
     1
 90
        1
176
     1
 40
1.0
176
     1
 90
        8
176
     1
 62
   257
176
     1
 40
1.0
176
     1
 90
        1
176
     1
 90
        6
176
     1
 90
        2
176
     1
 62
     8
420
  7895160
176
     1
 90
        3
176
     1
 90
        0
176
     1
 90
        0
176
     1
290
     0
176
     1
 90
        5
176
     1
 40
0.0
176
     1
 90
        0
176
     1
290
     0
176
     1
290
     1
176
     1
290
     1
176
     1
290
     0
176
     1
290
     0
176
     1
290
     0
176
     1
290
     0
176
     1
290
     0
176
     1
290
     0
176
     1
 90
       50
176
     1
 40
0.0
176
     1
 40
1.0
176
     1
 90
        0
176
     1
 62
    18
420
        0
176
     1
 90
       50
176
     1
 90
        3
176
     1
 62
     5
420
      255
176
     1
290
     0
176
     1
 90
       50
176
     1
 90
       50
176
     1
 90
       50
176
     1
290
     0
176
     1
 90
       50
176
     1
 62
   256
176
     0
 40
1.0
176
     0
 90
        2
176
     1
  1
strokes_ogs.tif
176
     1
290
     0
176
     1
 40
1.0
176
     1
 40
1.0
176
     1
  0
VISUALSTYLE
  5
4D2
102
{ACAD_REACTORS
330
4BE
102
}
330
4BE
100
AcDbVisualStyle
  2
Shaded with edges
 70
    26
177
     3
291
     0
 70
    58
 90
        2
176
     1
 90
        2
176
     1
 90
        1
176
     1
 90
        2
176
     1
 40
0.6
176
     1
 40
30.0
176
     1
 62
     7
420
 16777215
176
     1
 90
        1
176
     1
 90
       10
176
     1
 62
     7
176
     1
 62
   257
176
     1
 90
        2
176
     1
 90
        1
176
     1
 40
1.0
176
     1
 90
        8
176
     1
 62
   257
176
     1
 40
1.0
176
     1
 90
        1
176
     1
 90
        6
176
     1
 90
        2
176
     1
 62
     7
176
     1
 90
        3
176
     1
 90
        0
176
     1
 90
        0
176
     1
290
     0
176
     1
 90
        5
176
     1
 40
0.0
176
     1
 90
        0
176
     1
290
     0
176
     1
290
     1
176
     1
290
     1
176
     1
290
     0
176
     1
290
     0
176
     1
290
     0
176
     1
290
     0
176
     1
290
     0
176
     1
290
     0
176
     1
 90
       50
176
     1
 40
0.0
176
     1
 40
1.0
176
     1
 90
        0
176
     1
 62
    18
420
        0
176
     1
 90
       50
176
     1
 90
        3
176
     1
 62
     5
420
      255
176
     1
290
     0
176
     1
 90
       50
176
     1
 90
       50
176
     1
 90
       50
176
     1
290
     0
176
     1
 90
       50
176
     1
 62
   256
176
     0
 40
1.0
176
     0
 90
        2
176
     1
  1
strokes_ogs.tif
176
     1
290
     0
176
     1
 40
1.0
176
     1
 40
1.0
176
     1
  0
VISUALSTYLE
  5
4CF
102
{ACAD_REACTORS
330
4BE
102
}
330
4BE
100
AcDbVisualStyle
  2
Shades of Gray
 70
    23
177
     3
291
     0
 70
    58
 90
        2
176
     1
 90
        2
176
     1
 90
        3
176
     1
 90
        0
176
     1
 40
0.6
176
     1
 40
30.0
176
     1
 62
     7
420
 16777215
176
     1
 90
        2
176
     1
 90
        2
176
     1
 62
     7
176
     1
 62
     7
176
     1
 90
        1
176
     1
 90
        1
176
     1
 40
40.0
176
     1
 90
        8
176
     1
 62
     7
176
     1
 40
1.0
176
     1
 90
        1
176
     1
 90
        6
176
     1
 90
        2
176
     1
 62
     7
176
     1
 90
        3
176
     1
 90
        0
176
     1
 90
        0
176
     1
290
     0
176
     1
 90
        1
176
     1
 40
0.0
176
     1
 90
        0
176
     1
290
     0
176
     1
290
     1
176
     1
290
     1
176
     1
290
     0
176
     1
290
     0
176
     1
290
     0
176
     1
290
     0
176
     1
290
     0
176
     1
290
     0
176
     1
 90
       50
176
     1
 40
0.0
176
     1
 40
1.0
176
     1
 90
        0
176
     1
 62
    18
420
        0
176
     1
 90
       50
176
     1
 90
        3
176
     1
 62
     5
420
      255
176
     1
290
     0
176
     1
 90
       50
176
     1
 90
       50
176
     1
 90
       50
176
     1
290
     0
176
     1
 90
       50
176
     1
 62
   256
176
     0
 40
1.0
176
     0
 90
        2
176
     1
  1
strokes_ogs.tif
176
     1
290
     0
176
     1
 40
1.0
176
     1
 40
1.0
176
     1
  0
VISUALSTYLE
  5
4D0
102
{ACAD_REACTORS
330
4BE
102
}
330
4BE
100
AcDbVisualStyle
  2
Sketchy
 70
    24
177
     3
291
     0
 70
    58
 90
        1
176
     1
 90
        2
176
     1
 90
        2
176
     1
 90
        0
176
     1
 40
0.6
176
     1
 40
30.0
176
     1
 62
     7
420
 16777215
176
     1
 90
        2
176
     1
 90
        2
176
     1
 62
     7
176
     1
 62
     7
176
     1
 90
        1
176
     1
 90
        1
176
     1
 40
40.0
176
     1
 90
       11
176
     1
 62
     7
176
     1
 40
1.0
176
     1
 90
        1
176
     1
 90
        6
176
     1
 90
        2
176
     1
 62
     7
176
     1
 90
        6
176
     1
 90
        0
176
     1
 90
        0
176
     1
290
     0
176
     1
 90
        1
176
     1
 40
0.0
176
     1
 90
        0
176
     1
290
     0
176
     1
290
     1
176
     1
290
     1
176
     1
290
     0
176
     1
290
     0
176
     1
290
     0
176
     1
290
     0
176
     1
290
     0
176
     1
290
     0
176
     1
 90
       50
176
     1
 40
0.0
176
     1
 40
1.0
176
     1
 90
        0
176
     1
 62
    18
420
        0
176
     1
 90
       50
176
     1
 90
        3
176
     1
 62
     5
420
      255
176
     1
290
     0
176
     1
 90
       50
176
     1
 90
       50
176
     1
 90
       50
176
     1
290
     0
176
     1
 90
       50
176
     1
 62
   256
176
     0
 40
1.0
176
     0
 90
        2
176
     1
  1
strokes_ogs.tif
176
     1
290
     0
176
     1
 40
1.0
176
     1
 40
1.0
176
     1
  0
VISUALSTYLE
  5
4CB
102
{ACAD_REACTORS
330
4BE
102
}
330
4BE
100
AcDbVisualStyle
  2
Thicken
 70
    13
177
     3
291
     1
 70
    58
 90
        2
176
     1
 90
        2
176
     1
 90
        0
176
     1
 90
        0
176
     1
 40
0.6
176
     1
 40
30.0
176
     1
 62
     7
420
 16777215
176
     1
 90
        1
176
     1
 90
        4
176
     1
 62
     7
176
     1
 62
   257
176
     1
 90
        1
176
     1
 90
        1
176
     1
 40
1.0
176
     1
 90
       12
176
     1
 62
     7
176
     1
 40
1.0
176
     1
 90
        1
176
     1
 90
        6
176
     1
 90
        2
176
     1
 62
     7
176
     1
 90
        5
176
     1
 90
        0
176
     1
 90
        0
176
     1
290
     0
176
     1
 90
        1
176
     1
 40
0.0
176
     1
 90
        0
176
     1
290
     0
176
     1
290
     1
176
     1
290
     1
176
     1
290
     0
176
     1
290
     0
176
     1
290
     0
176
     1
290
     0
176
     1
290
     0
176
     1
290
     0
176
     1
 90
       50
176
     1
 40
0.0
176
     1
 40
1.0
176
     1
 90
        0
176
     1
 62
    18
420
        0
176
     1
 90
       50
176
     1
 90
        3
176
     1
 62
     5
420
      255
176
     1
290
     0
176
     1
 90
       50
176
     1
 90
       50
176
     1
 90
       50
176
     1
290
     0
176
     1
 90
       50
176
     1
 62
   256
176
     0
 40
1.0
176
     0
 90
        2
176
     1
  1
strokes_ogs.tif
176
     1
290
     0
176
     1
 40
1.0
176
     1
 40
1.0
176
     1
  0
VISUALSTYLE
  5
4C5
102
{ACAD_REACTORS
330
4BE
102
}
330
4BE
100
AcDbVisualStyle
  2
Wireframe
 70
     5
177
     3
291
     0
 70
    58
 90
        0
176
     1
 90
        2
176
     1
 90
        0
176
     1
 90
        0
176
     1
 40
0.6
176
     1
 40
30.0
176
     1
 62
     7
420
 16777215
176
     1
 90
        1
176
     1
 90
        4
176
     1
 62
     7
176
     1
 62
   257
176
     1
 90
        1
176
     1
 90
        1
176
     1
 40
1.0
176
     1
 90
        0
176
     1
 62
   257
176
     1
 40
1.0
176
     1
 90
        1
176
     1
 90
        6
176
     1
 90
        2
176
     1
 62
     7
176
     1
 90
        3
176
     1
 90
        0
176
     1
 90
        0
176
     1
290
     0
176
     1
 90
        1
176
     1
 40
0.0
176
     1
 90
        0
176
     1
290
     0
176
     1
290
     1
176
     1
290
     1
176
     1
290
     0
176
     1
290
     0
176
     1
290
     0
176
     1
290
     0
176
     1
290
     0
176
     1
290
     0
176
     1
 90
       50
176
     1
 40
0.0
176
     1
 40
1.0
176
     1
 90
        0
176
     1
 62
    18
420
        0
176
     1
 90
       50
176
     1
 90
        3
176
     1
 62
     5
420
      255
176
     1
290
     0
176
     1
 90
       50
176
     1
 90
       50
176
     1
 90
       50
176
     1
290
     0
176
     1
 90
       50
176
     1
 62
   256
176
     0
 40
1.0
176
     0
 90
        2
176
     1
  1
strokes_ogs.tif
176
     1
290
     0
176
     1
 40
1.0
176
     1
 40
1.0
176
     1
  0
VISUALSTYLE
  5
4D1
102
{ACAD_REACTORS
330
4BE
102
}
330
4BE
100
AcDbVisualStyle
  2
X-Ray
 70
    25
177
     3
291
     0
 70
    58
 90
        2
176
     1
 90
        2
176
     1
 90
        1
176
     1
 90
        1
176
     1
 40
0.5
176
     1
 40
30.0
176
     1
 62
     7
420
 16777215
176
     1
 90
        1
176
     1
 90
        0
176
     1
 62
     7
176
     1
 62
   257
176
     1
 90
        1
176
     1
 90
        1
176
     1
 40
1.0
176
     1
 90
        8
176
     1
 62
     7
176
     1
 40
1.0
176
     1
 90
        1
176
     1
 90
        6
176
     1
 90
        2
176
     1
 62
     7
176
     1
 90
        3
176
     1
 90
        0
176
     1
 90
        0
176
     1
290
     0
176
     1
 90
       13
176
     1
 40
0.0
176
     1
 90
        0
176
     1
290
     0
176
     1
290
     1
176
     1
290
     1
176
     1
290
     0
176
     1
290
     0
176
     1
290
     0
176
     1
290
     0
176
     1
290
     0
176
     1
290
     0
176
     1
 90
       50
176
     1
 40
0.0
176
     1
 40
1.0
176
     1
 90
        0
176
     1
 62
    18
420
        0
176
     1
 90
       50
176
     1
 90
        3
176
     1
 62
     5
420
      255
176
     1
290
     0
176
     1
 90
       50
176
     1
 90
       50
176
     1
 90
       50
176
     1
290
     0
176
     1
 90
       50
176
     1
 62
   256
176
     0
 40
1.0
176
     0
 90
        2
176
     1
  1
strokes_ogs.tif
176
     1
290
     0
176
     1
 40
1.0
176
     1
 40
1.0
176
     1
  0
DICTIONARYVAR
  5
537
102
{ACAD_REACTORS
330
531
102
}
330
531
100
DictionaryVariables
280
     0
  1
1:1
  0
DICTIONARYVAR
  5
533
102
{ACAD_REACTORS
330
531
102
}
330
531
100
DictionaryVariables
280
     0
  1
STANDARD
  0
DICTIONARYVAR
  5
532
102
{ACAD_REACTORS
330
531
102
}
330
531
100
DictionaryVariables
280
     0
  1
STANDARD
  0
DICTIONARYVAR
  5
534
102
{ACAD_REACTORS
330
531
102
}
330
531
100
DictionaryVariables
280
     0
  1
Imperial24
  0
DICTIONARYVAR
  5
535
102
{ACAD_REACTORS
330
531
102
}
330
531
100
DictionaryVariables
280
     0
  1
Imperial24
  0
DICTIONARYVAR
  5
539
102
{ACAD_REACTORS
330
531
102
}
330
531
100
DictionaryVariables
280
     0
  1
1
  0
DICTIONARYVAR
  5
53A
102
{ACAD_REACTORS
330
531
102
}
330
531
100
DictionaryVariables
280
     0
  1
15
  0
DICTIONARYVAR
  5
538
102
{ACAD_REACTORS
330
531
102
}
330
531
100
DictionaryVariables
280
     0
  1
0
  0
DICTIONARYVAR
  5
536
102
{ACAD_REACTORS
330
531
102
}
330
531
100
DictionaryVariables
280
     0
  1
0
  0
DICTIONARY
  5
540
330
4F1
100
AcDbDictionary
280
     1
281
     1
  3
ACAD_XREC_ROUNDTRIP
360
541
  0
DICTIONARY
  5
4AF
330
4AE
100
AcDbDictionary
280
     1
281
     1
  3
BUMPTILE
360
4B1
  3
DIFFUSETILE
360
4B0
  3
OPACITYTILE
360
4B4
  3
REFLECTIONTILE
360
4B3
  3
REFRACTIONTILE
360
4B5
  3
SPECULARTILE
360
4B2
  0
DICTIONARY
  5
4A7
330
4A6
100
AcDbDictionary
280
     1
281
     1
  3
BUMPTILE
360
4A9
  3
DIFFUSETILE
360
4A8
  3
OPACITYTILE
360
4AC
  3
REFLECTIONTILE
360
4AB
  3
REFRACTIONTILE
360
4AD
  3
SPECULARTILE
360
4AA
  0
DICTIONARY
  5
4B7
330
4B6
100
AcDbDictionary
280
     1
281
     1
  3
BUMPTILE
360
4B9
  3
DIFFUSETILE
360
4B8
  3
OPACITYTILE
360
4BC
  3
REFLECTIONTILE
360
4BB
  3
REFRACTIONTILE
360
4BD
  3
SPECULARTILE
360
4BA
  0
DICTIONARY
  5
53E
330
4EF
100
AcDbDictionary
280
     1
281
     1
  3
ACAD_XREC_ROUNDTRIP
360
53F
  0
DICTIONARY
  5
53C
330
4D9
100
AcDbDictionary
280
     1
281
     1
  3
ACAD_ROUNDTRIP_2008_TABLESTYLE_CELLSTYLEMAP
360
53D
  0
XRECORD
  5
541
102
{ACAD_REACTORS
330
540
102
}
330
540
100
AcDbXrecord
280
     1
102
DISPLAYNAME
  1
Imperial24
102
FLAGS
 90
        0
  0
XRECORD
  5
4B1
102
{ACAD_REACTORS
330
4AF
102
}
330
4AF
100
AcDbXrecord
280
     1
270
     1
271
     1
  0
XRECORD
  5
4B0
102
{ACAD_REACTORS
330
4AF
102
}
330
4AF
100
AcDbXrecord
280
     1
270
     1
271
     1
  0
XRECORD
  5
4B4
102
{ACAD_REACTORS
330
4AF
102
}
330
4AF
100
AcDbXrecord
280
     1
270
     1
271
     1
  0
XRECORD
  5
4B3
102
{ACAD_REACTORS
330
4AF
102
}
330
4AF
100
AcDbXrecord
280
     1
270
     1
271
     1
  0
XRECORD
  5
4B5
102
{ACAD_REACTORS
330
4AF
102
}
330
4AF
100
AcDbXrecord
280
     1
270
     1
271
     1
  0
XRECORD
  5
4B2
102
{ACAD_REACTORS
330
4AF
102
}
330
4AF
100
AcDbXrecord
280
     1
270
     1
271
     1
  0
XRECORD
  5
4A9
102
{ACAD_REACTORS
330
4A7
102
}
330
4A7
100
AcDbXrecord
280
     1
270
     1
271
     1
  0
XRECORD
  5
4A8
102
{ACAD_REACTORS
330
4A7
102
}
330
4A7
100
AcDbXrecord
280
     1
270
     1
271
     1
  0
XRECORD
  5
4AC
102
{ACAD_REACTORS
330
4A7
102
}
330
4A7
100
AcDbXrecord
280
     1
270
     1
271
     1
  0
XRECORD
  5
4AB
102
{ACAD_REACTORS
330
4A7
102
}
330
4A7
100
AcDbXrecord
280
     1
270
     1
271
     1
  0
XRECORD
  5
4AD
102
{ACAD_REACTORS
330
4A7
102
}
330
4A7
100
AcDbXrecord
280
     1
270
     1
271
     1
  0
XRECORD
  5
4AA
102
{ACAD_REACTORS
330
4A7
102
}
330
4A7
100
AcDbXrecord
280
     1
270
     1
271
     1
  0
XRECORD
  5
4B9
102
{ACAD_REACTORS
330
4B7
102
}
330
4B7
100
AcDbXrecord
280
     1
270
     1
271
     1
  0
XRECORD
  5
4B8
102
{ACAD_REACTORS
330
4B7
102
}
330
4B7
100
AcDbXrecord
280
     1
270
     1
271
     1
  0
XRECORD
  5
4BC
102
{ACAD_REACTORS
330
4B7
102
}
330
4B7
100
AcDbXrecord
280
     1
270
     1
271
     1
  0
XRECORD
  5
4BB
102
{ACAD_REACTORS
330
4B7
102
}
330
4B7
100
AcDbXrecord
280
     1
270
     1
271
     1
  0
XRECORD
  5
4BD
102
{ACAD_REACTORS
330
4B7
102
}
330
4B7
100
AcDbXrecord
280
     1
270
     1
271
     1
  0
XRECORD
  5
4BA
102
{ACAD_REACTORS
330
4B7
102
}
330
4B7
100
AcDbXrecord
280
     1
270
     1
271
     1
  0
XRECORD
  5
53F
102
{ACAD_REACTORS
330
53E
102
}
330
53E
100
AcDbXrecord
280
     1
102
DISPLAYNAME
  1
Imperial24
102
FLAGS
 90
        0
  0
CELLSTYLEMAP
  5
53D
102
{ACAD_REACTORS
330
53C
102
}
330
53C
100
AcDbCellStyleMap
 90
        3
300
CELLSTYLE
  1
TABLEFORMAT_BEGIN
 90
        5
170
     1
 91
        0
 92
    32768
 62
   257
 93
        1
300
CONTENTFORMAT
  1
CONTENTFORMAT_BEGIN
 90
        0
 91
        0
 92
      512
 93
        0
300

 40
0.0
140
1.0
 94
        5
 62
     0
340
F
144
0.25
309
CONTENTFORMAT_END
171
     0
 94
        0
309
TABLEFORMAT_END
  1
CELLSTYLE_BEGIN
 90
        1
 91
        1
300
_TITLE
309
CELLSTYLE_END
300
CELLSTYLE
  1
TABLEFORMAT_BEGIN
 90
        5
170
     1
 91
        0
 92
        0
 62
   257
 93
        1
300
CONTENTFORMAT
  1
CONTENTFORMAT_BEGIN
 90
        0
 91
        0
 92
      512
 93
        0
300

 40
0.0
140
1.0
 94
        5
 62
     0
340
F
144
0.18
309
CONTENTFORMAT_END
171
     0
 94
        0
309
TABLEFORMAT_END
  1
CELLSTYLE_BEGIN
 90
        2
 91
        1
300
_HEADER
309
CELLSTYLE_END
300
CELLSTYLE
  1
TABLEFORMAT_BEGIN
 90
        5
170
     1
 91
        0
 92
        0
 62
   257
 93
        1
300
CONTENTFORMAT
  1
CONTENTFORMAT_BEGIN
 90
        0
 91
        0
 92
      512
 93
        0
300

 40
0.0
140
1.0
 94
        2
 62
     0
340
F
144
0.18
309
CONTENTFORMAT_END
171
     0
 94
        0
309
TABLEFORMAT_END
  1
CELLSTYLE_BEGIN
 90
        3
 91
        2
300
_DATA
309
CELLSTYLE_END
  0
ENDSEC
  0
EOF
