  0
SECTION
  2
HEADER
  9
$ACADVER
  1
AC1027
  9
$ACADMAINTVER
 70
    55
  9
$DWGCODEPAGE
  3
ANSI_1252
  9
$LASTSAVEDBY
  1
ggruner
  9
$REQUIREDVERSIONS
160
                 0
  9
$INSBASE
 10
0.0
 20
0.0
 30
0.0
  9
$EXTMIN
 10
0.5205346135880049
 20
-1.635789543871791
 30
-0.0015258207003583
  9
$EXTMAX
 10
18.11725692011157
 20
8.777995078825458
 30
0.0000000349246037
  9
$LIMMIN
 10
0.0
 20
0.0
  9
$LIMMAX
 10
12.0
 20
9.0
  9
$ORTHOMODE
 70
     1
  9
$REGENMODE
 70
     1
  9
$FILLMODE
 70
     1
  9
$QTEXTMODE
 70
     0
  9
$MIRRTEXT
 70
     1
  9
$LTSCALE
 40
1.0
  9
$ATTMODE
 70
     1
  9
$TEXTSIZE
 40
0.15
  9
$TRACEWID
 40
0.05
  9
$TEXTSTYLE
  7
STANDARD
  9
$CLAYER
  8
HIDDEN_LINE
  9
$CELTYPE
  6
BYLAYER
  9
$CECOLOR
 62
   256
  9
$CELTSCALE
 40
1.0
  9
$DISPSILH
 70
     0
  9
$DIMSCALE
 40
1.0
  9
$DIMASZ
 40
0.15
  9
$DIMEXO
 40
0.0625
  9
$DIMDLI
 40
0.38
  9
$DIMRND
 40
0.0
  9
$DIMDLE
 40
0.0
  9
$DIMEXE
 40
0.18
  9
$DIMTP
 40
0.0
  9
$DIMTM
 40
0.0
  9
$DIMTXT
 40
0.12
  9
$DIMCEN
 40
0.09
  9
$DIMTSZ
 40
0.0
  9
$DIMTOL
 70
     0
  9
$DIMLIM
 70
     0
  9
$DIMTIH
 70
     1
  9
$DIMTOH
 70
     1
  9
$DIMSE1
 70
     0
  9
$DIMSE2
 70
     0
  9
$DIMTAD
 70
     0
  9
$DIMZIN
 70
     4
  9
$DIMBLK
  1

  9
$DIMASO
 70
     1
  9
$DIMSHO
 70
     1
  9
$DIMPOST
  1

  9
$DIMAPOST
  1

  9
$DIMALT
 70
     0
  9
$DIMALTD
 70
     2
  9
$DIMALTF
 40
25.4
  9
$DIMLFAC
 40
1.0
  9
$DIMTOFL
 70
     0
  9
$DIMTVP
 40
0.0
  9
$DIMTIX
 70
     0
  9
$DIMSOXD
 70
     0
  9
$DIMSAH
 70
     0
  9
$DIMBLK1
  1

  9
$DIMBLK2
  1

  9
$DIMSTYLE
  2
STANDARD
  9
$DIMCLRD
 70
     0
  9
$DIMCLRE
 70
     0
  9
$DIMCLRT
 70
     0
  9
$DIMTFAC
 40
1.0
  9
$DIMGAP
 40
0.09
  9
$DIMJUST
 70
     0
  9
$DIMSD1
 70
     0
  9
$DIMSD2
 70
     0
  9
$DIMTOLJ
 70
     1
  9
$DIMTZIN
 70
     0
  9
$DIMALTZ
 70
     0
  9
$DIMALTTZ
 70
     0
  9
$DIMUPT
 70
     0
  9
$DIMDEC
 70
     3
  9
$DIMTDEC
 70
     4
  9
$DIMALTU
 70
     2
  9
$DIMALTTD
 70
     2
  9
$DIMTXSTY
  7
STANDARD
  9
$DIMAUNIT
 70
     0
  9
$DIMADEC
 70
     0
  9
$DIMALTRND
 40
0.0
  9
$DIMAZIN
 70
     0
  9
$DIMDSEP
 70
    46
  9
$DIMATFIT
 70
     3
  9
$DIMFRAC
 70
     0
  9
$DIMLDRBLK
  1

  9
$DIMLUNIT
 70
     2
  9
$DIMLWD
 70
    -2
  9
$DIMLWE
 70
    -2
  9
$DIMTMOVE
 70
     0
  9
$DIMFXL
 40
1.0
  9
$DIMFXLON
 70
     0
  9
$DIMJOGANG
 40
0.7853981633974483
  9
$DIMTFILL
 70
     0
  9
$DIMTFILLCLR
 70
     0
  9
$DIMARCSYM
 70
     0
  9
$DIMLTYPE
  6

  9
$DIMLTEX1
  6

  9
$DIMLTEX2
  6

  9
$DIMTXTDIRECTION
 70
     0
  9
$LUNITS
 70
     2
  9
$LUPREC
 70
     4
  9
$SKETCHINC
 40
0.1
  9
$FILLETRAD
 40
0.125
  9
$AUNITS
 70
     0
  9
$AUPREC
 70
     0
  9
$MENU
  1
acad
  9
$ELEVATION
 40
0.0
  9
$PELEVATION
 40
0.0
  9
$THICKNESS
 40
0.0
  9
$LIMCHECK
 70
     0
  9
$CHAMFERA
 40
0.03
  9
$CHAMFERB
 40
0.03
  9
$CHAMFERC
 40
1.0
  9
$CHAMFERD
 40
0.0
  9
$SKPOLY
 70
     0
  9
$TDCREATE
 40
2451957.470285532
  9
$TDUCREATE
 40
2451957.678618866
  9
$TDUPDATE
 40
2459222.460467384
  9
$TDUUPDATE
 40
2459222.668800718
  9
$TDINDWG
 40
0.1458809144
  9
$TDUSRTIMER
 40
0.1458808796
  9
$USRTIMER
 70
     1
  9
$ANGBASE
 50
0.0
  9
$ANGDIR
 70
     0
  9
$PDMODE
 70
     0
  9
$PDSIZE
 40
0.0
  9
$PLINEWID
 40
0.0
  9
$SPLFRAME
 70
     0
  9
$SPLINETYPE
 70
     6
  9
$SPLINESEGS
 70
     8
  9
$HANDSEED
  5
4AE
  9
$SURFTAB1
 70
     6
  9
$SURFTAB2
 70
     6
  9
$SURFTYPE
 70
     6
  9
$SURFU
 70
     6
  9
$SURFV
 70
     6
  9
$UCSBASE
  2

  9
$UCSNAME
  2

  9
$UCSORG
 10
0.0
 20
0.0
 30
0.0
  9
$UCSXDIR
 10
1.0
 20
0.0
 30
0.0
  9
$UCSYDIR
 10
0.0
 20
1.0
 30
0.0
  9
$UCSORTHOREF
  2

  9
$UCSORTHOVIEW
 70
     0
  9
$UCSORGTOP
 10
0.0
 20
0.0
 30
0.0
  9
$UCSORGBOTTOM
 10
0.0
 20
0.0
 30
0.0
  9
$UCSORGLEFT
 10
0.0
 20
0.0
 30
0.0
  9
$UCSORGRIGHT
 10
0.0
 20
0.0
 30
0.0
  9
$UCSORGFRONT
 10
0.0
 20
0.0
 30
0.0
  9
$UCSORGBACK
 10
0.0
 20
0.0
 30
0.0
  9
$PUCSBASE
  2

  9
$PUCSNAME
  2

  9
$PUCSORG
 10
0.0
 20
0.0
 30
0.0
  9
$PUCSXDIR
 10
1.0
 20
0.0
 30
0.0
  9
$PUCSYDIR
 10
0.0
 20
1.0
 30
0.0
  9
$PUCSORTHOREF
  2

  9
$PUCSORTHOVIEW
 70
     0
  9
$PUCSORGTOP
 10
0.0
 20
0.0
 30
0.0
  9
$PUCSORGBOTTOM
 10
0.0
 20
0.0
 30
0.0
  9
$PUCSORGLEFT
 10
0.0
 20
0.0
 30
0.0
  9
$PUCSORGRIGHT
 10
0.0
 20
0.0
 30
0.0
  9
$PUCSORGFRONT
 10
0.0
 20
0.0
 30
0.0
  9
$PUCSORGBACK
 10
0.0
 20
0.0
 30
0.0
  9
$USERI1
 70
     0
  9
$USERI2
 70
     0
  9
$USERI3
 70
     0
  9
$USERI4
 70
     0
  9
$USERI5
 70
     0
  9
$USERR1
 40
0.0
  9
$USERR2
 40
0.0
  9
$USERR3
 40
0.0
  9
$USERR4
 40
0.0
  9
$USERR5
 40
0.0
  9
$WORLDVIEW
 70
     1
  9
$SHADEDGE
 70
     3
  9
$SHADEDIF
 70
    70
  9
$TILEMODE
 70
     1
  9
$MAXACTVP
 70
    48
  9
$PINSBASE
 10
0.0
 20
0.0
 30
0.0
  9
$PLIMCHECK
 70
     0
  9
$PEXTMIN
 10
1.000000000000000E+20
 20
1.000000000000000E+20
 30
1.000000000000000E+20
  9
$PEXTMAX
 10
-1.000000000000000E+20
 20
-1.000000000000000E+20
 30
-1.000000000000000E+20
  9
$PLIMMIN
 10
0.0
 20
0.0
  9
$PLIMMAX
 10
12.0
 20
9.0
  9
$UNITMODE
 70
     0
  9
$VISRETAIN
 70
     1
  9
$PLINEGEN
 70
     0
  9
$PSLTSCALE
 70
     1
  9
$TREEDEPTH
 70
  3020
  9
$CMLSTYLE
  2
STANDARD
  9
$CMLJUST
 70
     0
  9
$CMLSCALE
 40
1.0
  9
$PROXYGRAPHICS
 70
     1
  9
$MEASUREMENT
 70
     0
  9
$CELWEIGHT
370
    -1
  9
$ENDCAPS
280
     0
  9
$JOINSTYLE
280
     0
  9
$LWDISPLAY
290
     0
  9
$INSUNITS
 70
     0
  9
$HYPERLINKBASE
  1

  9
$STYLESHEET
  1

  9
$XEDIT
290
     1
  9
$CEPSNTYPE
380
     0
  9
$PSTYLEMODE
290
     1
  9
$FINGERPRINTGUID
  2
{64A8AFF1-8F2D-4E6B-9A4B-76EC184E1B90}
  9
$VERSIONGUID
  2
{096826CC-27BD-4E61-9077-675962605242}
  9
$EXTNAMES
290
     1
  9
$PSVPSCALE
 40
0.0
  9
$OLESTARTUP
290
     0
  9
$SORTENTS
280
   127
  9
$INDEXCTL
280
     0
  9
$HIDETEXT
280
     0
  9
$XCLIPFRAME
280
     2
  9
$HALOGAP
280
     0
  9
$OBSCOLOR
 70
   257
  9
$OBSLTYPE
280
     0
  9
$INTERSECTIONDISPLAY
280
     0
  9
$INTERSECTIONCOLOR
 70
   257
  9
$DIMASSOC
280
     1
  9
$PROJECTNAME
  1

  9
$CAMERADISPLAY
290
     0
  9
$LENSLENGTH
 40
50.0
  9
$CAMERAHEIGHT
 40
0.0
  9
$STEPSPERSEC
 40
2.0
  9
$STEPSIZE
 40
6.0
  9
$3DDWFPREC
 40
2.0
  9
$PSOLWIDTH
 40
0.25
  9
$PSOLHEIGHT
 40
4.0
  9
$LOFTANG1
 40
1.570796326794896
  9
$LOFTANG2
 40
1.570796326794896
  9
$LOFTMAG1
 40
0.0
  9
$LOFTMAG2
 40
0.0
  9
$LOFTPARAM
 70
     7
  9
$LOFTNORMALS
280
     1
  9
$LATITUDE
 40
37.795
  9
$LONGITUDE
 40
-122.394
  9
$NORTHDIRECTION
 40
0.0
  9
$TIMEZONE
 70
 -8000
  9
$LIGHTGLYPHDISPLAY
280
     1
  9
$TILEMODELIGHTSYNCH
280
     1
  9
$CMATERIAL
347
414
  9
$SOLIDHIST
280
     0
  9
$SHOWHIST
280
     1
  9
$DWFFRAME
280
     2
  9
$DGNFRAME
280
     0
  9
$REALWORLDSCALE
290
     1
  9
$INTERFERECOLOR
 62
     1
  9
$INTERFEREOBJVS
345
436
  9
$INTERFEREVPVS
346
433
  9
$CSHADOW
280
     0
  9
$SHADOWPLANELOCATION
 40
0.0
  0
ENDSEC
  0
SECTION
  2
CLASSES
  0
CLASS
  1
ACDBDICTIONARYWDFLT
  2
AcDbDictionaryWithDefault
  3
ObjectDBX Classes
 90
        0
 91
        1
280
     0
281
     0
  0
CLASS
  1
MATERIAL
  2
AcDbMaterial
  3
ObjectDBX Classes
 90
     1153
 91
        3
280
     0
281
     0
  0
CLASS
  1
VISUALSTYLE
  2
AcDbVisualStyle
  3
ObjectDBX Classes
 90
     4095
 91
       24
280
     0
281
     0
  0
CLASS
  1
TABLESTYLE
  2
AcDbTableStyle
  3
ObjectDBX Classes
 90
     4095
 91
        1
280
     0
281
     0
  0
CLASS
  1
SCALE
  2
AcDbScale
  3
ObjectDBX Classes
 90
     1153
 91
       17
280
     0
281
     0
  0
CLASS
  1
MLEADERSTYLE
  2
AcDbMLeaderStyle
  3
ACDB_MLEADERSTYLE_CLASS
 90
     4095
 91
        1
280
     0
281
     0
  0
CLASS
  1
ACDBSECTIONVIEWSTYLE
  2
AcDbSectionViewStyle
  3
ObjectDBX Classes
 90
     1025
 91
        1
280
     0
281
     0
  0
CLASS
  1
ACDBDETAILVIEWSTYLE
  2
AcDbDetailViewStyle
  3
ObjectDBX Classes
 90
     1025
 91
        1
280
     0
281
     0
  0
CLASS
  1
DICTIONARYVAR
  2
AcDbDictionaryVar
  3
ObjectDBX Classes
 90
        0
 91
        9
280
     0
281
     0
  0
CLASS
  1
CELLSTYLEMAP
  2
AcDbCellStyleMap
  3
ObjectDBX Classes
 90
     1152
 91
        1
280
     0
281
     0
  0
ENDSEC
  0
SECTION
  2
TABLES
  0
TABLE
  2
VPORT
  5
8
330
0
100
AcDbSymbolTable
 70
     1
  0
VPORT
  5
409
330
8
100
AcDbSymbolTableRecord
100
AcDbViewportTableRecord
  2
*ACTIVE
 70
     0
 10
0.0
 20
0.0
 11
1.0
 21
1.0
 12
7.011472195547241
 22
5.749602963563376
 13
0.0
 23
0.0
 14
0.5
 24
0.5
 15
0.5
 25
0.5
 16
0.0
 26
0.0
 36
1.0
 17
0.0
 27
0.0
 37
0.0
 40
10.53737087362935
 41
2.53012048192771
 42
50.0
 43
0.0
 44
0.0
 50
0.0
 51
0.0
 71
     0
 72
   100
 73
     1
 74
     1
 75
     0
 76
     0
 77
     0
 78
     0
281
     0
 65
     1
110
0.0
120
0.0
130
0.0
111
1.0
121
0.0
131
0.0
112
0.0
122
1.0
132
0.0
 79
     0
146
0.0
348
432
 60
     3
 61
     5
292
     1
282
     1
141
0.0
142
0.0
 63
   250
421
  3355443
1001
ACAD_NAV_VCDISPLAY
1070
     3
  0
ENDTAB
  0
TABLE
  2
LTYPE
  5
5
330
0
100
AcDbSymbolTable
 70
     4
  0
LTYPE
  5
12
330
5
100
AcDbSymbolTableRecord
100
AcDbLinetypeTableRecord
  2
BYBLOCK
 70
     0
  3

 72
    65
 73
     0
 40
0.0
  0
LTYPE
  5
13
330
5
100
AcDbSymbolTableRecord
100
AcDbLinetypeTableRecord
  2
BYLAYER
 70
     0
  3

 72
    65
 73
     0
 40
0.0
  0
LTYPE
  5
14
330
5
100
AcDbSymbolTableRecord
100
AcDbLinetypeTableRecord
  2
CONTINUOUS
 70
     0
  3
Solid line
 72
    65
 73
     0
 40
0.0
  0
LTYPE
  5
20
330
5
100
AcDbSymbolTableRecord
100
AcDbLinetypeTableRecord
  2
CENTER
 70
     0
  3
Center ____ _ ____ _ ____ _ ____ _ ____ _ ____
 72
    65
 73
     4
 40
2.0
 49
1.25
 74
     0
 49
-0.25
 74
     0
 49
0.25
 74
     0
 49
-0.25
 74
     0
  0
LTYPE
  5
15A
330
5
100
AcDbSymbolTableRecord
100
AcDbLinetypeTableRecord
  2
HIDDEN2
 70
     0
  3
Hidden (.5x) _ _ _ _ _ _ _ _ _ _ _ _ _ _ _ _ _
 72
    65
 73
     2
 40
0.1875
 49
0.125
 74
     0
 49
-0.0625
 74
     0
  0
ENDTAB
  0
TABLE
  2
LAYER
  5
2
330
0
100
AcDbSymbolTable
 70
     6
  0
LAYER
  5
E
102
{ACAD_XDICTIONARY
360
492
102
}
330
2
100
AcDbSymbolTableRecord
100
AcDbLayerTableRecord
  2
0
 70
     0
 62
     7
  6
CONTINUOUS
370
    -3
390
412
347
424
348
0
  0
LAYER
  5
21
102
{ACAD_XDICTIONARY
360
494
102
}
330
2
100
AcDbSymbolTableRecord
100
AcDbLayerTableRecord
  2
TB
 70
     4
 62
     7
  6
CONTINUOUS
370
    -3
390
412
347
424
348
0
  0
LAYER
  5
22
102
{ACAD_XDICTIONARY
360
496
102
}
330
2
100
AcDbSymbolTableRecord
100
AcDbLayerTableRecord
  2
CTR_LINES
 70
     0
 62
     1
  6
CENTER
370
    -3
390
412
347
424
348
0
  0
LAYER
  5
15B
102
{ACAD_XDICTIONARY
360
498
102
}
330
2
100
AcDbSymbolTableRecord
100
AcDbLayerTableRecord
  2
HIDDEN_LINE
 70
     0
 62
     4
  6
HIDDEN2
370
    -3
390
412
347
424
348
0
  0
LAYER
  5
15E
102
{ACAD_XDICTIONARY
360
49A
102
}
330
2
100
AcDbSymbolTableRecord
100
AcDbLayerTableRecord
  2
DIMS_TEXT
 70
     0
 62
     3
  6
CONTINUOUS
370
    -3
390
412
347
424
348
0
  0
LAYER
  5
169
330
2
100
AcDbSymbolTableRecord
100
AcDbLayerTableRecord
  2
DEFPOINTS
 70
     0
 62
     7
  6
CONTINUOUS
290
     0
370
    -3
390
412
347
424
348
0
  0
ENDTAB
  0
TABLE
  2
STYLE
  5
3
330
0
100
AcDbSymbolTable
 70
     2
  0
STYLE
  5
F
330
3
100
AcDbSymbolTableRecord
100
AcDbTextStyleTableRecord
  2
STANDARD
 70
     0
 40
0.0
 41
1.0
 50
0.0
 71
     0
 42
0.15
  3
romans.shx
  4

  0
STYLE
  5
159
330
3
100
AcDbSymbolTableRecord
100
AcDbTextStyleTableRecord
  2

 70
     1
 40
0.0
 41
1.0
 50
0.0
 71
     0
 42
0.2
  3
ltypeshp.shx
  4

  0
ENDTAB
  0
TABLE
  2
VIEW
  5
6
330
0
100
AcDbSymbolTable
 70
     0
  0
ENDTAB
  0
TABLE
  2
UCS
  5
7
330
0
100
AcDbSymbolTable
 70
     0
  0
ENDTAB
  0
TABLE
  2
APPID
  5
9
330
0
100
AcDbSymbolTable
 70
     4
  0
APPID
  5
10
330
9
100
AcDbSymbolTableRecord
100
AcDbRegAppTableRecord
  2
ACAD
 70
     0
  0
APPID
  5
467
330
9
100
AcDbSymbolTableRecord
100
AcDbRegAppTableRecord
  2
AcadAnnoMonitorAlertIconDisabled
 70
     0
  0
APPID
  5
468
330
9
100
AcDbSymbolTableRecord
100
AcDbRegAppTableRecord
  2
ACAD_EXEMPT_FROM_CAD_STANDARDS
 70
     0
  0
APPID
  5
4A6
330
9
100
AcDbSymbolTableRecord
100
AcDbRegAppTableRecord
  2
ACAD_NAV_VCDISPLAY
 70
     0
  0
ENDTAB
  0
TABLE
  2
DIMSTYLE
  5
A
330
0
100
AcDbSymbolTable
 70
     1
100
AcDbDimStyleTable
 71
     0
  0
DIMSTYLE
105
1D
102
{ACAD_REACTORS
330
17E
330
196
330
1AF
330
205
330
21F
330
239
330
26E
330
288
330
2A2
330
2C6
330
2DE
330
2F8
330
31E
330
344
330
352
330
360
102
}
330
A
100
AcDbSymbolTableRecord
100
AcDbDimStyleTableRecord
  2
STANDARD
 70
     0
340
F
  0
ENDTAB
  0
TABLE
  2
BLOCK_RECORD
  5
1
330
0
100
AcDbSymbolTable
 70
    18
  0
BLOCK_RECORD
  5
18
330
1
100
AcDbSymbolTableRecord
100
AcDbBlockTableRecord
  2
*MODEL_SPACE
340
462
 70
     0
280
     1
281
     0
  0
BLOCK_RECORD
  5
15
330
1
100
AcDbSymbolTableRecord
100
AcDbBlockTableRecord
  2
*PAPER_SPACE
340
463
 70
     0
280
     1
281
     0
  0
BLOCK_RECORD
  5
23
330
1
100
AcDbSymbolTableRecord
100
AcDbBlockTableRecord
  2
625RAHSG
340
0
 70
     0
280
     1
281
     0
  0
BLOCK_RECORD
  5
173
330
1
100
AcDbSymbolTableRecord
100
AcDbBlockTableRecord
  2
*D1
340
0
 70
     0
280
     1
281
     0
  0
BLOCK_RECORD
  5
189
330
1
100
AcDbSymbolTableRecord
100
AcDbBlockTableRecord
  2
*D2
340
0
 70
     0
280
     1
281
     0
  0
BLOCK_RECORD
  5
1A3
330
1
100
AcDbSymbolTableRecord
100
AcDbBlockTableRecord
  2
*D3
340
0
 70
     0
280
     1
281
     0
  0
BLOCK_RECORD
  5
1F8
330
1
100
AcDbSymbolTableRecord
100
AcDbBlockTableRecord
  2
*D4
340
0
 70
     0
280
     1
281
     0
  0
BLOCK_RECORD
  5
212
330
1
100
AcDbSymbolTableRecord
100
AcDbBlockTableRecord
  2
*D5
340
0
 70
     0
280
     1
281
     0
  0
BLOCK_RECORD
  5
22C
330
1
100
AcDbSymbolTableRecord
100
AcDbBlockTableRecord
  2
*D6
340
0
 70
     0
280
     1
281
     0
  0
BLOCK_RECORD
  5
261
330
1
100
AcDbSymbolTableRecord
100
AcDbBlockTableRecord
  2
*D7
340
0
 70
     0
280
     1
281
     0
  0
BLOCK_RECORD
  5
27B
330
1
100
AcDbSymbolTableRecord
100
AcDbBlockTableRecord
  2
*D8
340
0
 70
     0
280
     1
281
     0
  0
BLOCK_RECORD
  5
295
330
1
100
AcDbSymbolTableRecord
100
AcDbBlockTableRecord
  2
*D9
340
0
 70
     0
280
     1
281
     0
  0
BLOCK_RECORD
  5
2BB
330
1
100
AcDbSymbolTableRecord
100
AcDbBlockTableRecord
  2
*D10
340
0
 70
     0
280
     1
281
     0
  0
BLOCK_RECORD
  5
2D1
330
1
100
AcDbSymbolTableRecord
100
AcDbBlockTableRecord
  2
*D11
340
0
 70
     0
280
     1
281
     0
  0
BLOCK_RECORD
  5
2EB
330
1
100
AcDbSymbolTableRecord
100
AcDbBlockTableRecord
  2
*D12
340
0
 70
     0
280
     1
281
     0
  0
BLOCK_RECORD
  5
311
330
1
100
AcDbSymbolTableRecord
100
AcDbBlockTableRecord
  2
*D13
340
0
 70
     0
280
     1
281
     0
  0
BLOCK_RECORD
  5
337
330
1
100
AcDbSymbolTableRecord
100
AcDbBlockTableRecord
  2
*D14
340
0
 70
     0
280
     1
281
     0
  0
BLOCK_RECORD
  5
345
330
1
100
AcDbSymbolTableRecord
100
AcDbBlockTableRecord
  2
*D15
340
0
 70
     0
280
     1
281
     0
  0
BLOCK_RECORD
  5
353
330
1
100
AcDbSymbolTableRecord
100
AcDbBlockTableRecord
  2
*D16
340
0
 70
     0
280
     1
281
     0
  0
BLOCK_RECORD
  5
3E9
330
1
100
AcDbSymbolTableRecord
100
AcDbBlockTableRecord
  2
TITLE_BLOCK
340
0
 70
     0
280
     1
281
     0
  0
ENDTAB
  0
ENDSEC
  0
SECTION
  2
BLOCKS
  0
BLOCK
  5
19
330
18
100
AcDbEntity
  8
0
100
AcDbBlockBegin
  2
*MODEL_SPACE
 70
     0
 10
0.0
 20
0.0
 30
0.0
  3
*MODEL_SPACE
  1

  0
ENDBLK
  5
1A
330
18
100
AcDbEntity
  8
0
100
AcDbBlockEnd
  0
BLOCK
  5
16
330
15
100
AcDbEntity
 67
     1
  8
0
100
AcDbBlockBegin
  2
*PAPER_SPACE
 70
     0
 10
0.0
 20
0.0
 30
0.0
  3
*PAPER_SPACE
  1

  0
ENDBLK
  5
17
330
15
100
AcDbEntity
 67
     1
  8
0
100
AcDbBlockEnd
  0
BLOCK
  5
A5
330
23
100
AcDbEntity
  8
0
100
AcDbBlockBegin
  2
625RAHSG
 70
     0
 10
0.0
 20
0.0
 30
0.0
  3
625RAHSG
  1

  0
LINE
  5
24
330
23
100
AcDbEntity
  8
CTR_LINES
100
AcDbLine
 10
0.885979
 20
0.037528
 30
0.0
 11
5.396416
 21
0.037528
 31
0.0
  0
CIRCLE
  5
25
330
23
100
AcDbEntity
  8
0
100
AcDbCircle
 10
4.389031
 20
-1.087471999999999
 30
0.0
 40
0.375
  0
LINE
  5
26
330
23
100
AcDbEntity
  8
0
100
AcDbLine
 10
1.764031
 20
-3.212471999999999
 30
0.0
 11
4.764031
 21
-3.212471999999999
 31
0.0
  0
LINE
  5
27
330
23
100
AcDbEntity
  8
CTR_LINES
100
AcDbLine
 10
2.974828
 20
-0.5564720000000002
 30
0.0
 11
5.32288
 21
-0.5564720000000002
 31
0.0
  0
LINE
  5
28
330
23
100
AcDbEntity
  8
0
100
AcDbLine
 10
3.764030999999999
 20
0.537528
 30
0.0
 11
5.139031
 21
0.537528
 31
0.0
  0
LINE
  5
29
330
23
100
AcDbEntity
  8
0
100
AcDbLine
 10
3.760045999999999
 20
0.9745280000000001
 30
0.0
 11
5.139031
 21
0.9745280000000001
 31
0.0
  0
LINE
  5
2A
330
23
100
AcDbEntity
  8
0
100
AcDbLine
 10
3.889030999999999
 20
-2.900472
 30
0.0
 11
4.702030999999999
 21
-2.900472
 31
0.0
  0
CIRCLE
  5
2B
330
23
100
AcDbEntity
  8
0
100
AcDbCircle
 10
4.389031
 20
-1.087471999999999
 30
0.0
 40
0.1325
  0
LINE
  5
2C
330
23
100
AcDbEntity
  8
CTR_LINES
100
AcDbLine
 10
3.957399999999999
 20
-1.087471999999999
 30
0.0
 11
5.32288
 21
-1.087471999999999
 31
0.0
  0
LINE
  5
2D
330
23
100
AcDbEntity
  8
CTR_LINES
100
AcDbLine
 10
-4.350188
 20
-3.336655
 30
0.0
 11
-4.350188
 21
2.385421
 31
0.0
  0
LINE
  5
2E
330
23
100
AcDbEntity
  8
CTR_LINES
100
AcDbLine
 10
-4.350188
 20
-3.336655
 30
0.0
 11
-4.350188
 21
2.385421
 31
0.0
  0
LINE
  5
2F
330
23
100
AcDbEntity
  8
CTR_LINES
100
AcDbLine
 10
-2.975188
 20
-3.336655
 30
0.0
 11
-2.975188
 21
2.385421
 31
0.0
  0
CIRCLE
  5
30
330
23
100
AcDbEntity
  8
0
100
AcDbCircle
 10
-3.662687999999999
 20
0.037528
 30
0.0
 40
0.6890000000000001
  0
LINE
  5
31
330
23
100
AcDbEntity
  8
0
100
AcDbLine
 10
-4.662688
 20
1.381528
 30
0.0
 11
-4.662688
 21
-0.107813
 31
0.0
  0
LINE
  5
32
330
23
100
AcDbEntity
  8
0
100
AcDbLine
 10
-2.662688
 20
1.381528
 30
0.0
 11
-2.662688
 21
-0.6490000000000001
 31
0.0
  0
LINE
  5
33
330
23
100
AcDbEntity
  8
CTR_LINES
100
AcDbLine
 10
-3.662687999999999
 20
-4.261118999999999
 30
0.0
 11
-3.662687999999999
 21
4.589856
 31
0.0
  0
LINE
  5
34
330
23
100
AcDbEntity
  8
CTR_LINES
100
AcDbLine
 10
3.795030999999999
 20
1.258213
 30
0.0
 11
3.795030999999999
 21
-0.8509159999999999
 31
0.0
  0
LINE
  5
35
330
23
100
AcDbEntity
  8
CTR_LINES
100
AcDbLine
 10
2.139031
 20
1.258213
 30
0.0
 11
2.139031
 21
-3.439751
 31
0.0
  0
LINE
  5
36
330
23
100
AcDbEntity
  8
CTR_LINES
100
AcDbLine
 10
4.389031
 20
1.258213
 30
0.0
 11
4.389031
 21
-3.439751
 31
0.0
  0
LINE
  5
37
330
23
100
AcDbEntity
  8
CTR_LINES
100
AcDbLine
 10
3.264031
 20
1.584145999999999
 30
0.0
 11
3.264031
 21
-3.439751
 31
0.0
  0
LINE
  5
38
330
23
100
AcDbEntity
  8
0
100
AcDbLine
 10
1.139030999999999
 20
1.537528
 30
0.0
 11
1.139030999999999
 21
-1.462471999999999
 31
0.0
  0
LINE
  5
39
330
23
100
AcDbEntity
  8
CTR_LINES
100
AcDbLine
 10
-2.746494999999999
 20
-1.087471999999999
 30
0.0
 11
-4.874066
 21
-1.087471999999999
 31
0.0
  0
LINE
  5
3A
330
23
100
AcDbEntity
  8
0
100
AcDbLine
 10
-2.724687999999999
 20
-2.900472
 30
0.0
 11
-3.350687999999999
 21
-2.900472
 31
0.0
  0
ARC
  5
3B
330
23
100
AcDbEntity
  8
0
100
AcDbCircle
 10
-2.818688
 20
-1.306471999999999
 30
0.0
 40
0.156
100
AcDbArc
 50
270.0
 51
0.0
  0
LINE
  5
3C
330
23
100
AcDbEntity
  8
0
100
AcDbLine
 10
-3.350687999999999
 20
-1.462471999999999
 30
0.0
 11
-2.600188
 21
-1.462471999999999
 31
0.0
  0
LINE
  5
3D
330
23
100
AcDbEntity
  8
0
100
AcDbLine
 10
-4.662688
 20
-3.212471999999999
 30
0.0
 11
-2.662688
 21
-3.212471999999999
 31
0.0
  0
LINE
  5
3E
330
23
100
AcDbEntity
  8
0
100
AcDbLine
 10
-4.662688
 20
-1.462471999999999
 30
0.0
 11
-4.662688
 21
-3.212471999999999
 31
0.0
  0
LINE
  5
3F
330
23
100
AcDbEntity
  8
0
100
AcDbLine
 10
-3.912687999999999
 20
-2.838472
 30
0.0
 11
-3.912687999999999
 21
-1.524471999999999
 31
0.0
  0
LINE
  5
40
330
23
100
AcDbEntity
  8
0
100
AcDbLine
 10
-3.412687999999999
 20
-2.838472
 30
0.0
 11
-3.412687999999999
 21
-1.524471999999999
 31
0.0
  0
ARC
  5
41
330
23
100
AcDbEntity
  8
0
100
AcDbCircle
 10
-4.600687999999999
 20
-2.962471999999999
 30
0.0
 40
0.062
100
AcDbArc
 50
90.0
 51
180.0
  0
LINE
  5
42
330
23
100
AcDbEntity
  8
0
100
AcDbLine
 10
-4.662688
 20
-3.212471999999999
 30
0.0
 11
-4.662688
 21
-2.962471999999999
 31
0.0
  0
LINE
  5
43
330
23
100
AcDbEntity
  8
0
100
AcDbLine
 10
-3.974687999999999
 20
-2.900472
 30
0.0
 11
-3.350687999999999
 21
-2.900472
 31
0.0
  0
LINE
  5
44
330
23
100
AcDbEntity
  8
0
100
AcDbLine
 10
-3.974687999999999
 20
-2.900472
 30
0.0
 11
-4.482687999999999
 21
-2.900472
 31
0.0
  0
LINE
  5
45
330
23
100
AcDbEntity
  8
0
100
AcDbLine
 10
-4.482687999999999
 20
-2.900472
 30
0.0
 11
-4.600687999999999
 21
-2.900472
 31
0.0
  0
ARC
  5
46
330
23
100
AcDbEntity
  8
0
100
AcDbCircle
 10
-3.974687999999999
 20
-2.838472
 30
0.0
 40
0.062
100
AcDbArc
 50
270.0
 51
0.0
  0
ARC
  5
47
330
23
100
AcDbEntity
  8
0
100
AcDbCircle
 10
-3.350687999999999
 20
-2.838472
 30
0.0
 40
0.062
100
AcDbArc
 50
180.0
 51
270.0
  0
LINE
  5
48
330
23
100
AcDbEntity
  8
0
100
AcDbLine
 10
-4.506687999999999
 20
-1.462471999999999
 30
0.0
 11
-4.725188
 21
-1.462471999999999
 31
0.0
  0
ARC
  5
49
330
23
100
AcDbEntity
  8
0
100
AcDbCircle
 10
-4.506687999999999
 20
-1.306471999999999
 30
0.0
 40
0.156
100
AcDbArc
 50
180.0
 51
270.0
  0
LINE
  5
4A
330
23
100
AcDbEntity
  8
0
100
AcDbLine
 10
-4.662688
 20
-1.306471999999999
 30
0.0
 11
-4.662688
 21
-0.107813
 31
0.0
  0
LINE
  5
4B
330
23
100
AcDbEntity
  8
0
100
AcDbLine
 10
-4.725188
 20
-1.462471999999999
 30
0.0
 11
-4.725188
 21
-0.169813
 31
0.0
  0
LINE
  5
4C
330
23
100
AcDbEntity
  8
0
100
AcDbLine
 10
-4.725188
 20
-0.711
 30
0.0
 11
-4.724687999999999
 21
-0.711
 31
0.0
  0
ARC
  5
4D
330
23
100
AcDbEntity
  8
0
100
AcDbCircle
 10
-4.724687999999999
 20
-0.107813
 30
0.0
 40
0.062
100
AcDbArc
 50
270.0
 51
0.0
  0
LINE
  5
4E
330
23
100
AcDbEntity
  8
0
100
AcDbLine
 10
-4.724687999999999
 20
-0.169813
 30
0.0
 11
-4.725188
 21
-0.169813
 31
0.0
  0
CIRCLE
  5
4F
330
23
100
AcDbEntity
  8
0
100
AcDbCircle
 10
-4.350188
 20
-1.087471999999999
 30
0.0
 40
0.1325
  0
CIRCLE
  5
50
330
23
100
AcDbEntity
  8
0
100
AcDbCircle
 10
-2.975188
 20
-1.087471999999999
 30
0.0
 40
0.1325
  0
LINE
  5
51
330
23
100
AcDbEntity
  8
0
100
AcDbLine
 10
-3.350687999999999
 20
-1.462471999999999
 30
0.0
 11
-3.974687999999999
 21
-1.462471999999999
 31
0.0
  0
LINE
  5
52
330
23
100
AcDbEntity
  8
0
100
AcDbLine
 10
-3.974687999999999
 20
-1.462471999999999
 30
0.0
 11
-4.506687999999999
 21
-1.462471999999999
 31
0.0
  0
ARC
  5
53
330
23
100
AcDbEntity
  8
0
100
AcDbCircle
 10
-3.974687999999999
 20
-1.524471999999999
 30
0.0
 40
0.062
100
AcDbArc
 50
0.0
 51
90.0
  0
ARC
  5
54
330
23
100
AcDbEntity
  8
0
100
AcDbCircle
 10
-3.350687999999999
 20
-1.524471999999999
 30
0.0
 40
0.062
100
AcDbArc
 50
90.0
 51
180.0
  0
LINE
  5
55
330
23
100
AcDbEntity
  8
0
100
AcDbLine
 10
-2.662688
 20
-1.462471999999999
 30
0.0
 11
-2.662688
 21
-3.212471999999999
 31
0.0
  0
LINE
  5
56
330
23
100
AcDbEntity
  8
0
100
AcDbLine
 10
-2.662688
 20
-3.212471999999999
 30
0.0
 11
-2.662688
 21
-2.962471999999999
 31
0.0
  0
ARC
  5
57
330
23
100
AcDbEntity
  8
0
100
AcDbCircle
 10
-2.724687999999999
 20
-2.962471999999999
 30
0.0
 40
0.062
100
AcDbArc
 50
0.0
 51
90.0
  0
LINE
  5
58
330
23
100
AcDbEntity
  8
0
100
AcDbLine
 10
-2.662688
 20
-1.306471999999999
 30
0.0
 11
-2.662688
 21
-0.6490000000000001
 31
0.0
  0
LINE
  5
59
330
23
100
AcDbEntity
  8
0
100
AcDbLine
 10
-2.600188
 20
-1.462471999999999
 30
0.0
 11
-2.600188
 21
-0.711
 31
0.0
  0
LINE
  5
5A
330
23
100
AcDbEntity
  8
0
100
AcDbLine
 10
-2.600188
 20
-1.462471999999999
 30
0.0
 11
-2.600188
 21
-0.711
 31
0.0
  0
LINE
  5
5B
330
23
100
AcDbEntity
  8
0
100
AcDbLine
 10
-2.600188
 20
-1.462471999999999
 30
0.0
 11
-2.600188
 21
-0.711
 31
0.0
  0
ARC
  5
5C
330
23
100
AcDbEntity
  8
0
100
AcDbCircle
 10
-2.600687999999999
 20
-0.6490000000000001
 30
0.0
 40
0.062
100
AcDbArc
 50
180.0
 51
270.0
  0
LINE
  5
5D
330
23
100
AcDbEntity
  8
0
100
AcDbLine
 10
-2.600687999999999
 20
-0.711
 30
0.0
 11
-2.600188
 21
-0.711
 31
0.0
  0
LINE
  5
5E
330
23
100
AcDbEntity
  8
0
100
AcDbLine
 10
2.764031
 20
-1.587471999999999
 30
0.0
 11
2.764031
 21
-2.775472
 31
0.0
  0
LINE
  5
5F
330
23
100
AcDbEntity
  8
0
100
AcDbLine
 10
3.764030999999999
 20
-1.587471999999999
 30
0.0
 11
3.764030999999999
 21
-2.775472
 31
0.0
  0
LINE
  5
60
330
23
100
AcDbEntity
  8
0
100
AcDbLine
 10
2.327031
 20
-1.583487
 30
0.0
 11
2.327031
 21
-2.775472
 31
0.0
  0
LINE
  5
61
330
23
100
AcDbEntity
  8
0
100
AcDbLine
 10
4.201030999999999
 20
-1.583487
 30
0.0
 11
4.201030999999999
 21
-2.775472
 31
0.0
  0
ARC
  5
62
330
23
100
AcDbEntity
  8
0
100
AcDbCircle
 10
2.639031
 20
-2.775472
 30
0.0
 40
0.125
100
AcDbArc
 50
270.0
 51
0.0
  0
ARC
  5
63
330
23
100
AcDbEntity
  8
0
100
AcDbCircle
 10
1.826031
 20
-2.962471999999999
 30
0.0
 40
0.062
100
AcDbArc
 50
90.0
 51
180.0
  0
LINE
  5
64
330
23
100
AcDbEntity
  8
0
100
AcDbLine
 10
1.764031
 20
-2.962471999999999
 30
0.0
 11
1.764031
 21
-3.212471999999999
 31
0.0
  0
LINE
  5
65
330
23
100
AcDbEntity
  8
0
100
AcDbLine
 10
2.639031
 20
-2.900472
 30
0.0
 11
1.826031
 21
-2.900472
 31
0.0
  0
ARC
  5
66
330
23
100
AcDbEntity
  8
0
100
AcDbCircle
 10
2.202031
 20
-2.775472
 30
0.0
 40
0.125
100
AcDbArc
 50
270.0
 51
0.0
  0
ARC
  5
67
330
23
100
AcDbEntity
  8
0
100
AcDbCircle
 10
3.889030999999999
 20
-2.775472
 30
0.0
 40
0.125
100
AcDbArc
 50
180.0
 51
270.0
  0
ARC
  5
68
330
23
100
AcDbEntity
  8
0
100
AcDbCircle
 10
4.326030999999999
 20
-2.775472
 30
0.0
 40
0.125
100
AcDbArc
 50
180.0
 51
270.0
  0
ARC
  5
69
330
23
100
AcDbEntity
  8
0
100
AcDbCircle
 10
2.639031
 20
-1.587471999999999
 30
0.0
 40
0.125
100
AcDbArc
 50
0.0
 51
90.0
  0
LINE
  5
6A
330
23
100
AcDbEntity
  8
0
100
AcDbLine
 10
1.767018999999999
 20
-1.040221999999999
 30
0.0
 11
1.767018999999999
 21
-0.587472
 31
0.0
  0
LINE
  5
6B
330
23
100
AcDbEntity
  8
0
100
AcDbLine
 10
1.451030999999999
 20
-1.024471999999999
 30
0.0
 11
1.451030999999999
 21
-0.587472
 31
0.0
  0
ARC
  5
6C
330
23
100
AcDbEntity
  8
0
100
AcDbCircle
 10
1.576030999999999
 20
-1.024471999999999
 30
0.0
 40
0.125
100
AcDbArc
 50
90.0
 51
180.0
  0
ARC
  5
6D
330
23
100
AcDbEntity
  8
0
100
AcDbCircle
 10
1.643016
 20
-1.024471999999999
 30
0.0
 40
0.125
100
AcDbArc
 50
352.761492
 51
90.0
  0
CIRCLE
  5
6E
330
23
100
AcDbEntity
  8
0
100
AcDbCircle
 10
2.139031
 20
-1.087471999999999
 30
0.0
 40
0.1325
  0
CIRCLE
  5
6F
330
23
100
AcDbEntity
  8
0
100
AcDbCircle
 10
2.139031
 20
-1.087471999999999
 30
0.0
 40
0.375
  0
ARC
  5
70
330
23
100
AcDbEntity
  8
0
100
AcDbCircle
 10
1.389030999999999
 20
-1.400471999999999
 30
0.0
 40
0.062
100
AcDbArc
 50
270.0
 51
0.0
  0
LINE
  5
71
330
23
100
AcDbEntity
  8
0
100
AcDbLine
 10
1.139030999999999
 20
-1.462471999999999
 30
0.0
 11
1.389030999999999
 21
-1.462471999999999
 31
0.0
  0
LINE
  5
72
330
23
100
AcDbEntity
  8
0
100
AcDbLine
 10
1.451030999999999
 20
-1.400471999999999
 30
0.0
 11
1.451030999999999
 21
-1.024471999999999
 31
0.0
  0
ARC
  5
73
330
23
100
AcDbEntity
  8
0
100
AcDbCircle
 10
2.202031
 20
-1.583487
 30
0.0
 40
0.125
100
AcDbArc
 50
0.0
 51
97.23850800000001
  0
LINE
  5
74
330
23
100
AcDbEntity
  8
0
100
AcDbLine
 10
2.639031
 20
-1.462471999999999
 30
0.0
 11
2.139031
 21
-1.462471999999999
 31
0.0
  0
ARC
  5
75
330
23
100
AcDbEntity
  8
0
100
AcDbCircle
 10
1.642018999999999
 20
-0.587472
 30
0.0
 40
0.125
100
AcDbArc
 50
0.0
 51
90.0
  0
ARC
  5
76
330
23
100
AcDbEntity
  8
0
100
AcDbCircle
 10
1.576030999999999
 20
-0.587472
 30
0.0
 40
0.125
100
AcDbArc
 50
90.0
 51
180.0
  0
LINE
  5
77
330
23
100
AcDbEntity
  8
0
100
AcDbLine
 10
1.576030999999999
 20
-0.8994719999999999
 30
0.0
 11
1.643016
 21
-0.8994719999999999
 31
0.0
  0
LINE
  5
78
330
23
100
AcDbEntity
  8
0
100
AcDbLine
 10
1.576030999999999
 20
-0.4624720000000001
 30
0.0
 11
1.642018999999999
 21
-0.4624720000000001
 31
0.0
  0
ARC
  5
79
330
23
100
AcDbEntity
  8
0
100
AcDbCircle
 10
4.326030999999999
 20
-1.583487
 30
0.0
 40
0.125
100
AcDbArc
 50
82.761492
 51
180.0
  0
LINE
  5
7A
330
23
100
AcDbEntity
  8
0
100
AcDbLine
 10
3.889030999999999
 20
-1.462471999999999
 30
0.0
 11
4.389031
 21
-1.462471999999999
 31
0.0
  0
ARC
  5
7B
330
23
100
AcDbEntity
  8
0
100
AcDbCircle
 10
3.889030999999999
 20
-1.587471999999999
 30
0.0
 40
0.125
100
AcDbArc
 50
90.0
 51
180.0
  0
LINE
  5
7C
330
23
100
AcDbEntity
  8
CTR_LINES
100
AcDbLine
 10
-4.806236
 20
0.037528
 30
0.0
 11
-2.335761999999999
 21
0.037528
 31
0.0
  0
ARC
  5
7D
330
23
100
AcDbEntity
  8
0
100
AcDbCircle
 10
-2.818688
 20
1.381528
 30
0.0
 40
0.156
100
AcDbArc
 50
0.0
 51
90.0
  0
LINE
  5
7E
330
23
100
AcDbEntity
  8
0
100
AcDbLine
 10
-2.600188
 20
1.537528
 30
0.0
 11
-4.725188
 21
1.537528
 31
0.0
  0
LINE
  5
7F
330
23
100
AcDbEntity
  8
CTR_LINES
100
AcDbLine
 10
-4.806236
 20
1.162528
 30
0.0
 11
-2.432166
 21
1.162528
 31
0.0
  0
MTEXT
  5
80
330
23
100
AcDbEntity
  8
0
100
AcDbMText
 10
-3.572687999999999
 20
3.451976
 30
0.0
 40
0.18
 41
0.0
 46
0.0
 71
     4
 72
     1
  1
 
 73
     1
 44
1.0
  0
ARC
  5
81
330
23
100
AcDbEntity
  8
0
100
AcDbCircle
 10
-4.506687999999999
 20
1.381528
 30
0.0
 40
0.156
100
AcDbArc
 50
90.0
 51
180.0
  0
ARC
  5
82
330
23
100
AcDbEntity
  8
0
100
AcDbCircle
 10
-4.724687999999999
 20
0.725671
 30
0.0
 40
0.062
100
AcDbArc
 50
0.0
 51
90.0
  0
LINE
  5
83
330
23
100
AcDbEntity
  8
0
100
AcDbLine
 10
-4.725188
 20
0.787669
 30
0.0
 11
-4.725188
 21
1.537528
 31
0.0
  0
LINE
  5
84
330
23
100
AcDbEntity
  8
0
100
AcDbLine
 10
-4.725188
 20
0.787671
 30
0.0
 11
-4.724687999999999
 21
0.787671
 31
0.0
  0
CIRCLE
  5
85
330
23
100
AcDbEntity
  8
0
100
AcDbCircle
 10
-4.350188
 20
1.162528
 30
0.0
 40
0.1325
  0
CIRCLE
  5
86
330
23
100
AcDbEntity
  8
0
100
AcDbCircle
 10
-2.975188
 20
1.162528
 30
0.0
 40
0.1325
  0
ARC
  5
87
330
23
100
AcDbEntity
  8
0
100
AcDbCircle
 10
-2.600687999999999
 20
0.725671
 30
0.0
 40
0.062
100
AcDbArc
 50
90.0
 51
180.0
  0
LINE
  5
88
330
23
100
AcDbEntity
  8
0
100
AcDbLine
 10
-2.600188
 20
0.787671
 30
0.0
 11
-2.600188
 21
1.537528
 31
0.0
  0
LINE
  5
89
330
23
100
AcDbEntity
  8
0
100
AcDbLine
 10
-2.600188
 20
0.787671
 30
0.0
 11
-2.600188
 21
1.537528
 31
0.0
  0
LINE
  5
8A
330
23
100
AcDbEntity
  8
0
100
AcDbLine
 10
-2.600188
 20
0.787671
 30
0.0
 11
-2.600188
 21
1.537528
 31
0.0
  0
LINE
  5
8B
330
23
100
AcDbEntity
  8
0
100
AcDbLine
 10
-2.600687999999999
 20
0.787671
 30
0.0
 11
-2.600188
 21
0.787671
 31
0.0
  0
LINE
  5
8C
330
23
100
AcDbEntity
  8
CTR_LINES
100
AcDbLine
 10
1.034567
 20
1.162528
 30
0.0
 11
3.690138999999999
 21
1.162528
 31
0.0
  0
LINE
  5
8D
330
23
100
AcDbEntity
  8
0
100
AcDbLine
 10
1.576030999999999
 20
0.9745280000000001
 30
0.0
 11
2.768015999999999
 21
0.9745280000000001
 31
0.0
  0
LINE
  5
8E
330
23
100
AcDbEntity
  8
0
100
AcDbLine
 10
1.576030999999999
 20
0.537528
 30
0.0
 11
2.767018999999999
 21
0.537528
 31
0.0
  0
LINE
  5
8F
330
23
100
AcDbEntity
  8
0
100
AcDbLine
 10
1.451030999999999
 20
1.099528
 30
0.0
 11
1.451030999999999
 21
0.662528
 31
0.0
  0
ARC
  5
90
330
23
100
AcDbEntity
  8
0
100
AcDbCircle
 10
1.576030999999999
 20
0.662528
 30
0.0
 40
0.125
100
AcDbArc
 50
180.0
 51
270.0
  0
LINE
  5
91
330
23
100
AcDbEntity
  8
0
100
AcDbLine
 10
1.451030999999999
 20
1.475528
 30
0.0
 11
1.451030999999999
 21
1.099528
 31
0.0
  0
ARC
  5
92
330
23
100
AcDbEntity
  8
0
100
AcDbCircle
 10
1.576030999999999
 20
1.099528
 30
0.0
 40
0.125
100
AcDbArc
 50
180.0
 51
270.0
  0
LINE
  5
93
330
23
100
AcDbEntity
  8
0
100
AcDbLine
 10
1.389030999999999
 20
1.537528
 30
0.0
 11
1.139030999999999
 21
1.537528
 31
0.0
  0
ARC
  5
94
330
23
100
AcDbEntity
  8
0
100
AcDbCircle
 10
1.389030999999999
 20
1.475528
 30
0.0
 40
0.062
100
AcDbArc
 50
0.0
 51
90.0
  0
LINE
  5
95
330
23
100
AcDbEntity
  8
0
100
AcDbLine
 10
2.892018999999999
 20
1.115277999999999
 30
0.0
 11
2.892018999999999
 21
0.662528
 31
0.0
  0
LINE
  5
96
330
23
100
AcDbEntity
  8
0
100
AcDbLine
 10
3.639030999999999
 20
1.162528
 30
0.0
 11
3.639030999999999
 21
0.662528
 31
0.0
  0
ARC
  5
97
330
23
100
AcDbEntity
  8
0
100
AcDbCircle
 10
2.767018999999999
 20
0.662528
 30
0.0
 40
0.125
100
AcDbArc
 50
270.0
 51
0.0
  0
ARC
  5
98
330
23
100
AcDbEntity
  8
0
100
AcDbCircle
 10
3.764030999999999
 20
0.662528
 30
0.0
 40
0.125
100
AcDbArc
 50
180.0
 51
270.0
  0
CIRCLE
  5
99
330
23
100
AcDbEntity
  8
0
100
AcDbCircle
 10
3.264031
 20
1.162528
 30
0.0
 40
0.375
  0
CIRCLE
  5
9A
330
23
100
AcDbEntity
  8
0
100
AcDbCircle
 10
3.264031
 20
1.162528
 30
0.0
 40
0.1325
  0
ARC
  5
9B
330
23
100
AcDbEntity
  8
0
100
AcDbCircle
 10
2.768015999999999
 20
1.099528
 30
0.0
 40
0.125
100
AcDbArc
 50
270.0
 51
7.238508
  0
ARC
  5
9C
330
23
100
AcDbEntity
  8
0
100
AcDbCircle
 10
3.760045999999999
 20
1.099528
 30
0.0
 40
0.125
100
AcDbArc
 50
172.761492
 51
270.0
  0
LINE
  5
9D
330
23
100
AcDbEntity
  8
0
100
AcDbLine
 10
5.139031
 20
0.9745280000000001
 30
0.0
 11
5.139031
 21
-0.8994719999999999
 31
0.0
  0
LINE
  5
9E
330
23
100
AcDbEntity
  8
0
100
AcDbLine
 10
4.764031
 20
-2.962471999999999
 30
0.0
 11
4.764031
 21
-3.212471999999999
 31
0.0
  0
ARC
  5
9F
330
23
100
AcDbEntity
  8
0
100
AcDbCircle
 10
4.702030999999999
 20
-2.962471999999999
 30
0.0
 40
0.062
100
AcDbArc
 50
0.0
 51
90.0
  0
LINE
  5
A0
330
23
100
AcDbEntity
  8
0
100
AcDbLine
 10
4.761041999999999
 20
-1.040221999999999
 30
0.0
 11
4.761041999999999
 21
-0.587472
 31
0.0
  0
ARC
  5
A1
330
23
100
AcDbEntity
  8
0
100
AcDbCircle
 10
4.885045999999999
 20
-1.024471999999999
 30
0.0
 40
0.125
100
AcDbArc
 50
90.0
 51
187.238508
  0
ARC
  5
A2
330
23
100
AcDbEntity
  8
0
100
AcDbCircle
 10
4.886041999999999
 20
-0.587472
 30
0.0
 40
0.125
100
AcDbArc
 50
90.0
 51
180.0
  0
LINE
  5
A3
330
23
100
AcDbEntity
  8
0
100
AcDbLine
 10
4.885045999999999
 20
-0.8994719999999999
 30
0.0
 11
5.139031
 21
-0.8994719999999999
 31
0.0
  0
LINE
  5
A4
330
23
100
AcDbEntity
  8
0
100
AcDbLine
 10
4.886041999999999
 20
-0.4624720000000001
 30
0.0
 11
5.139031
 21
-0.4624720000000001
 31
0.0
  0
ENDBLK
  5
A6
330
23
100
AcDbEntity
  8
0
100
AcDbBlockEnd
  0
BLOCK
  5
17F
330
173
100
AcDbEntity
  8
0
100
AcDbBlockBegin
  2
*D1
 70
     1
 10
0.0
 20
0.0
 30
0.0
  3
*D1
  1

  0
LINE
  5
180
330
173
100
AcDbEntity
  8
0
  6
ByBlock
 62
     0
440
 16777216
100
AcDbLine
 10
13.11892
 20
3.417482
 30
0.0
 11
12.96892
 21
3.417482
 31
0.0
  0
LINE
  5
181
330
173
100
AcDbEntity
  8
0
  6
ByBlock
 62
     0
440
 16777216
100
AcDbLine
 10
12.96892
 20
3.417482
 30
0.0
 11
12.089422
 21
4.002594999999999
 31
0.0
  0
MTEXT
  5
182
330
173
100
AcDbEntity
  8
0
  6
ByBlock
 62
     0
440
 16777216
100
AcDbMText
 10
13.734634
 20
3.417482
 30
0.0
 40
0.12
 41
0.0
 46
0.0
 71
     5
 72
     1
  1
\A1;∅.265 THRU\PX 3
 73
     1
 44
1.0
  0
SOLID
  5
183
330
173
100
AcDbEntity
  8
0
  6
ByBlock
 62
     0
440
 16777216
100
AcDbTrace
 10
12.10327
 20
4.023409
 30
0.0
 11
12.075575
 21
3.98178
 31
0.0
 12
11.964535
 22
4.085679999999999
 32
0.0
 13
11.964535
 23
4.085679999999999
 33
0.0
  0
LINE
  5
184
330
173
100
AcDbEntity
  8
0
  6
ByBlock
 62
     0
440
 16777216
100
AcDbLine
 10
11.764218
 20
4.159072
 30
0.0
 11
11.944218
 21
4.159072
 31
0.0
  0
LINE
  5
185
330
173
100
AcDbEntity
  8
0
  6
ByBlock
 62
     0
440
 16777216
100
AcDbLine
 10
11.854218
 20
4.069072
 30
0.0
 11
11.854218
 21
4.249071999999999
 31
0.0
  0
POINT
  5
186
330
173
100
AcDbEntity
  8
DEFPOINTS
  6
ByBlock
 62
     0
440
 16777216
100
AcDbPoint
 10
11.964535
 20
4.085679999999999
 30
0.0
  0
POINT
  5
187
330
173
100
AcDbEntity
  8
DEFPOINTS
  6
ByBlock
 62
     0
440
 16777216
100
AcDbPoint
 10
11.7439
 20
4.232464
 30
0.0
  0
ENDBLK
  5
188
330
173
100
AcDbEntity
  8
0
100
AcDbBlockEnd
  0
BLOCK
  5
1DA
330
189
100
AcDbEntity
  8
0
100
AcDbBlockBegin
  2
*D2
 70
     1
 10
0.0
 20
0.0
 30
0.0
  3
*D2
  1

  0
LINE
  5
1DB
330
189
100
AcDbEntity
  8
0
  6
ByBlock
 62
     0
440
 16777216
100
AcDbLine
 10
8.604217999999999
 20
6.846572
 30
0.0
 11
8.604217999999999
 21
7.537335
 31
0.0
  0
LINE
  5
1DC
330
189
100
AcDbEntity
  8
0
  6
ByBlock
 62
     0
440
 16777216
100
AcDbLine
 10
10.729218
 20
6.893188999999999
 30
0.0
 11
10.729218
 21
7.537335
 31
0.0
  0
LINE
  5
1DD
330
189
100
AcDbEntity
  8
0
  6
ByBlock
 62
     0
440
 16777216
100
AcDbLine
 10
8.754217999999999
 20
7.357335
 30
0.0
 11
9.336717999999999
 21
7.357335
 31
0.0
  0
LINE
  5
1DE
330
189
100
AcDbEntity
  8
0
  6
ByBlock
 62
     0
440
 16777216
100
AcDbLine
 10
10.579218
 20
7.357335
 30
0.0
 11
9.996717999999999
 21
7.357335
 31
0.0
  0
SOLID
  5
1DF
330
189
100
AcDbEntity
  8
0
  6
ByBlock
 62
     0
440
 16777216
100
AcDbTrace
 10
8.754217999999999
 20
7.382335
 30
0.0
 11
8.754217999999999
 21
7.332335
 31
0.0
 12
8.604217999999999
 22
7.357335
 32
0.0
 13
8.604217999999999
 23
7.357335
 33
0.0
  0
SOLID
  5
1E0
330
189
100
AcDbEntity
  8
0
  6
ByBlock
 62
     0
440
 16777216
100
AcDbTrace
 10
10.579218
 20
7.382335
 30
0.0
 11
10.579218
 21
7.332335
 31
0.0
 12
10.729218
 22
7.357335
 32
0.0
 13
10.729218
 23
7.357335
 33
0.0
  0
MTEXT
  5
1E1
330
189
100
AcDbEntity
  8
0
  6
ByBlock
 62
     0
440
 16777216
100
AcDbMText
 10
9.666717999999999
 20
7.357335
 30
0.0
 40
0.12
 41
0.0
 46
0.0
 71
     5
 72
     1
  1
\A1;2.125
 73
     1
 44
1.0
  0
POINT
  5
1E2
330
189
100
AcDbEntity
  8
DEFPOINTS
  6
ByBlock
 62
     0
440
 16777216
100
AcDbPoint
 10
8.604217999999999
 20
6.784072
 30
0.0
  0
POINT
  5
1E3
330
189
100
AcDbEntity
  8
DEFPOINTS
  6
ByBlock
 62
     0
440
 16777216
100
AcDbPoint
 10
10.729218
 20
6.830688999999999
 30
0.0
  0
POINT
  5
1E4
330
189
100
AcDbEntity
  8
DEFPOINTS
  6
ByBlock
 62
     0
440
 16777216
100
AcDbPoint
 10
10.729218
 20
7.357335
 30
0.0
  0
ENDBLK
  5
1E5
330
189
100
AcDbEntity
  8
0
100
AcDbBlockEnd
  0
BLOCK
  5
1CF
330
1A3
100
AcDbEntity
  8
0
100
AcDbBlockBegin
  2
*D3
 70
     1
 10
0.0
 20
0.0
 30
0.0
  3
*D3
  1

  0
LINE
  5
1D0
330
1A3
100
AcDbEntity
  8
0
  6
ByBlock
 62
     0
440
 16777216
100
AcDbLine
 10
11.854218
 20
6.567255999999999
 30
0.0
 11
11.854218
 21
7.537335
 31
0.0
  0
LINE
  5
1D1
330
1A3
100
AcDbEntity
  8
0
  6
ByBlock
 62
     0
440
 16777216
100
AcDbLine
 10
10.879218
 20
7.357335
 30
0.0
 11
10.970289
 21
7.357335
 31
0.0
  0
LINE
  5
1D2
330
1A3
100
AcDbEntity
  8
0
  6
ByBlock
 62
     0
440
 16777216
100
AcDbLine
 10
11.704218
 20
7.357335
 30
0.0
 11
11.613146
 21
7.357335
 31
0.0
  0
SOLID
  5
1D3
330
1A3
100
AcDbEntity
  8
0
  6
ByBlock
 62
     0
440
 16777216
100
AcDbTrace
 10
10.879218
 20
7.382335
 30
0.0
 11
10.879218
 21
7.332335
 31
0.0
 12
10.729218
 22
7.357335
 32
0.0
 13
10.729218
 23
7.357335
 33
0.0
  0
SOLID
  5
1D4
330
1A3
100
AcDbEntity
  8
0
  6
ByBlock
 62
     0
440
 16777216
100
AcDbTrace
 10
11.704218
 20
7.382335
 30
0.0
 11
11.704218
 21
7.332335
 31
0.0
 12
11.854218
 22
7.357335
 32
0.0
 13
11.854218
 23
7.357335
 33
0.0
  0
MTEXT
  5
1D5
330
1A3
100
AcDbEntity
  8
0
  6
ByBlock
 62
     0
440
 16777216
100
AcDbMText
 10
11.291718
 20
7.357335
 30
0.0
 40
0.12
 41
0.0
 46
0.0
 71
     5
 72
     1
  1
\A1;1.125\PTYP.
 73
     1
 44
1.0
  0
POINT
  5
1D6
330
1A3
100
AcDbEntity
  8
DEFPOINTS
  6
ByBlock
 62
     0
440
 16777216
100
AcDbPoint
 10
10.729218
 20
6.830688999999999
 30
0.0
  0
POINT
  5
1D7
330
1A3
100
AcDbEntity
  8
DEFPOINTS
  6
ByBlock
 62
     0
440
 16777216
100
AcDbPoint
 10
11.854218
 20
6.504755999999999
 30
0.0
  0
POINT
  5
1D8
330
1A3
100
AcDbEntity
  8
DEFPOINTS
  6
ByBlock
 62
     0
440
 16777216
100
AcDbPoint
 10
11.854218
 20
7.357335
 30
0.0
  0
ENDBLK
  5
1D9
330
1A3
100
AcDbEntity
  8
0
100
AcDbBlockEnd
  0
BLOCK
  5
37A
330
1F8
100
AcDbEntity
  8
0
100
AcDbBlockBegin
  2
*D4
 70
     1
 10
0.0
 20
0.0
 30
0.0
  3
*D4
  1

  0
LINE
  5
37B
330
1F8
100
AcDbEntity
  8
0
  6
ByBlock
 62
     0
440
 16777216
100
AcDbLine
 10
7.104217999999999
 20
5.629071999999999
 30
0.0
 11
7.104217999999999
 21
8.276334
 31
0.0
  0
LINE
  5
37C
330
1F8
100
AcDbEntity
  8
0
  6
ByBlock
 62
     0
440
 16777216
100
AcDbLine
 10
12.464218
 20
6.221572
 30
0.0
 11
12.464218
 21
8.276334
 31
0.0
  0
LINE
  5
37D
330
1F8
100
AcDbEntity
  8
0
  6
ByBlock
 62
     0
440
 16777216
100
AcDbLine
 10
7.254217999999998
 20
8.096333999999998
 30
0.0
 11
9.511359999999999
 21
8.096333999999998
 31
0.0
  0
LINE
  5
37E
330
1F8
100
AcDbEntity
  8
0
  6
ByBlock
 62
     0
440
 16777216
100
AcDbLine
 10
12.314218
 20
8.096333999999998
 30
0.0
 11
10.057075
 21
8.096333999999998
 31
0.0
  0
SOLID
  5
37F
330
1F8
100
AcDbEntity
  8
0
  6
ByBlock
 62
     0
440
 16777216
100
AcDbTrace
 10
7.254217999999998
 20
8.121333999999999
 30
0.0
 11
7.254217999999998
 21
8.071334
 31
0.0
 12
7.104217999999999
 22
8.096333999999998
 32
0.0
 13
7.104217999999999
 23
8.096333999999998
 33
0.0
  0
SOLID
  5
380
330
1F8
100
AcDbEntity
  8
0
  6
ByBlock
 62
     0
440
 16777216
100
AcDbTrace
 10
12.314218
 20
8.121333999999999
 30
0.0
 11
12.314218
 21
8.071334
 31
0.0
 12
12.464218
 22
8.096333999999998
 32
0.0
 13
12.464218
 23
8.096333999999998
 33
0.0
  0
MTEXT
  5
381
330
1F8
100
AcDbEntity
  8
0
  6
ByBlock
 62
     0
440
 16777216
100
AcDbMText
 10
9.784217999999999
 20
8.096333999999998
 30
0.0
 40
0.12
 41
0.0
 46
0.0
 71
     5
 72
     1
  1
\A1;5.36
 73
     1
 44
1.0
  0
POINT
  5
382
330
1F8
100
AcDbEntity
  8
DEFPOINTS
  6
ByBlock
 62
     0
440
 16777216
100
AcDbPoint
 10
7.104217999999999
 20
5.566571999999999
 30
0.0
  0
POINT
  5
383
330
1F8
100
AcDbEntity
  8
DEFPOINTS
  6
ByBlock
 62
     0
440
 16777216
100
AcDbPoint
 10
12.464218
 20
6.159072
 30
0.0
  0
POINT
  5
384
330
1F8
100
AcDbEntity
  8
DEFPOINTS
  6
ByBlock
 62
     0
440
 16777216
100
AcDbPoint
 10
12.464218
 20
8.096333999999998
 30
0.0
  0
ENDBLK
  5
385
330
1F8
100
AcDbEntity
  8
0
100
AcDbBlockEnd
  0
BLOCK
  5
220
330
212
100
AcDbEntity
  8
0
100
AcDbBlockBegin
  2
*D5
 70
     1
 10
0.0
 20
0.0
 30
0.0
  3
*D5
  1

  0
LINE
  5
221
330
212
100
AcDbEntity
  8
0
  6
ByBlock
 62
     0
440
 16777216
100
AcDbLine
 10
6.94521
 20
5.284072
 30
0.0
 11
6.259198
 21
5.284072
 31
0.0
  0
LINE
  5
222
330
212
100
AcDbEntity
  8
0
  6
ByBlock
 62
     0
440
 16777216
100
AcDbLine
 10
8.437253999999999
 20
6.409072
 30
0.0
 11
6.259198
 21
6.409072
 31
0.0
  0
LINE
  5
223
330
212
100
AcDbEntity
  8
0
  6
ByBlock
 62
     0
440
 16777216
100
AcDbLine
 10
6.439198
 20
5.434072
 30
0.0
 11
6.439198
 21
5.596572
 31
0.0
  0
LINE
  5
224
330
212
100
AcDbEntity
  8
0
  6
ByBlock
 62
     0
440
 16777216
100
AcDbLine
 10
6.439198
 20
6.259071999999999
 30
0.0
 11
6.439198
 21
6.096572
 31
0.0
  0
SOLID
  5
225
330
212
100
AcDbEntity
  8
0
  6
ByBlock
 62
     0
440
 16777216
100
AcDbTrace
 10
6.414198
 20
5.434072
 30
0.0
 11
6.464198
 21
5.434072
 31
0.0
 12
6.439198
 22
5.284072
 32
0.0
 13
6.439198
 23
5.284072
 33
0.0
  0
SOLID
  5
226
330
212
100
AcDbEntity
  8
0
  6
ByBlock
 62
     0
440
 16777216
100
AcDbTrace
 10
6.414198
 20
6.259071999999999
 30
0.0
 11
6.464198
 21
6.259071999999999
 31
0.0
 12
6.439198
 22
6.409072
 32
0.0
 13
6.439198
 23
6.409072
 33
0.0
  0
MTEXT
  5
227
330
212
100
AcDbEntity
  8
0
  6
ByBlock
 62
     0
440
 16777216
100
AcDbMText
 10
6.439198
 20
5.846572
 30
0.0
 40
0.12
 41
0.0
 46
0.0
 71
     5
 72
     1
  1
\A1;1.125\PTYP.
 73
     1
 44
1.0
  0
POINT
  5
228
330
212
100
AcDbEntity
  8
DEFPOINTS
  6
ByBlock
 62
     0
440
 16777216
100
AcDbPoint
 10
7.00771
 20
5.284072
 30
0.0
  0
POINT
  5
229
330
212
100
AcDbEntity
  8
DEFPOINTS
  6
ByBlock
 62
     0
440
 16777216
100
AcDbPoint
 10
8.499753999999999
 20
6.409072
 30
0.0
  0
POINT
  5
22A
330
212
100
AcDbEntity
  8
DEFPOINTS
  6
ByBlock
 62
     0
440
 16777216
100
AcDbPoint
 10
6.439198
 20
6.409072
 30
0.0
  0
ENDBLK
  5
22B
330
212
100
AcDbEntity
  8
0
100
AcDbBlockEnd
  0
BLOCK
  5
254
330
22C
100
AcDbEntity
  8
0
100
AcDbBlockBegin
  2
*D6
 70
     1
 10
0.0
 20
0.0
 30
0.0
  3
*D6
  1

  0
LINE
  5
255
330
22C
100
AcDbEntity
  8
0
  6
ByBlock
 62
     0
440
 16777216
100
AcDbLine
 10
12.229718
 20
2.346071999999999
 30
0.0
 11
12.838203
 21
2.346071999999999
 31
0.0
  0
LINE
  5
256
330
22C
100
AcDbEntity
  8
0
  6
ByBlock
 62
     0
440
 16777216
100
AcDbLine
 10
12.291718
 20
2.034072
 30
0.0
 11
12.838203
 21
2.034072
 31
0.0
  0
LINE
  5
257
330
22C
100
AcDbEntity
  8
0
  6
ByBlock
 62
     0
440
 16777216
100
AcDbLine
 10
12.658203
 20
2.496072
 30
0.0
 11
12.658203
 21
2.646072
 31
0.0
  0
LINE
  5
258
330
22C
100
AcDbEntity
  8
0
  6
ByBlock
 62
     0
440
 16777216
100
AcDbLine
 10
12.658203
 20
1.884072
 30
0.0
 11
12.658203
 21
1.460083
 31
0.0
  0
LINE
  5
259
330
22C
100
AcDbEntity
  8
0
  6
ByBlock
 62
     0
440
 16777216
100
AcDbLine
 10
12.658203
 20
1.460083
 30
0.0
 11
12.508203
 21
1.460083
 31
0.0
  0
SOLID
  5
25A
330
22C
100
AcDbEntity
  8
0
  6
ByBlock
 62
     0
440
 16777216
100
AcDbTrace
 10
12.633203
 20
2.496072
 30
0.0
 11
12.683203
 21
2.496072
 31
0.0
 12
12.658203
 22
2.346071999999999
 32
0.0
 13
12.658203
 23
2.346071999999999
 33
0.0
  0
SOLID
  5
25B
330
22C
100
AcDbEntity
  8
0
  6
ByBlock
 62
     0
440
 16777216
100
AcDbTrace
 10
12.633203
 20
1.884072
 30
0.0
 11
12.683203
 21
1.884072
 31
0.0
 12
12.658203
 22
2.034072
 32
0.0
 13
12.658203
 23
2.034072
 33
0.0
  0
MTEXT
  5
25C
330
22C
100
AcDbEntity
  8
0
  6
ByBlock
 62
     0
440
 16777216
100
AcDbMText
 10
12.246775
 20
1.460083
 30
0.0
 40
0.12
 41
0.0
 46
0.0
 71
     5
 72
     1
  1
\A1;.31\PTYP.
 73
     1
 44
1.0
  0
POINT
  5
25D
330
22C
100
AcDbEntity
  8
DEFPOINTS
  6
ByBlock
 62
     0
440
 16777216
100
AcDbPoint
 10
12.167218
 20
2.346071999999999
 30
0.0
  0
POINT
  5
25E
330
22C
100
AcDbEntity
  8
DEFPOINTS
  6
ByBlock
 62
     0
440
 16777216
100
AcDbPoint
 10
12.229218
 20
2.034072
 30
0.0
  0
POINT
  5
25F
330
22C
100
AcDbEntity
  8
DEFPOINTS
  6
ByBlock
 62
     0
440
 16777216
100
AcDbPoint
 10
12.658203
 20
2.034072
 30
0.0
  0
ENDBLK
  5
260
330
22C
100
AcDbEntity
  8
0
100
AcDbBlockEnd
  0
BLOCK
  5
26F
330
261
100
AcDbEntity
  8
0
100
AcDbBlockBegin
  2
*D7
 70
     1
 10
0.0
 20
0.0
 30
0.0
  3
*D7
  1

  0
LINE
  5
270
330
261
100
AcDbEntity
  8
0
  6
ByBlock
 62
     0
440
 16777216
100
AcDbLine
 10
10.636218
 20
0.4715720000000001
 30
0.0
 11
10.636218
 21
-0.167057
 31
0.0
  0
LINE
  5
271
330
261
100
AcDbEntity
  8
0
  6
ByBlock
 62
     0
440
 16777216
100
AcDbLine
 10
10.822218
 20
0.4715720000000001
 30
0.0
 11
10.822218
 21
-0.167057
 31
0.0
  0
LINE
  5
272
330
261
100
AcDbEntity
  8
0
  6
ByBlock
 62
     0
440
 16777216
100
AcDbLine
 10
10.486218
 20
0.012943
 30
0.0
 11
10.336218
 21
0.012943
 31
0.0
  0
LINE
  5
273
330
261
100
AcDbEntity
  8
0
  6
ByBlock
 62
     0
440
 16777216
100
AcDbLine
 10
10.972218
 20
0.012943
 30
0.0
 11
11.122218
 21
0.012943
 31
0.0
  0
SOLID
  5
274
330
261
100
AcDbEntity
  8
0
  6
ByBlock
 62
     0
440
 16777216
100
AcDbTrace
 10
10.486218
 20
0.037943
 30
0.0
 11
10.486218
 21
-0.012057
 31
0.0
 12
10.636218
 22
0.012943
 32
0.0
 13
10.636218
 23
0.012943
 33
0.0
  0
SOLID
  5
275
330
261
100
AcDbEntity
  8
0
  6
ByBlock
 62
     0
440
 16777216
100
AcDbTrace
 10
10.972218
 20
0.037943
 30
0.0
 11
10.972218
 21
-0.012057
 31
0.0
 12
10.822218
 22
0.012943
 32
0.0
 13
10.822218
 23
0.012943
 33
0.0
  0
MTEXT
  5
276
330
261
100
AcDbEntity
  8
0
  6
ByBlock
 62
     0
440
 16777216
100
AcDbMText
 10
11.76936
 20
0.012943
 30
0.0
 40
0.12
 41
0.0
 46
0.0
 71
     5
 72
     1
  1
\A1;.187 X .093\PKEYWAY\PTYP.
 73
     1
 44
1.0
  0
POINT
  5
277
330
261
100
AcDbEntity
  8
DEFPOINTS
  6
ByBlock
 62
     0
440
 16777216
100
AcDbPoint
 10
10.636218
 20
0.5340720000000001
 30
0.0
  0
POINT
  5
278
330
261
100
AcDbEntity
  8
DEFPOINTS
  6
ByBlock
 62
     0
440
 16777216
100
AcDbPoint
 10
10.822218
 20
0.5340720000000001
 30
0.0
  0
POINT
  5
279
330
261
100
AcDbEntity
  8
DEFPOINTS
  6
ByBlock
 62
     0
440
 16777216
100
AcDbPoint
 10
10.822218
 20
0.012943
 30
0.0
  0
ENDBLK
  5
27A
330
261
100
AcDbEntity
  8
0
100
AcDbBlockEnd
  0
BLOCK
  5
289
330
27B
100
AcDbEntity
  8
0
100
AcDbBlockBegin
  2
*D8
 70
     1
 10
0.0
 20
0.0
 30
0.0
  3
*D8
  1

  0
LINE
  5
28A
330
27B
100
AcDbEntity
  8
0
  6
ByBlock
 62
     0
440
 16777216
100
AcDbLine
 10
10.384218
 20
0.5340720000000001
 30
0.0
 11
8.527898999999999
 21
0.5340720000000001
 31
0.0
  0
LINE
  5
28B
330
27B
100
AcDbEntity
  8
0
  6
ByBlock
 62
     0
440
 16777216
100
AcDbLine
 10
9.166717999999999
 20
2.034072
 30
0.0
 11
8.527898999999999
 21
2.034072
 31
0.0
  0
LINE
  5
28C
330
27B
100
AcDbEntity
  8
0
  6
ByBlock
 62
     0
440
 16777216
100
AcDbLine
 10
8.707899000000001
 20
0.6840720000000001
 30
0.0
 11
8.707899000000001
 21
1.034071999999999
 31
0.0
  0
LINE
  5
28D
330
27B
100
AcDbEntity
  8
0
  6
ByBlock
 62
     0
440
 16777216
100
AcDbLine
 10
8.707899000000001
 20
1.884072
 30
0.0
 11
8.707899000000001
 21
1.534071999999999
 31
0.0
  0
SOLID
  5
28E
330
27B
100
AcDbEntity
  8
0
  6
ByBlock
 62
     0
440
 16777216
100
AcDbTrace
 10
8.682899
 20
0.6840720000000001
 30
0.0
 11
8.732898999999999
 21
0.6840720000000001
 31
0.0
 12
8.707899000000001
 22
0.5340720000000001
 32
0.0
 13
8.707899000000001
 23
0.5340720000000001
 33
0.0
  0
SOLID
  5
28F
330
27B
100
AcDbEntity
  8
0
  6
ByBlock
 62
     0
440
 16777216
100
AcDbTrace
 10
8.682899
 20
1.884072
 30
0.0
 11
8.732898999999999
 21
1.884072
 31
0.0
 12
8.707899000000001
 22
2.034072
 32
0.0
 13
8.707899000000001
 23
2.034072
 33
0.0
  0
MTEXT
  5
290
330
27B
100
AcDbEntity
  8
0
  6
ByBlock
 62
     0
440
 16777216
100
AcDbMText
 10
8.707899000000001
 20
1.284071999999999
 30
0.0
 40
0.12
 41
0.0
 46
0.0
 71
     5
 72
     1
  1
\A1;1.500\PTYP.
 73
     1
 44
1.0
  0
POINT
  5
291
330
27B
100
AcDbEntity
  8
DEFPOINTS
  6
ByBlock
 62
     0
440
 16777216
100
AcDbPoint
 10
10.446718
 20
0.5340720000000001
 30
0.0
  0
POINT
  5
292
330
27B
100
AcDbEntity
  8
DEFPOINTS
  6
ByBlock
 62
     0
440
 16777216
100
AcDbPoint
 10
9.229217999999999
 20
2.034072
 30
0.0
  0
POINT
  5
293
330
27B
100
AcDbEntity
  8
DEFPOINTS
  6
ByBlock
 62
     0
440
 16777216
100
AcDbPoint
 10
8.707899000000001
 20
2.034072
 30
0.0
  0
ENDBLK
  5
294
330
27B
100
AcDbEntity
  8
0
100
AcDbBlockEnd
  0
BLOCK
  5
2AF
330
295
100
AcDbEntity
  8
0
100
AcDbBlockBegin
  2
*D9
 70
     1
 10
0.0
 20
0.0
 30
0.0
  3
*D9
  1

  0
LINE
  5
2B0
330
295
100
AcDbEntity
  8
0
  6
ByBlock
 62
     0
440
 16777216
100
AcDbLine
 10
2.724765
 20
0.501572
 30
0.0
 11
2.724765
 21
-0.167826
 31
0.0
  0
LINE
  5
2B1
330
295
100
AcDbEntity
  8
0
  6
ByBlock
 62
     0
440
 16777216
100
AcDbLine
 10
3.349765
 20
0.501572
 30
0.0
 11
3.349765
 21
-0.167826
 31
0.0
  0
LINE
  5
2B2
330
295
100
AcDbEntity
  8
0
  6
ByBlock
 62
     0
440
 16777216
100
AcDbLine
 10
2.874765
 20
0.012174
 30
0.0
 11
3.199765
 21
0.012174
 31
0.0
  0
LINE
  5
2B3
330
295
100
AcDbEntity
  8
0
  6
ByBlock
 62
     0
440
 16777216
100
AcDbLine
 10
3.349765
 20
0.012174
 30
0.0
 11
3.521787
 21
0.012174
 31
0.0
  0
SOLID
  5
2B4
330
295
100
AcDbEntity
  8
0
  6
ByBlock
 62
     0
440
 16777216
100
AcDbTrace
 10
2.874765
 20
0.037174
 30
0.0
 11
2.874765
 21
-0.012826
 31
0.0
 12
2.724765
 22
0.012174
 32
0.0
 13
2.724765
 23
0.012174
 33
0.0
  0
SOLID
  5
2B5
330
295
100
AcDbEntity
  8
0
  6
ByBlock
 62
     0
440
 16777216
100
AcDbTrace
 10
3.199765
 20
0.037174
 30
0.0
 11
3.199765
 21
-0.012826
 31
0.0
 12
3.349765
 22
0.012174
 32
0.0
 13
3.349765
 23
0.012174
 33
0.0
  0
MTEXT
  5
2B6
330
295
100
AcDbEntity
  8
0
  6
ByBlock
 62
     0
440
 16777216
100
AcDbMText
 10
3.84893
 20
0.012174
 30
0.0
 40
0.12
 41
0.0
 46
0.0
 71
     5
 72
     1
  1
\A1;∅.625\PTYP.
 73
     1
 44
1.0
  0
POINT
  5
2B7
330
295
100
AcDbEntity
  8
DEFPOINTS
  6
ByBlock
 62
     0
440
 16777216
100
AcDbPoint
 10
2.724765
 20
0.564072
 30
0.0
  0
POINT
  5
2B8
330
295
100
AcDbEntity
  8
DEFPOINTS
  6
ByBlock
 62
     0
440
 16777216
100
AcDbPoint
 10
3.349765
 20
0.564072
 30
0.0
  0
POINT
  5
2B9
330
295
100
AcDbEntity
  8
DEFPOINTS
  6
ByBlock
 62
     0
440
 16777216
100
AcDbPoint
 10
3.349765
 20
0.012174
 30
0.0
  0
ENDBLK
  5
2BA
330
295
100
AcDbEntity
  8
0
100
AcDbBlockEnd
  0
BLOCK
  5
2C7
330
2BB
100
AcDbEntity
  8
0
100
AcDbBlockBegin
  2
*D10
 70
     1
 10
0.0
 20
0.0
 30
0.0
  3
*D10
  1

  0
LINE
  5
2C8
330
2BB
100
AcDbEntity
  8
0
  6
ByBlock
 62
     0
440
 16777216
100
AcDbLine
 10
4.863674999999999
 20
3.372203999999999
 30
0.0
 11
4.713675
 21
3.372203999999999
 31
0.0
  0
LINE
  5
2C9
330
2BB
100
AcDbEntity
  8
0
  6
ByBlock
 62
     0
440
 16777216
100
AcDbLine
 10
4.713675
 20
3.372203999999999
 30
0.0
 11
3.945823999999999
 21
3.983176999999999
 31
0.0
  0
MTEXT
  5
2CA
330
2BB
100
AcDbEntity
  8
0
  6
ByBlock
 62
     0
440
 16777216
100
AcDbMText
 10
5.479389
 20
3.372203999999999
 30
0.0
 40
0.12
 41
0.0
 46
0.0
 71
     5
 72
     1
  1
\A1;∅.265 THRU\PX 4\PTYP.
 73
     1
 44
1.0
  0
SOLID
  5
2CB
330
2BB
100
AcDbEntity
  8
0
  6
ByBlock
 62
     0
440
 16777216
100
AcDbTrace
 10
3.96139
 20
4.00274
 30
0.0
 11
3.930258
 21
3.963613999999999
 31
0.0
 12
3.828448
 22
4.076573
 32
0.0
 13
3.828448
 23
4.076573
 33
0.0
  0
LINE
  5
2CC
330
2BB
100
AcDbEntity
  8
0
  6
ByBlock
 62
     0
440
 16777216
100
AcDbLine
 10
3.634765
 20
4.159072
 30
0.0
 11
3.814764999999999
 21
4.159072
 31
0.0
  0
LINE
  5
2CD
330
2BB
100
AcDbEntity
  8
0
  6
ByBlock
 62
     0
440
 16777216
100
AcDbLine
 10
3.724765
 20
4.069072
 30
0.0
 11
3.724765
 21
4.249071999999999
 31
0.0
  0
POINT
  5
2CE
330
2BB
100
AcDbEntity
  8
DEFPOINTS
  6
ByBlock
 62
     0
440
 16777216
100
AcDbPoint
 10
3.828448
 20
4.076573
 30
0.0
  0
POINT
  5
2CF
330
2BB
100
AcDbEntity
  8
DEFPOINTS
  6
ByBlock
 62
     0
440
 16777216
100
AcDbPoint
 10
3.621081999999999
 20
4.241571999999999
 30
0.0
  0
ENDBLK
  5
2D0
330
2BB
100
AcDbEntity
  8
0
100
AcDbBlockEnd
  0
BLOCK
  5
2DF
330
2D1
100
AcDbEntity
  8
0
100
AcDbBlockBegin
  2
*D11
 70
     1
 10
0.0
 20
0.0
 30
0.0
  3
*D11
  1

  0
LINE
  5
2E0
330
2D1
100
AcDbEntity
  8
0
  6
ByBlock
 62
     0
440
 16777216
100
AcDbLine
 10
4.426690999999999
 20
5.284072
 30
0.0
 11
4.993076
 21
5.284072
 31
0.0
  0
LINE
  5
2E1
330
2D1
100
AcDbEntity
  8
0
  6
ByBlock
 62
     0
440
 16777216
100
AcDbLine
 10
4.330287
 20
6.409072
 30
0.0
 11
4.993076
 21
6.409072
 31
0.0
  0
LINE
  5
2E2
330
2D1
100
AcDbEntity
  8
0
  6
ByBlock
 62
     0
440
 16777216
100
AcDbLine
 10
4.813076
 20
5.434072
 30
0.0
 11
4.813076
 21
5.596572
 31
0.0
  0
LINE
  5
2E3
330
2D1
100
AcDbEntity
  8
0
  6
ByBlock
 62
     0
440
 16777216
100
AcDbLine
 10
4.813076
 20
6.259071999999999
 30
0.0
 11
4.813076
 21
6.096572
 31
0.0
  0
SOLID
  5
2E4
330
2D1
100
AcDbEntity
  8
0
  6
ByBlock
 62
     0
440
 16777216
100
AcDbTrace
 10
4.788076
 20
5.434072
 30
0.0
 11
4.838076
 21
5.434072
 31
0.0
 12
4.813076
 22
5.284072
 32
0.0
 13
4.813076
 23
5.284072
 33
0.0
  0
SOLID
  5
2E5
330
2D1
100
AcDbEntity
  8
0
  6
ByBlock
 62
     0
440
 16777216
100
AcDbTrace
 10
4.788076
 20
6.259071999999999
 30
0.0
 11
4.838076
 21
6.259071999999999
 31
0.0
 12
4.813076
 22
6.409072
 32
0.0
 13
4.813076
 23
6.409072
 33
0.0
  0
MTEXT
  5
2E6
330
2D1
100
AcDbEntity
  8
0
  6
ByBlock
 62
     0
440
 16777216
100
AcDbMText
 10
4.813076
 20
5.846572
 30
0.0
 40
0.12
 41
0.0
 46
0.0
 71
     5
 72
     1
  1
\A1;1.125\PTYP.
 73
     1
 44
1.0
  0
POINT
  5
2E7
330
2D1
100
AcDbEntity
  8
DEFPOINTS
  6
ByBlock
 62
     0
440
 16777216
100
AcDbPoint
 10
4.364190999999999
 20
5.284072
 30
0.0
  0
POINT
  5
2E8
330
2D1
100
AcDbEntity
  8
DEFPOINTS
  6
ByBlock
 62
     0
440
 16777216
100
AcDbPoint
 10
4.267787
 20
6.409072
 30
0.0
  0
POINT
  5
2E9
330
2D1
100
AcDbEntity
  8
DEFPOINTS
  6
ByBlock
 62
     0
440
 16777216
100
AcDbPoint
 10
4.813076
 20
6.409072
 30
0.0
  0
ENDBLK
  5
2EA
330
2D1
100
AcDbEntity
  8
0
100
AcDbBlockEnd
  0
BLOCK
  5
305
330
2EB
100
AcDbEntity
  8
0
100
AcDbBlockBegin
  2
*D12
 70
     1
 10
0.0
 20
0.0
 30
0.0
  3
*D12
  1

  0
LINE
  5
488
330
2EB
100
AcDbEntity
  8
DIMS_TEXT
 62
     0
440
 16777216
370
    -2
100
AcDbLine
 10
3.037265
 20
7.009504999999999
 30
0.0
 11
3.037265
 21
7.585030999999999
 31
0.0
  0
LINE
  5
489
330
2EB
100
AcDbEntity
  8
DIMS_TEXT
 62
     0
440
 16777216
370
    -2
100
AcDbLine
 10
3.724765
 20
7.009504999999999
 30
0.0
 11
3.724765
 21
7.585030999999999
 31
0.0
  0
LINE
  5
48A
330
2EB
100
AcDbEntity
  8
DIMS_TEXT
 62
     0
440
 16777216
370
    -2
100
AcDbLine
 10
3.187265
 20
7.405031
 30
0.0
 11
3.574765
 21
7.405031
 31
0.0
  0
LINE
  5
48B
330
2EB
100
AcDbEntity
  8
DIMS_TEXT
 62
     0
440
 16777216
370
    -2
100
AcDbLine
 10
3.724765
 20
7.405031
 30
0.0
 11
4.543076
 21
7.405031
 31
0.0
  0
SOLID
  5
48C
330
2EB
100
AcDbEntity
  8
DIMS_TEXT
 62
     0
440
 16777216
100
AcDbTrace
 10
3.187265
 20
7.430031
 30
0.0
 11
3.187265
 21
7.380030999999999
 31
0.0
 12
3.037265
 22
7.405031
 32
0.0
 13
3.037265
 23
7.405031
 33
0.0
  0
SOLID
  5
48D
330
2EB
100
AcDbEntity
  8
DIMS_TEXT
 62
     0
440
 16777216
100
AcDbTrace
 10
3.574765
 20
7.430031
 30
0.0
 11
3.574765
 21
7.380030999999999
 31
0.0
 12
3.724765
 22
7.405031
 32
0.0
 13
3.724765
 23
7.405031
 33
0.0
  0
MTEXT
  5
48E
330
2EB
100
AcDbEntity
  8
DIMS_TEXT
 62
     0
440
 16777216
100
AcDbMText
 10
4.813076
 20
7.405031
 30
0.0
 40
0.12
 41
0.0
 46
0.0
 71
     5
 72
     1
  1
\A1;.687\PTYP.
 73
     1
 44
1.0
  0
POINT
  5
48F
330
2EB
100
AcDbEntity
  8
DEFPOINTS
 62
     0
440
 16777216
100
AcDbPoint
 10
3.037265
 20
6.947004999999999
 30
0.0
  0
POINT
  5
490
330
2EB
100
AcDbEntity
  8
DEFPOINTS
 62
     0
440
 16777216
100
AcDbPoint
 10
3.724765
 20
6.947004999999999
 30
0.0
  0
POINT
  5
491
330
2EB
100
AcDbEntity
  8
DEFPOINTS
 62
     0
440
 16777216
100
AcDbPoint
 10
3.724765
 20
7.405031
 30
0.0
  0
ENDBLK
  5
310
330
2EB
100
AcDbEntity
  8
0
100
AcDbBlockEnd
  0
BLOCK
  5
32B
330
311
100
AcDbEntity
  8
0
100
AcDbBlockBegin
  2
*D13
 70
     1
 10
0.0
 20
0.0
 30
0.0
  3
*D13
  1

  0
LINE
  5
32C
330
311
100
AcDbEntity
  8
0
  6
ByBlock
 62
     0
440
 16777216
100
AcDbLine
 10
3.037265
 20
7.009504999999999
 30
0.0
 11
3.037265
 21
8.205077000000001
 31
0.0
  0
LINE
  5
32D
330
311
100
AcDbEntity
  8
0
  6
ByBlock
 62
     0
440
 16777216
100
AcDbLine
 10
4.099765
 20
6.846572
 30
0.0
 11
4.099765
 21
8.205077000000001
 31
0.0
  0
LINE
  5
32E
330
311
100
AcDbEntity
  8
0
  6
ByBlock
 62
     0
440
 16777216
100
AcDbLine
 10
3.187265
 20
8.025076999999999
 30
0.0
 11
3.949765
 21
8.025076999999999
 31
0.0
  0
LINE
  5
32F
330
311
100
AcDbEntity
  8
0
  6
ByBlock
 62
     0
440
 16777216
100
AcDbLine
 10
4.099765
 20
8.025076999999999
 30
0.0
 11
4.491648
 21
8.025076999999999
 31
0.0
  0
SOLID
  5
330
330
311
100
AcDbEntity
  8
0
  6
ByBlock
 62
     0
440
 16777216
100
AcDbTrace
 10
3.187265
 20
8.050076999999999
 30
0.0
 11
3.187265
 21
8.000077
 31
0.0
 12
3.037265
 22
8.025076999999999
 32
0.0
 13
3.037265
 23
8.025076999999999
 33
0.0
  0
SOLID
  5
331
330
311
100
AcDbEntity
  8
0
  6
ByBlock
 62
     0
440
 16777216
100
AcDbTrace
 10
3.949765
 20
8.050076999999999
 30
0.0
 11
3.949765
 21
8.000077
 31
0.0
 12
4.099765
 22
8.025076999999999
 32
0.0
 13
4.099765
 23
8.025076999999999
 33
0.0
  0
MTEXT
  5
332
330
311
100
AcDbEntity
  8
0
  6
ByBlock
 62
     0
440
 16777216
100
AcDbMText
 10
4.813076
 20
8.025076999999999
 30
0.0
 40
0.12
 41
0.0
 46
0.0
 71
     5
 72
     1
  1
\A1;1.063\PTYP.
 73
     1
 44
1.0
  0
POINT
  5
333
330
311
100
AcDbEntity
  8
DEFPOINTS
  6
ByBlock
 62
     0
440
 16777216
100
AcDbPoint
 10
3.037265
 20
6.947004999999999
 30
0.0
  0
POINT
  5
334
330
311
100
AcDbEntity
  8
DEFPOINTS
  6
ByBlock
 62
     0
440
 16777216
100
AcDbPoint
 10
4.099765
 20
6.784072
 30
0.0
  0
POINT
  5
335
330
311
100
AcDbEntity
  8
DEFPOINTS
  6
ByBlock
 62
     0
440
 16777216
100
AcDbPoint
 10
4.099765
 20
8.025076999999999
 30
0.0
  0
ENDBLK
  5
336
330
311
100
AcDbEntity
  8
0
100
AcDbBlockEnd
  0
BLOCK
  5
338
330
337
100
AcDbEntity
  8
0
100
AcDbBlockBegin
  2
*D14
 70
     1
 10
0.0
 20
0.0
 30
0.0
  3
*D14
  1

  0
LINE
  5
339
330
337
100
AcDbEntity
  8
0
  6
ByBlock
 62
     0
440
 16777216
100
AcDbLine
 10
1.974765
 20
6.846572
 30
0.0
 11
1.974765
 21
8.777427000000001
 31
0.0
  0
LINE
  5
33A
330
337
100
AcDbEntity
  8
0
  6
ByBlock
 62
     0
440
 16777216
100
AcDbLine
 10
4.099765
 20
6.846572
 30
0.0
 11
4.099765
 21
8.777427000000001
 31
0.0
  0
LINE
  5
33B
330
337
100
AcDbEntity
  8
0
  6
ByBlock
 62
     0
440
 16777216
100
AcDbLine
 10
2.124765
 20
8.597426999999999
 30
0.0
 11
2.707265
 21
8.597426999999999
 31
0.0
  0
LINE
  5
33C
330
337
100
AcDbEntity
  8
0
  6
ByBlock
 62
     0
440
 16777216
100
AcDbLine
 10
3.949765
 20
8.597426999999999
 30
0.0
 11
3.367265
 21
8.597426999999999
 31
0.0
  0
SOLID
  5
33D
330
337
100
AcDbEntity
  8
0
  6
ByBlock
 62
     0
440
 16777216
100
AcDbTrace
 10
2.124765
 20
8.622427
 30
0.0
 11
2.124765
 21
8.572427000000001
 31
0.0
 12
1.974765
 22
8.597426999999999
 32
0.0
 13
1.974765
 23
8.597426999999999
 33
0.0
  0
SOLID
  5
33E
330
337
100
AcDbEntity
  8
0
  6
ByBlock
 62
     0
440
 16777216
100
AcDbTrace
 10
3.949765
 20
8.622427
 30
0.0
 11
3.949765
 21
8.572427000000001
 31
0.0
 12
4.099765
 22
8.597426999999999
 32
0.0
 13
4.099765
 23
8.597426999999999
 33
0.0
  0
MTEXT
  5
33F
330
337
100
AcDbEntity
  8
0
  6
ByBlock
 62
     0
440
 16777216
100
AcDbMText
 10
3.037265
 20
8.597426999999999
 30
0.0
 40
0.12
 41
0.0
 46
0.0
 71
     5
 72
     1
  1
\A1;2.125
 73
     1
 44
1.0
  0
POINT
  5
340
330
337
100
AcDbEntity
  8
DEFPOINTS
  6
ByBlock
 62
     0
440
 16777216
100
AcDbPoint
 10
1.974765
 20
6.784072
 30
0.0
  0
POINT
  5
341
330
337
100
AcDbEntity
  8
DEFPOINTS
  6
ByBlock
 62
     0
440
 16777216
100
AcDbPoint
 10
4.099765
 20
6.784072
 30
0.0
  0
POINT
  5
342
330
337
100
AcDbEntity
  8
DEFPOINTS
  6
ByBlock
 62
     0
440
 16777216
100
AcDbPoint
 10
4.099765
 20
8.597426999999999
 30
0.0
  0
ENDBLK
  5
343
330
337
100
AcDbEntity
  8
0
100
AcDbBlockEnd
  0
BLOCK
  5
346
330
345
100
AcDbEntity
  8
0
100
AcDbBlockBegin
  2
*D15
 70
     1
 10
0.0
 20
0.0
 30
0.0
  3
*D15
  1

  0
LINE
  5
347
330
345
100
AcDbEntity
  8
0
  6
ByBlock
 62
     0
440
 16777216
100
AcDbLine
 10
1.974765
 20
2.034072
 30
0.0
 11
1.142771999999999
 21
2.034072
 31
0.0
  0
LINE
  5
348
330
345
100
AcDbEntity
  8
0
  6
ByBlock
 62
     0
440
 16777216
100
AcDbLine
 10
1.831216999999999
 20
5.284072
 30
0.0
 11
1.142771999999999
 21
5.284072
 31
0.0
  0
LINE
  5
349
330
345
100
AcDbEntity
  8
0
  6
ByBlock
 62
     0
440
 16777216
100
AcDbLine
 10
1.322771999999999
 20
2.184072
 30
0.0
 11
1.322771999999999
 21
3.509072
 31
0.0
  0
LINE
  5
34A
330
345
100
AcDbEntity
  8
0
  6
ByBlock
 62
     0
440
 16777216
100
AcDbLine
 10
1.322771999999999
 20
5.134071999999999
 30
0.0
 11
1.322771999999999
 21
3.809072
 31
0.0
  0
SOLID
  5
34B
330
345
100
AcDbEntity
  8
0
  6
ByBlock
 62
     0
440
 16777216
100
AcDbTrace
 10
1.297771999999999
 20
2.184072
 30
0.0
 11
1.347771999999999
 21
2.184072
 31
0.0
 12
1.322771999999999
 22
2.034072
 32
0.0
 13
1.322771999999999
 23
2.034072
 33
0.0
  0
SOLID
  5
34C
330
345
100
AcDbEntity
  8
0
  6
ByBlock
 62
     0
440
 16777216
100
AcDbTrace
 10
1.297771999999999
 20
5.134071999999999
 30
0.0
 11
1.347771999999999
 21
5.134071999999999
 31
0.0
 12
1.322771999999999
 22
5.284072
 32
0.0
 13
1.322771999999999
 23
5.284072
 33
0.0
  0
MTEXT
  5
34D
330
345
100
AcDbEntity
  8
0
  6
ByBlock
 62
     0
440
 16777216
100
AcDbMText
 10
1.322771999999999
 20
3.659072
 30
0.0
 40
0.12
 41
0.0
 46
0.0
 71
     5
 72
     1
  1
\A1;3.250
 73
     1
 44
1.0
  0
POINT
  5
34E
330
345
100
AcDbEntity
  8
DEFPOINTS
  6
ByBlock
 62
     0
440
 16777216
100
AcDbPoint
 10
2.037265
 20
2.034072
 30
0.0
  0
POINT
  5
34F
330
345
100
AcDbEntity
  8
DEFPOINTS
  6
ByBlock
 62
     0
440
 16777216
100
AcDbPoint
 10
1.893716999999999
 20
5.284072
 30
0.0
  0
POINT
  5
350
330
345
100
AcDbEntity
  8
DEFPOINTS
  6
ByBlock
 62
     0
440
 16777216
100
AcDbPoint
 10
1.322771999999999
 20
5.284072
 30
0.0
  0
ENDBLK
  5
351
330
345
100
AcDbEntity
  8
0
100
AcDbBlockEnd
  0
BLOCK
  5
36D
330
353
100
AcDbEntity
  8
0
100
AcDbBlockBegin
  2
*D16
 70
     1
 10
0.0
 20
0.0
 30
0.0
  3
*D16
  1

  0
LINE
  5
36E
330
353
100
AcDbEntity
  8
0
  6
ByBlock
 62
     0
440
 16777216
100
AcDbLine
 10
2.692265
 20
0.5340720000000001
 30
0.0
 11
0.52102
 21
0.5340720000000001
 31
0.0
  0
LINE
  5
36F
330
353
100
AcDbEntity
  8
0
  6
ByBlock
 62
     0
440
 16777216
100
AcDbLine
 10
1.912265
 20
6.784072
 30
0.0
 11
0.52102
 21
6.784072
 31
0.0
  0
LINE
  5
370
330
353
100
AcDbEntity
  8
0
  6
ByBlock
 62
     0
440
 16777216
100
AcDbLine
 10
0.70102
 20
0.6840720000000001
 30
0.0
 11
0.70102
 21
4.491541999999999
 31
0.0
  0
LINE
  5
371
330
353
100
AcDbEntity
  8
0
  6
ByBlock
 62
     0
440
 16777216
100
AcDbLine
 10
0.70102
 20
6.634071999999999
 30
0.0
 11
0.70102
 21
4.791541999999999
 31
0.0
  0
SOLID
  5
372
330
353
100
AcDbEntity
  8
0
  6
ByBlock
 62
     0
440
 16777216
100
AcDbTrace
 10
0.67602
 20
0.6840720000000001
 30
0.0
 11
0.7260200000000001
 21
0.6840720000000001
 31
0.0
 12
0.70102
 22
0.5340720000000001
 32
0.0
 13
0.70102
 23
0.5340720000000001
 33
0.0
  0
SOLID
  5
373
330
353
100
AcDbEntity
  8
0
  6
ByBlock
 62
     0
440
 16777216
100
AcDbTrace
 10
0.67602
 20
6.634071999999999
 30
0.0
 11
0.7260200000000001
 21
6.634071999999999
 31
0.0
 12
0.70102
 22
6.784072
 32
0.0
 13
0.70102
 23
6.784072
 33
0.0
  0
MTEXT
  5
374
330
353
100
AcDbEntity
  8
0
  6
ByBlock
 62
     0
440
 16777216
100
AcDbMText
 10
0.70102
 20
4.641541999999999
 30
0.0
 40
0.12
 41
0.0
 46
0.0
 71
     5
 72
     1
  1
\A1;6.25
 73
     1
 44
1.0
  0
POINT
  5
375
330
353
100
AcDbEntity
  8
DEFPOINTS
  6
ByBlock
 62
     0
440
 16777216
100
AcDbPoint
 10
2.754765
 20
0.5340720000000001
 30
0.0
  0
POINT
  5
376
330
353
100
AcDbEntity
  8
DEFPOINTS
  6
ByBlock
 62
     0
440
 16777216
100
AcDbPoint
 10
1.974765
 20
6.784072
 30
0.0
  0
POINT
  5
377
330
353
100
AcDbEntity
  8
DEFPOINTS
  6
ByBlock
 62
     0
440
 16777216
100
AcDbPoint
 10
0.70102
 20
6.784072
 30
0.0
  0
ENDBLK
  5
378
330
353
100
AcDbEntity
  8
0
100
AcDbBlockEnd
  0
BLOCK
  5
3F8
330
3E9
100
AcDbEntity
  8
0
100
AcDbBlockBegin
  2
TITLE_BLOCK
 70
     0
 10
0.0
 20
0.0
 30
0.0
  3
TITLE_BLOCK
  1

  0
TEXT
  5
3EA
330
3E9
100
AcDbEntity
  8
DIMS_TEXT
100
AcDbText
 10
-2.625251
 20
-1.013129
 30
0.0
 40
0.2
  1
HAR121   135818(C1)/135817(C2)   1:1
 41
0.7
100
AcDbText
  0
TEXT
  5
3EB
330
3E9
100
AcDbEntity
  8
DIMS_TEXT
100
AcDbText
 10
-2.687755
 20
-0.107889
 30
0.0
 40
0.15
  1
Tel. (508) 278-2422     Fax (508) 278-7863
 41
0.9
100
AcDbText
  0
TEXT
  5
3EC
330
3E9
100
AcDbEntity
  8
DIMS_TEXT
100
AcDbText
 10
-2.413383
 20
0.5243790000000001
 30
0.0
 40
0.2
  1
Two Way Right Angle Gear Drive
 41
0.9
100
AcDbText
  0
TEXT
  5
3ED
330
3E9
100
AcDbEntity
  8
DIMS_TEXT
100
AcDbText
 10
-1.826670999999999
 20
0.987066
 30
0.0
 40
0.3
  1
 MITRPAK
 41
1.5
100
AcDbText
  0
LINE
  5
3EE
330
3E9
100
AcDbEntity
  8
DIMS_TEXT
100
AcDbLine
 10
-2.723036999999999
 20
-0.5330960000000001
 30
0.0
 11
2.500333
 21
-0.5330960000000001
 31
0.0
  0
LINE
  5
3EF
330
3E9
100
AcDbEntity
  8
DIMS_TEXT
100
AcDbLine
 10
-2.723036999999999
 20
-0.199514
 30
0.0
 11
2.500333
 21
-0.199514
 31
0.0
  0
LINE
  5
3F0
330
3E9
100
AcDbEntity
  8
DIMS_TEXT
100
AcDbLine
 10
-2.723036999999999
 20
0.125931
 30
0.0
 11
2.500333
 21
0.125931
 31
0.0
  0
LINE
  5
3F1
330
3E9
100
AcDbEntity
  8
DIMS_TEXT
100
AcDbLine
 10
-2.723036999999999
 20
0.451377
 30
0.0
 11
2.500333
 21
0.451377
 31
0.0
  0
LINE
  5
3F2
330
3E9
100
AcDbEntity
  8
DIMS_TEXT
100
AcDbLine
 10
-2.723036999999999
 20
0.8744569999999999
 30
0.0
 11
2.500333
 21
0.8744569999999999
 31
0.0
  0
TEXT
  5
3F3
330
3E9
100
AcDbEntity
  8
DIMS_TEXT
100
AcDbText
 10
-2.633399999999999
 20
-0.468007
 30
0.0
 40
0.2
  1
MODEL   PART NUMBER  RATIO
100
AcDbText
  0
LWPOLYLINE
  5
3F4
330
3E9
100
AcDbEntity
  8
DIMS_TEXT
100
AcDbPolyline
 90
        4
 70
     1
 43
0.0
 10
-2.723036999999999
 20
1.39517
 10
2.500333
 20
1.39517
 10
2.500333
 20
-1.143307
 10
-2.723036999999999
 20
-1.143307
  0
TEXT
  5
3F5
330
3E9
100
AcDbEntity
  8
DIMS_TEXT
100
AcDbText
 10
-2.687755
 20
0.215921
 30
0.0
 40
0.15
  1
Uxbridge, MA 01569              U.S.A.
100
AcDbText
  0
LINE
  5
3F6
330
3E9
100
AcDbEntity
  8
DIMS_TEXT
100
AcDbLine
 10
-1.394784999999999
 20
-0.199514
 30
0.0
 11
-1.394784999999999
 21
-1.143307
 31
0.0
  0
LINE
  5
3F7
330
3E9
100
AcDbEntity
  8
DIMS_TEXT
100
AcDbLine
 10
1.294312999999999
 20
-0.199514
 30
0.0
 11
1.294312999999999
 21
-1.143307
 31
0.0
  0
ENDBLK
  5
3F9
330
3E9
100
AcDbEntity
  8
0
100
AcDbBlockEnd
  0
ENDSEC
  0
SECTION
  2
ENTITIES
  0
LINE
  5
AA
330
18
100
AcDbEntity
  8
CTR_LINES
100
AcDbLine
 10
7.00771
 20
5.284072
 30
0.0
 11
12.861603
 21
5.284072
 31
0.0
  0
CIRCLE
  5
AB
330
18
100
AcDbEntity
  8
0
100
AcDbCircle
 10
11.854218
 20
4.159072
 30
0.0
 40
0.375
  0
LINE
  5
AC
330
18
100
AcDbEntity
  8
0
100
AcDbLine
 10
9.229217999999999
 20
2.034072
 30
0.0
 11
12.229218
 21
2.034072
 31
0.0
  0
LINE
  5
AE
330
18
100
AcDbEntity
  8
0
100
AcDbLine
 10
11.229218
 20
5.784072
 30
0.0
 11
12.464218
 21
5.784072
 31
0.0
  0
LINE
  5
AF
330
18
100
AcDbEntity
  8
0
100
AcDbLine
 10
11.225233
 20
6.221072
 30
0.0
 11
12.402218
 21
6.221072
 31
0.0
  0
LINE
  5
B0
330
18
100
AcDbEntity
  8
0
100
AcDbLine
 10
11.354218
 20
2.346071999999999
 30
0.0
 11
12.167218
 21
2.346071999999999
 31
0.0
  0
CIRCLE
  5
B1
330
18
100
AcDbEntity
  8
0
100
AcDbCircle
 10
11.854218
 20
4.159072
 30
0.0
 40
0.1325
  0
LINE
  5
B2
330
18
100
AcDbEntity
  8
CTR_LINES
100
AcDbLine
 10
11.422587
 20
4.159072
 30
0.0
 11
12.414252
 21
4.159072
 31
0.0
  0
LINE
  5
B5
330
18
100
AcDbEntity
  8
CTR_LINES
100
AcDbLine
 10
3.724765
 20
6.076037
 30
0.0
 11
3.724765
 21
6.947004999999999
 31
0.0
  0
CIRCLE
  5
B6
330
18
100
AcDbEntity
  8
0
100
AcDbCircle
 10
3.037265
 20
5.284072
 30
0.0
 40
0.6890000000000001
  0
LINE
  5
B7
330
18
100
AcDbEntity
  8
0
100
AcDbLine
 10
2.037265
 20
6.628072
 30
0.0
 11
2.037265
 21
5.13873
 31
0.0
  0
LINE
  5
B8
330
18
100
AcDbEntity
  8
0
100
AcDbLine
 10
4.037265
 20
6.628072
 30
0.0
 11
4.037265
 21
3.940072
 31
0.0
  0
LINE
  5
B9
330
18
100
AcDbEntity
  8
CTR_LINES
100
AcDbLine
 10
3.037265
 20
0.377381
 30
0.0
 11
3.037265
 21
6.947004999999999
 31
0.0
  0
LINE
  5
BC
330
18
100
AcDbEntity
  8
CTR_LINES
100
AcDbLine
 10
11.854218
 20
6.504755999999999
 30
0.0
 11
11.854218
 21
3.629032
 31
0.0
  0
LINE
  5
BD
330
18
100
AcDbEntity
  8
CTR_LINES
100
AcDbLine
 10
10.729218
 20
6.830688999999999
 30
0.0
 11
10.729218
 21
0.352535
 31
0.0
  0
LINE
  5
BE
330
18
100
AcDbEntity
  8
0
100
AcDbLine
 10
8.604217999999999
 20
6.784072
 30
0.0
 11
8.604217999999999
 21
3.784072
 31
0.0
  0
LINE
  5
C0
330
18
100
AcDbEntity
  8
0
100
AcDbLine
 10
3.975265
 20
2.346071999999999
 30
0.0
 11
3.349264999999999
 21
2.346071999999999
 31
0.0
  0
ARC
  5
C1
330
18
100
AcDbEntity
  8
0
100
AcDbCircle
 10
3.881264999999999
 20
3.940072
 30
0.0
 40
0.156
100
AcDbArc
 50
270.0
 51
0.0
  0
LINE
  5
C2
330
18
100
AcDbEntity
  8
0
100
AcDbLine
 10
3.349264999999999
 20
3.784072
 30
0.0
 11
4.099765
 21
3.784072
 31
0.0
  0
LINE
  5
C3
330
18
100
AcDbEntity
  8
0
100
AcDbLine
 10
2.037265
 20
2.034072
 30
0.0
 11
4.037265
 21
2.034072
 31
0.0
  0
LINE
  5
C4
330
18
100
AcDbEntity
  8
0
100
AcDbLine
 10
2.037265
 20
3.784072
 30
0.0
 11
2.037265
 21
2.034072
 31
0.0
  0
LINE
  5
C5
330
18
100
AcDbEntity
  8
0
100
AcDbLine
 10
2.787265
 20
2.408072
 30
0.0
 11
2.787265
 21
3.722072
 31
0.0
  0
LINE
  5
C6
330
18
100
AcDbEntity
  8
0
100
AcDbLine
 10
3.287265
 20
2.408072
 30
0.0
 11
3.287265
 21
3.722072
 31
0.0
  0
ARC
  5
C7
330
18
100
AcDbEntity
  8
0
100
AcDbCircle
 10
2.099264999999999
 20
2.284072
 30
0.0
 40
0.062
100
AcDbArc
 50
90.0
 51
180.0
  0
LINE
  5
C8
330
18
100
AcDbEntity
  8
0
100
AcDbLine
 10
2.037265
 20
2.034072
 30
0.0
 11
2.037265
 21
2.284072
 31
0.0
  0
LINE
  5
C9
330
18
100
AcDbEntity
  8
0
100
AcDbLine
 10
2.725265
 20
2.346071999999999
 30
0.0
 11
3.349264999999999
 21
2.346071999999999
 31
0.0
  0
LINE
  5
CA
330
18
100
AcDbEntity
  8
0
100
AcDbLine
 10
2.725265
 20
2.346071999999999
 30
0.0
 11
2.217265
 21
2.346071999999999
 31
0.0
  0
LINE
  5
CB
330
18
100
AcDbEntity
  8
0
100
AcDbLine
 10
2.217265
 20
2.346071999999999
 30
0.0
 11
2.099264999999999
 21
2.346071999999999
 31
0.0
  0
ARC
  5
CC
330
18
100
AcDbEntity
  8
0
100
AcDbCircle
 10
2.725265
 20
2.408072
 30
0.0
 40
0.062
100
AcDbArc
 50
270.0
 51
0.0
  0
ARC
  5
CD
330
18
100
AcDbEntity
  8
0
100
AcDbCircle
 10
3.349264999999999
 20
2.408072
 30
0.0
 40
0.062
100
AcDbArc
 50
180.0
 51
270.0
  0
LINE
  5
CE
330
18
100
AcDbEntity
  8
0
100
AcDbLine
 10
2.193265
 20
3.784072
 30
0.0
 11
1.974765
 21
3.784072
 31
0.0
  0
ARC
  5
CF
330
18
100
AcDbEntity
  8
0
100
AcDbCircle
 10
2.193265
 20
3.940072
 30
0.0
 40
0.156
100
AcDbArc
 50
180.0
 51
270.0
  0
LINE
  5
D0
330
18
100
AcDbEntity
  8
0
100
AcDbLine
 10
2.037265
 20
3.940072
 30
0.0
 11
2.037265
 21
6.628072
 31
0.0
  0
LINE
  5
D1
330
18
100
AcDbEntity
  8
0
100
AcDbLine
 10
1.974765
 20
3.784072
 30
0.0
 11
1.974765
 21
5.07673
 31
0.0
  0
LINE
  5
D2
330
18
100
AcDbEntity
  8
0
100
AcDbLine
 10
1.974765
 20
4.535542999999999
 30
0.0
 11
1.975265
 21
4.535542999999999
 31
0.0
  0
ARC
  5
D3
330
18
100
AcDbEntity
  8
0
100
AcDbCircle
 10
1.975265
 20
5.13873
 30
0.0
 40
0.062
100
AcDbArc
 50
270.0
 51
0.0
  0
LINE
  5
D4
330
18
100
AcDbEntity
  8
0
100
AcDbLine
 10
1.975265
 20
5.07673
 30
0.0
 11
1.974765
 21
5.07673
 31
0.0
  0
CIRCLE
  5
D5
330
18
100
AcDbEntity
  8
0
100
AcDbCircle
 10
2.349765
 20
4.159072
 30
0.0
 40
0.1325
  0
CIRCLE
  5
D6
330
18
100
AcDbEntity
  8
0
100
AcDbCircle
 10
3.724765
 20
4.159072
 30
0.0
 40
0.1325
  0
LINE
  5
D7
330
18
100
AcDbEntity
  8
0
100
AcDbLine
 10
3.349264999999999
 20
3.784072
 30
0.0
 11
2.725265
 21
3.784072
 31
0.0
  0
LINE
  5
D8
330
18
100
AcDbEntity
  8
0
100
AcDbLine
 10
2.725265
 20
3.784072
 30
0.0
 11
2.193265
 21
3.784072
 31
0.0
  0
ARC
  5
D9
330
18
100
AcDbEntity
  8
0
100
AcDbCircle
 10
2.725265
 20
3.722072
 30
0.0
 40
0.062
100
AcDbArc
 50
0.0
 51
90.0
  0
ARC
  5
DA
330
18
100
AcDbEntity
  8
0
100
AcDbCircle
 10
3.349264999999999
 20
3.722072
 30
0.0
 40
0.062
100
AcDbArc
 50
90.0
 51
180.0
  0
LINE
  5
DB
330
18
100
AcDbEntity
  8
0
100
AcDbLine
 10
4.037265
 20
3.784072
 30
0.0
 11
4.037265
 21
2.034072
 31
0.0
  0
LINE
  5
DC
330
18
100
AcDbEntity
  8
0
100
AcDbLine
 10
4.037265
 20
2.034072
 30
0.0
 11
4.037265
 21
2.284072
 31
0.0
  0
ARC
  5
DD
330
18
100
AcDbEntity
  8
0
100
AcDbCircle
 10
3.975265
 20
2.284072
 30
0.0
 40
0.062
100
AcDbArc
 50
0.0
 51
90.0
  0
LINE
  5
DF
330
18
100
AcDbEntity
  8
0
100
AcDbLine
 10
4.099765
 20
3.784072
 30
0.0
 11
4.099765
 21
4.535542999999999
 31
0.0
  0
LINE
  5
E0
330
18
100
AcDbEntity
  8
0
100
AcDbLine
 10
4.099765
 20
3.784072
 30
0.0
 11
4.099765
 21
4.535542999999999
 31
0.0
  0
LINE
  5
E1
330
18
100
AcDbEntity
  8
0
100
AcDbLine
 10
4.099765
 20
3.784072
 30
0.0
 11
4.099765
 21
4.535542999999999
 31
0.0
  0
ARC
  5
E2
330
18
100
AcDbEntity
  8
0
100
AcDbCircle
 10
4.099264999999999
 20
4.597542999999999
 30
0.0
 40
0.062
100
AcDbArc
 50
180.0
 51
270.0
  0
LINE
  5
E3
330
18
100
AcDbEntity
  8
0
100
AcDbLine
 10
4.099264999999999
 20
4.535542999999999
 30
0.0
 11
4.099765
 21
4.535542999999999
 31
0.0
  0
LINE
  5
E4
330
18
100
AcDbEntity
  8
0
100
AcDbLine
 10
10.229218
 20
3.659072
 30
0.0
 11
10.229218
 21
2.471071999999999
 31
0.0
  0
LINE
  5
E5
330
18
100
AcDbEntity
  8
0
100
AcDbLine
 10
11.229218
 20
3.659072
 30
0.0
 11
11.229218
 21
2.471071999999999
 31
0.0
  0
LINE
  5
E6
330
18
100
AcDbEntity
  8
0
100
AcDbLine
 10
9.792218
 20
3.663056999999999
 30
0.0
 11
9.792218
 21
2.471071999999999
 31
0.0
  0
LINE
  5
E7
330
18
100
AcDbEntity
  8
0
100
AcDbLine
 10
11.666218
 20
3.663056999999999
 30
0.0
 11
11.666218
 21
2.471071999999999
 31
0.0
  0
ARC
  5
E8
330
18
100
AcDbEntity
  8
0
100
AcDbCircle
 10
10.104218
 20
2.471071999999999
 30
0.0
 40
0.125
100
AcDbArc
 50
270.0
 51
0.0
  0
ARC
  5
E9
330
18
100
AcDbEntity
  8
0
100
AcDbCircle
 10
9.291217999999998
 20
2.284072
 30
0.0
 40
0.062
100
AcDbArc
 50
90.0
 51
180.0
  0
LINE
  5
EA
330
18
100
AcDbEntity
  8
0
100
AcDbLine
 10
9.229217999999999
 20
2.284072
 30
0.0
 11
9.229217999999999
 21
2.034072
 31
0.0
  0
LINE
  5
EB
330
18
100
AcDbEntity
  8
0
100
AcDbLine
 10
10.104218
 20
2.346071999999999
 30
0.0
 11
9.291217999999998
 21
2.346071999999999
 31
0.0
  0
ARC
  5
EC
330
18
100
AcDbEntity
  8
0
100
AcDbCircle
 10
9.667218
 20
2.471071999999999
 30
0.0
 40
0.125
100
AcDbArc
 50
270.0
 51
0.0
  0
ARC
  5
ED
330
18
100
AcDbEntity
  8
0
100
AcDbCircle
 10
11.354218
 20
2.471071999999999
 30
0.0
 40
0.125
100
AcDbArc
 50
180.0
 51
270.0
  0
ARC
  5
EE
330
18
100
AcDbEntity
  8
0
100
AcDbCircle
 10
11.791218
 20
2.471071999999999
 30
0.0
 40
0.125
100
AcDbArc
 50
180.0
 51
270.0
  0
ARC
  5
EF
330
18
100
AcDbEntity
  8
0
100
AcDbCircle
 10
10.104218
 20
3.659072
 30
0.0
 40
0.125
100
AcDbArc
 50
0.0
 51
90.0
  0
LINE
  5
F0
330
18
100
AcDbEntity
  8
0
100
AcDbLine
 10
9.232205999999999
 20
4.206322
 30
0.0
 11
9.232205999999999
 21
4.659072
 31
0.0
  0
LINE
  5
F1
330
18
100
AcDbEntity
  8
0
100
AcDbLine
 10
8.916217999999998
 20
4.222071999999999
 30
0.0
 11
8.916217999999998
 21
4.659072
 31
0.0
  0
ARC
  5
F2
330
18
100
AcDbEntity
  8
0
100
AcDbCircle
 10
9.041217999999998
 20
4.222071999999999
 30
0.0
 40
0.125
100
AcDbArc
 50
90.0
 51
180.0
  0
ARC
  5
F3
330
18
100
AcDbEntity
  8
0
100
AcDbCircle
 10
9.108202
 20
4.222071999999999
 30
0.0
 40
0.125
100
AcDbArc
 50
352.761492
 51
90.0
  0
CIRCLE
  5
F4
330
18
100
AcDbEntity
  8
0
100
AcDbCircle
 10
9.604217999999999
 20
4.159072
 30
0.0
 40
0.1325
  0
CIRCLE
  5
F5
330
18
100
AcDbEntity
  8
0
100
AcDbCircle
 10
9.604217999999999
 20
4.159072
 30
0.0
 40
0.375
  0
ARC
  5
F6
330
18
100
AcDbEntity
  8
0
100
AcDbCircle
 10
8.854217999999999
 20
3.846071999999999
 30
0.0
 40
0.062
100
AcDbArc
 50
270.0
 51
0.0
  0
LINE
  5
F7
330
18
100
AcDbEntity
  8
0
100
AcDbLine
 10
8.604217999999999
 20
3.784072
 30
0.0
 11
8.854217999999999
 21
3.784072
 31
0.0
  0
LINE
  5
F8
330
18
100
AcDbEntity
  8
0
100
AcDbLine
 10
8.916217999999998
 20
3.846071999999999
 30
0.0
 11
8.916217999999998
 21
4.222071999999999
 31
0.0
  0
ARC
  5
F9
330
18
100
AcDbEntity
  8
0
100
AcDbCircle
 10
9.667218
 20
3.663056999999999
 30
0.0
 40
0.125
100
AcDbArc
 50
0.0
 51
97.23850800000001
  0
LINE
  5
FA
330
18
100
AcDbEntity
  8
0
100
AcDbLine
 10
10.104218
 20
3.784072
 30
0.0
 11
9.604217999999999
 21
3.784072
 31
0.0
  0
ARC
  5
FB
330
18
100
AcDbEntity
  8
0
100
AcDbCircle
 10
9.107205999999999
 20
4.659072
 30
0.0
 40
0.125
100
AcDbArc
 50
0.0
 51
90.0
  0
ARC
  5
FC
330
18
100
AcDbEntity
  8
0
100
AcDbCircle
 10
9.041217999999998
 20
4.659072
 30
0.0
 40
0.125
100
AcDbArc
 50
90.0
 51
180.0
  0
LINE
  5
FD
330
18
100
AcDbEntity
  8
0
100
AcDbLine
 10
9.041217999999998
 20
4.347071999999999
 30
0.0
 11
9.108202
 21
4.347071999999999
 31
0.0
  0
LINE
  5
FE
330
18
100
AcDbEntity
  8
0
100
AcDbLine
 10
9.041217999999998
 20
4.784072
 30
0.0
 11
9.107205999999999
 21
4.784072
 31
0.0
  0
ARC
  5
FF
330
18
100
AcDbEntity
  8
0
100
AcDbCircle
 10
11.791218
 20
3.663056999999999
 30
0.0
 40
0.125
100
AcDbArc
 50
82.761492
 51
180.0
  0
LINE
  5
100
330
18
100
AcDbEntity
  8
0
100
AcDbLine
 10
11.354218
 20
3.784072
 30
0.0
 11
11.854218
 21
3.784072
 31
0.0
  0
ARC
  5
101
330
18
100
AcDbEntity
  8
0
100
AcDbCircle
 10
11.354218
 20
3.659072
 30
0.0
 40
0.125
100
AcDbArc
 50
90.0
 51
180.0
  0
LINE
  5
102
330
18
100
AcDbEntity
  8
CTR_LINES
100
AcDbLine
 10
1.893716999999999
 20
5.284072
 30
0.0
 11
4.364190999999999
 21
5.284072
 31
0.0
  0
ARC
  5
103
330
18
100
AcDbEntity
  8
0
100
AcDbCircle
 10
3.881264999999999
 20
6.628072
 30
0.0
 40
0.156
100
AcDbArc
 50
0.0
 51
90.0
  0
LINE
  5
104
330
18
100
AcDbEntity
  8
0
100
AcDbLine
 10
4.099765
 20
6.784072
 30
0.0
 11
1.974765
 21
6.784072
 31
0.0
  0
LINE
  5
105
330
18
100
AcDbEntity
  8
CTR_LINES
100
AcDbLine
 10
3.414438999999999
 20
6.409072
 30
0.0
 11
4.267787
 21
6.409072
 31
0.0
  0
MTEXT
  5
106
330
18
100
AcDbEntity
  8
0
100
AcDbMText
 10
3.892498999999999
 20
8.69852
 30
0.0
 40
0.18
 41
0.0
 46
0.0
 71
     4
 72
     1
  1
 
 73
     1
 44
1.0
  0
ARC
  5
107
330
18
100
AcDbEntity
  8
0
100
AcDbCircle
 10
2.193265
 20
6.628072
 30
0.0
 40
0.156
100
AcDbArc
 50
90.0
 51
180.0
  0
ARC
  5
108
330
18
100
AcDbEntity
  8
0
100
AcDbCircle
 10
1.975265
 20
5.972215
 30
0.0
 40
0.062
100
AcDbArc
 50
0.0
 51
90.0
  0
LINE
  5
109
330
18
100
AcDbEntity
  8
0
100
AcDbLine
 10
1.974765
 20
6.034212999999999
 30
0.0
 11
1.974765
 21
6.784072
 31
0.0
  0
LINE
  5
10A
330
18
100
AcDbEntity
  8
0
100
AcDbLine
 10
1.974765
 20
6.034215
 30
0.0
 11
1.975265
 21
6.034215
 31
0.0
  0
CIRCLE
  5
10B
330
18
100
AcDbEntity
  8
0
100
AcDbCircle
 10
2.349765
 20
6.409072
 30
0.0
 40
0.1325
  0
CIRCLE
  5
10C
330
18
100
AcDbEntity
  8
0
100
AcDbCircle
 10
3.724765
 20
6.409072
 30
0.0
 40
0.1325
  0
ARC
  5
10D
330
18
100
AcDbEntity
  8
0
100
AcDbCircle
 10
4.099264999999999
 20
5.972215
 30
0.0
 40
0.062
100
AcDbArc
 50
90.0
 51
180.0
  0
LINE
  5
10E
330
18
100
AcDbEntity
  8
0
100
AcDbLine
 10
4.099765
 20
6.034215
 30
0.0
 11
4.099765
 21
6.784072
 31
0.0
  0
LINE
  5
10F
330
18
100
AcDbEntity
  8
0
100
AcDbLine
 10
4.099765
 20
6.034215
 30
0.0
 11
4.099765
 21
6.784072
 31
0.0
  0
LINE
  5
110
330
18
100
AcDbEntity
  8
0
100
AcDbLine
 10
4.099765
 20
6.034215
 30
0.0
 11
4.099765
 21
6.784072
 31
0.0
  0
LINE
  5
111
330
18
100
AcDbEntity
  8
0
100
AcDbLine
 10
4.099264999999999
 20
6.034215
 30
0.0
 11
4.099765
 21
6.034215
 31
0.0
  0
LINE
  5
112
330
18
100
AcDbEntity
  8
CTR_LINES
100
AcDbLine
 10
8.499753999999999
 20
6.409072
 30
0.0
 11
11.155326
 21
6.409072
 31
0.0
  0
LINE
  5
113
330
18
100
AcDbEntity
  8
0
100
AcDbLine
 10
9.041217999999998
 20
6.221072
 30
0.0
 11
10.233202
 21
6.221072
 31
0.0
  0
LINE
  5
114
330
18
100
AcDbEntity
  8
0
100
AcDbLine
 10
9.041217999999998
 20
5.784072
 30
0.0
 11
10.232206
 21
5.784072
 31
0.0
  0
LINE
  5
115
330
18
100
AcDbEntity
  8
0
100
AcDbLine
 10
8.916217999999998
 20
6.346072
 30
0.0
 11
8.916217999999998
 21
5.909072
 31
0.0
  0
ARC
  5
116
330
18
100
AcDbEntity
  8
0
100
AcDbCircle
 10
9.041217999999998
 20
5.909072
 30
0.0
 40
0.125
100
AcDbArc
 50
180.0
 51
270.0
  0
LINE
  5
117
330
18
100
AcDbEntity
  8
0
100
AcDbLine
 10
8.916217999999998
 20
6.722071999999999
 30
0.0
 11
8.916217999999998
 21
6.346072
 31
0.0
  0
ARC
  5
118
330
18
100
AcDbEntity
  8
0
100
AcDbCircle
 10
9.041217999999998
 20
6.346072
 30
0.0
 40
0.125
100
AcDbArc
 50
180.0
 51
270.0
  0
LINE
  5
119
330
18
100
AcDbEntity
  8
0
100
AcDbLine
 10
8.854217999999999
 20
6.784072
 30
0.0
 11
8.604217999999999
 21
6.784072
 31
0.0
  0
ARC
  5
11A
330
18
100
AcDbEntity
  8
0
100
AcDbCircle
 10
8.854217999999999
 20
6.722071999999999
 30
0.0
 40
0.062
100
AcDbArc
 50
0.0
 51
90.0
  0
LINE
  5
11B
330
18
100
AcDbEntity
  8
0
100
AcDbLine
 10
10.357206
 20
6.361822
 30
0.0
 11
10.357206
 21
5.909072
 31
0.0
  0
LINE
  5
11C
330
18
100
AcDbEntity
  8
0
100
AcDbLine
 10
11.104218
 20
6.409072
 30
0.0
 11
11.104218
 21
5.909072
 31
0.0
  0
ARC
  5
11D
330
18
100
AcDbEntity
  8
0
100
AcDbCircle
 10
10.232206
 20
5.909072
 30
0.0
 40
0.125
100
AcDbArc
 50
270.0
 51
0.0
  0
ARC
  5
11E
330
18
100
AcDbEntity
  8
0
100
AcDbCircle
 10
11.229218
 20
5.909072
 30
0.0
 40
0.125
100
AcDbArc
 50
180.0
 51
270.0
  0
CIRCLE
  5
11F
330
18
100
AcDbEntity
  8
0
100
AcDbCircle
 10
10.729218
 20
6.409072
 30
0.0
 40
0.375
  0
CIRCLE
  5
120
330
18
100
AcDbEntity
  8
0
100
AcDbCircle
 10
10.729218
 20
6.409072
 30
0.0
 40
0.1325
  0
ARC
  5
121
330
18
100
AcDbEntity
  8
0
100
AcDbCircle
 10
10.233202
 20
6.346072
 30
0.0
 40
0.125
100
AcDbArc
 50
270.0
 51
7.238508
  0
ARC
  5
122
330
18
100
AcDbEntity
  8
0
100
AcDbCircle
 10
11.225233
 20
6.346072
 30
0.0
 40
0.125
100
AcDbArc
 50
172.761492
 51
270.0
  0
LINE
  5
124
330
18
100
AcDbEntity
  8
0
100
AcDbLine
 10
12.229218
 20
2.284072
 30
0.0
 11
12.229218
 21
2.034072
 31
0.0
  0
ARC
  5
125
330
18
100
AcDbEntity
  8
0
100
AcDbCircle
 10
12.167218
 20
2.284072
 30
0.0
 40
0.062
100
AcDbArc
 50
0.0
 51
90.0
  0
LINE
  5
126
330
18
100
AcDbEntity
  8
0
100
AcDbLine
 10
12.226229
 20
4.206322
 30
0.0
 11
12.226229
 21
4.659072
 31
0.0
  0
ARC
  5
127
330
18
100
AcDbEntity
  8
0
100
AcDbCircle
 10
12.350233
 20
4.222071999999999
 30
0.0
 40
0.125
100
AcDbArc
 50
90.0
 51
187.238508
  0
ARC
  5
128
330
18
100
AcDbEntity
  8
0
100
AcDbCircle
 10
12.351229
 20
4.659072
 30
0.0
 40
0.125
100
AcDbArc
 50
90.0
 51
180.0
  0
LINE
  5
129
330
18
100
AcDbEntity
  8
0
100
AcDbLine
 10
12.350233
 20
4.347071999999999
 30
0.0
 11
12.402218
 21
4.347071999999999
 31
0.0
  0
LINE
  5
12A
330
18
100
AcDbEntity
  8
0
100
AcDbLine
 10
12.351229
 20
4.784072
 30
0.0
 11
12.464218
 21
4.784072
 31
0.0
  0
CIRCLE
  5
133
330
18
100
AcDbEntity
  8
0
100
AcDbCircle
 10
3.037265
 20
5.284072
 30
0.0
 40
0.3125
  0
ARC
  5
134
330
18
100
AcDbEntity
  8
0
100
AcDbCircle
 10
3.037265
 20
5.284072
 30
0.0
 40
0.2825
100
AcDbArc
 50
19.220441
 51
340.779559
  0
LINE
  5
135
330
18
100
AcDbEntity
  8
0
100
AcDbLine
 10
3.239265
 20
5.377072
 30
0.0
 11
3.335605999999999
 21
5.377072
 31
0.0
  0
LINE
  5
136
330
18
100
AcDbEntity
  8
0
100
AcDbLine
 10
3.239265
 20
5.191072
 30
0.0
 11
3.335605999999999
 21
5.191072
 31
0.0
  0
LINE
  5
138
330
18
100
AcDbEntity
  8
0
100
AcDbLine
 10
3.239265
 20
5.191072
 30
0.0
 11
3.239265
 21
5.377072
 31
0.0
  0
LINE
  5
139
330
18
100
AcDbEntity
  8
0
100
AcDbLine
 10
3.349765
 20
0.564072
 30
0.0
 11
3.349765
 21
2.034072
 31
0.0
  0
LINE
  5
13A
330
18
100
AcDbEntity
  8
0
100
AcDbLine
 10
2.724765
 20
0.564072
 30
0.0
 11
2.724765
 21
2.034072
 31
0.0
  0
LINE
  5
13B
330
18
100
AcDbEntity
  8
0
100
AcDbLine
 10
10.416718
 20
2.034072
 30
0.0
 11
10.416718
 21
0.564072
 31
0.0
  0
LINE
  5
13C
330
18
100
AcDbEntity
  8
0
100
AcDbLine
 10
11.041718
 20
2.034072
 30
0.0
 11
11.041718
 21
0.564072
 31
0.0
  0
LINE
  5
13D
330
18
100
AcDbEntity
  8
0
100
AcDbLine
 10
7.134217999999999
 20
5.596572
 30
0.0
 11
8.604217999999999
 21
5.596572
 31
0.0
  0
LINE
  5
13E
330
18
100
AcDbEntity
  8
0
100
AcDbLine
 10
7.134217999999999
 20
4.971572
 30
0.0
 11
8.604217999999999
 21
4.971572
 31
0.0
  0
LINE
  5
13F
330
18
100
AcDbEntity
  8
0
100
AcDbLine
 10
2.754765
 20
0.5340720000000001
 30
0.0
 11
3.319765
 21
0.5340720000000001
 31
0.0
  0
LINE
  5
140
330
18
100
AcDbEntity
  8
0
100
AcDbLine
 10
10.446718
 20
0.5340720000000001
 30
0.0
 11
11.011718
 21
0.5340720000000001
 31
0.0
  0
LINE
  5
141
330
18
100
AcDbEntity
  8
0
100
AcDbLine
 10
7.104217999999999
 20
5.566571999999999
 30
0.0
 11
7.104217999999999
 21
5.001572
 31
0.0
  0
LINE
  5
142
330
18
100
AcDbEntity
  8
0
100
AcDbLine
 10
7.134217999999999
 20
5.596572
 30
0.0
 11
7.104217999999999
 21
5.566571999999999
 31
0.0
  0
LINE
  5
143
330
18
100
AcDbEntity
  8
0
100
AcDbLine
 10
7.134217999999999
 20
4.971572
 30
0.0
 11
7.104217999999999
 21
5.001572
 31
0.0
  0
LINE
  5
144
330
18
100
AcDbEntity
  8
0
100
AcDbLine
 10
10.416718
 20
0.564072
 30
0.0
 11
10.446718
 21
0.5340720000000001
 31
0.0
  0
LINE
  5
145
330
18
100
AcDbEntity
  8
0
100
AcDbLine
 10
11.041718
 20
0.564072
 30
0.0
 11
11.011718
 21
0.5340720000000001
 31
0.0
  0
LINE
  5
146
330
18
100
AcDbEntity
  8
0
100
AcDbLine
 10
3.349765
 20
0.564072
 30
0.0
 11
3.319765
 21
0.5340720000000001
 31
0.0
  0
LINE
  5
147
330
18
100
AcDbEntity
  8
0
100
AcDbLine
 10
2.724765
 20
0.564072
 30
0.0
 11
2.754765
 21
0.5340720000000001
 31
0.0
  0
LINE
  5
148
330
18
100
AcDbEntity
  8
0
100
AcDbLine
 10
10.416718
 20
0.564072
 30
0.0
 11
10.636218
 21
0.564072
 31
0.0
  0
LINE
  5
149
330
18
100
AcDbEntity
  8
0
100
AcDbLine
 10
7.134217999999999
 20
5.596572
 30
0.0
 11
7.134217999999999
 21
5.377072
 31
0.0
  0
LINE
  5
14A
330
18
100
AcDbEntity
  8
0
100
AcDbLine
 10
2.724765
 20
0.564072
 30
0.0
 11
3.349765
 21
0.564072
 31
0.0
  0
LINE
  5
14E
330
18
100
AcDbEntity
  8
0
100
AcDbLine
 10
10.822218
 20
1.7999
 30
0.0
 11
10.822218
 21
0.5340720000000001
 31
0.0
  0
LINE
  5
14F
330
18
100
AcDbEntity
  8
0
100
AcDbLine
 10
10.636218
 20
1.7999
 30
0.0
 11
10.636218
 21
0.5340720000000001
 31
0.0
  0
LINE
  5
150
330
18
100
AcDbEntity
  8
0
100
AcDbLine
 10
7.104217999999999
 20
5.377072
 30
0.0
 11
8.370017999999999
 21
5.377072
 31
0.0
  0
LINE
  5
151
330
18
100
AcDbEntity
  8
0
100
AcDbLine
 10
7.104217999999999
 20
5.191072
 30
0.0
 11
8.370017999999999
 21
5.191072
 31
0.0
  0
LINE
  5
154
330
18
100
AcDbEntity
  8
HIDDEN_LINE
100
AcDbLine
 10
3.239265
 20
0.5340720000000001
 30
0.0
 11
3.239265
 21
1.534071999999999
 31
0.0
  0
ARC
  5
157
330
18
100
AcDbEntity
  8
HIDDEN_LINE
100
AcDbCircle
 10
3.614265
 20
1.534071999999999
 30
0.0
 40
0.375
100
AcDbArc
 50
134.85648
 51
180.0
  0
LINE
  5
15C
330
18
100
AcDbEntity
  8
0
100
AcDbLine
 10
10.636218
 20
1.7999
 30
0.0
 11
10.822218
 21
1.7999
 31
0.0
  0
LINE
  5
16F
330
18
100
AcDbEntity
  8
0
100
AcDbLine
 10
8.370017999999999
 20
5.377072
 30
0.0
 11
8.370017999999999
 21
5.191072
 31
0.0
  0
LINE
  5
170
330
18
100
AcDbEntity
  8
0
100
AcDbLine
 10
10.822218
 20
0.564072
 30
0.0
 11
11.041718
 21
0.564072
 31
0.0
  0
LINE
  5
171
330
18
100
AcDbEntity
  8
0
100
AcDbLine
 10
7.134217999999999
 20
5.191072
 30
0.0
 11
7.134217999999999
 21
4.971572
 31
0.0
  0
DIMENSION
  5
17E
330
18
100
AcDbEntity
  8
DIMS_TEXT
100
AcDbDimension
280
     0
  2
*D1
 10
11.7439
 20
4.232464
 30
0.0
 11
13.734634
 21
3.417482
 31
0.0
 70
   163
  1
<> THRU\PX 3
 71
     5
 42
-1.0
 73
     0
 74
     0
 75
     0
  3
STANDARD
100
AcDbDiametricDimension
 15
11.964535
 25
4.085679999999999
 35
0.0
 40
0.0
1001
ACAD
1000
DSTYLE
1002
{
1070
    78
1070
     4
1070
   288
1070
     1
1070
   140
1040
0.12
1070
   271
1070
     3
1070
    41
1040
0.15
1002
}
  0
DIMENSION
  5
196
330
18
100
AcDbEntity
  8
DIMS_TEXT
100
AcDbDimension
280
     0
  2
*D2
 10
10.729218
 20
7.357335
 30
0.0
 11
9.666717999999999
 21
7.357335
 31
0.0
 70
   160
 71
     5
 42
-1.0
 73
     0
 74
     0
 75
     0
  3
STANDARD
100
AcDbAlignedDimension
 13
8.604217999999999
 23
6.784072
 33
0.0
 14
10.729218
 24
6.830688999999999
 34
0.0
100
AcDbRotatedDimension
1001
ACAD
1000
DSTYLE
1002
{
1070
    78
1070
     4
1070
   140
1040
0.12
1070
   271
1070
     3
1070
    41
1040
0.15
1002
}
  0
DIMENSION
  5
1AF
330
18
100
AcDbEntity
  8
DIMS_TEXT
100
AcDbDimension
280
     0
  2
*D3
 10
11.854218
 20
7.357335
 30
0.0
 11
11.291718
 21
7.357335
 31
0.0
 70
    32
  1
<>\PTYP.
 71
     5
 42
-1.0
 73
     0
 74
     0
 75
     0
  3
STANDARD
100
AcDbAlignedDimension
 13
10.729218
 23
6.830688999999999
 33
0.0
 14
11.854218
 24
6.504755999999999
 34
0.0
100
AcDbRotatedDimension
1001
ACAD
1000
DSTYLE
1002
{
1070
    78
1070
     4
1070
   140
1040
0.12
1070
    75
1070
     1
1070
   287
1070
     4
1070
   271
1070
     3
1070
    41
1040
0.15
1002
}
  0
LINE
  5
1F4
330
18
100
AcDbEntity
  8
0
100
AcDbLine
 10
12.464218
 20
6.159072
 30
0.0
 11
12.464218
 21
4.409072
 31
0.0
  0
ARC
  5
1F6
330
18
100
AcDbEntity
  8
0
100
AcDbCircle
 10
12.402218
 20
6.159072
 30
0.0
 40
0.062
100
AcDbArc
 50
0.0
 51
90.0
  0
ARC
  5
1F7
330
18
100
AcDbEntity
  8
0
100
AcDbCircle
 10
12.402218
 20
4.409072
 30
0.0
 40
0.062
100
AcDbArc
 50
270.0
 51
0.0
  0
DIMENSION
  5
205
330
18
100
AcDbEntity
  8
DIMS_TEXT
100
AcDbDimension
280
     0
  2
*D4
 10
12.464218
 20
8.096333999999998
 30
0.0
 11
9.784217999999999
 21
8.096333999999998
 31
0.0
 70
   160
  1
5.36
 71
     5
 42
-1.0
 73
     0
 74
     0
 75
     0
  3
STANDARD
100
AcDbAlignedDimension
 13
7.104217999999999
 23
5.566571999999999
 33
0.0
 14
12.464218
 24
6.159072
 34
0.0
100
AcDbRotatedDimension
1001
ACAD
1000
DSTYLE
1002
{
1070
    78
1070
     4
1070
   140
1040
0.12
1070
   271
1070
     3
1070
    41
1040
0.15
1002
}
  0
DIMENSION
  5
21F
330
18
100
AcDbEntity
  8
DIMS_TEXT
100
AcDbDimension
280
     0
  2
*D5
 10
6.439198
 20
6.409072
 30
0.0
 11
6.439198
 21
5.846572
 31
0.0
 70
    32
  1
<>\PTYP.
 71
     5
 42
-1.0
 73
     0
 74
     0
 75
     0
  3
STANDARD
100
AcDbAlignedDimension
 13
7.00771
 23
5.284072
 33
0.0
 14
8.499753999999999
 24
6.409072
 34
0.0
 50
90.0
100
AcDbRotatedDimension
1001
ACAD
1000
DSTYLE
1002
{
1070
    78
1070
     4
1070
   140
1040
0.12
1070
   271
1070
     3
1070
    41
1040
0.15
1002
}
  0
DIMENSION
  5
239
330
18
100
AcDbEntity
  8
DIMS_TEXT
100
AcDbDimension
280
     0
  2
*D6
 10
12.658203
 20
2.034072
 30
0.0
 11
12.246775
 21
1.460083
 31
0.0
 70
   160
  1
.31\PTYP.
 71
     5
 42
-1.0
 73
     0
 74
     0
 75
     0
  3
STANDARD
100
AcDbAlignedDimension
 13
12.167218
 23
2.346071999999999
 33
0.0
 14
12.229218
 24
2.034072
 34
0.0
 50
90.0
100
AcDbRotatedDimension
1001
ACAD
1000
DSTYLE
1002
{
1070
    78
1070
     4
1070
   140
1040
0.12
1070
   271
1070
     3
1070
    41
1040
0.15
1002
}
  0
DIMENSION
  5
26E
330
18
100
AcDbEntity
  8
DIMS_TEXT
100
AcDbDimension
280
     0
  2
*D7
 10
10.822218
 20
0.012943
 30
0.0
 11
11.76936
 21
0.012943
 31
0.0
 70
    32
  1
.187 X .093\PKEYWAY\PTYP.
 71
     5
 42
-1.0
 73
     0
 74
     0
 75
     0
  3
STANDARD
100
AcDbAlignedDimension
 13
10.636218
 23
0.5340720000000001
 33
0.0
 14
10.822218
 24
0.5340720000000001
 34
0.0
100
AcDbRotatedDimension
1001
ACAD
1000
DSTYLE
1002
{
1070
    78
1070
     4
1070
   140
1040
0.12
1070
   271
1070
     3
1070
    41
1040
0.15
1002
}
  0
DIMENSION
  5
288
330
18
100
AcDbEntity
  8
DIMS_TEXT
100
AcDbDimension
280
     0
  2
*D8
 10
8.707899000000001
 20
2.034072
 30
0.0
 11
8.707899000000001
 21
1.284071999999999
 31
0.0
 70
    32
  1
<>\PTYP.
 71
     5
 42
-1.0
 73
     0
 74
     0
 75
     0
  3
STANDARD
100
AcDbAlignedDimension
 13
10.446718
 23
0.5340720000000001
 33
0.0
 14
9.229217999999999
 24
2.034072
 34
0.0
 50
90.0
100
AcDbRotatedDimension
1001
ACAD
1000
DSTYLE
1002
{
1070
    78
1070
     4
1070
   140
1040
0.12
1070
   271
1070
     3
1070
    41
1040
0.15
1002
}
  0
DIMENSION
  5
2A2
330
18
100
AcDbEntity
  8
DIMS_TEXT
100
AcDbDimension
280
     0
  2
*D9
 10
3.349765
 20
0.012174
 30
0.0
 11
3.84893
 21
0.012174
 31
0.0
 70
   160
  1
%%C<>\PTYP.
 71
     5
 42
-1.0
 73
     0
 74
     0
 75
     0
  3
STANDARD
100
AcDbAlignedDimension
 13
2.724765
 23
0.564072
 33
0.0
 14
3.349765
 24
0.564072
 34
0.0
100
AcDbRotatedDimension
1001
ACAD
1000
DSTYLE
1002
{
1070
    78
1070
     4
1070
   140
1040
0.12
1070
   271
1070
     3
1070
    41
1040
0.15
1002
}
  0
DIMENSION
  5
2C6
330
18
100
AcDbEntity
  8
DIMS_TEXT
100
AcDbDimension
280
     0
  2
*D10
 10
3.621081999999999
 20
4.241571999999999
 30
0.0
 11
5.479389
 21
3.372203999999999
 31
0.0
 70
   163
  1
<> THRU\PX 4\PTYP.
 71
     5
 42
-1.0
 73
     0
 74
     0
 75
     0
  3
STANDARD
100
AcDbDiametricDimension
 15
3.828448
 25
4.076573
 35
0.0
 40
0.0
1001
ACAD
1000
DSTYLE
1002
{
1070
    78
1070
     4
1070
   288
1070
     1
1070
   140
1040
0.12
1070
   271
1070
     3
1070
    41
1040
0.15
1002
}
  0
DIMENSION
  5
2DE
330
18
100
AcDbEntity
  8
DIMS_TEXT
100
AcDbDimension
280
     0
  2
*D11
 10
4.813076
 20
6.409072
 30
0.0
 11
4.813076
 21
5.846572
 31
0.0
 70
    32
  1
<>\PTYP.
 71
     5
 42
-1.0
 73
     0
 74
     0
 75
     0
  3
STANDARD
100
AcDbAlignedDimension
 13
4.364190999999999
 23
5.284072
 33
0.0
 14
4.267787
 24
6.409072
 34
0.0
 50
90.0
100
AcDbRotatedDimension
1001
ACAD
1000
DSTYLE
1002
{
1070
    78
1070
     4
1070
   140
1040
0.12
1070
   271
1070
     3
1070
    41
1040
0.15
1002
}
  0
DIMENSION
  5
2F8
330
18
100
AcDbEntity
  8
DIMS_TEXT
100
AcDbDimension
280
     0
  2
*D12
 10
3.724765
 20
7.405031
 30
0.0
 11
4.813076
 21
7.405031
 31
0.0
 70
   160
  1
.687\PTYP.
 71
     5
 42
0.6875
 73
     0
 74
     0
 75
     0
  3
STANDARD
100
AcDbAlignedDimension
 13
3.037265
 23
6.947004999999999
 33
0.0
 14
3.724765
 24
6.947004999999999
 34
0.0
100
AcDbRotatedDimension
1001
ACAD
1000
DSTYLE
1002
{
1070
    78
1070
     4
1070
   140
1040
0.12
1070
   271
1070
     3
1070
    41
1040
0.15
1002
}
  0
DIMENSION
  5
31E
330
18
100
AcDbEntity
  8
DIMS_TEXT
100
AcDbDimension
280
     0
  2
*D13
 10
4.099765
 20
8.025076999999999
 30
0.0
 11
4.813076
 21
8.025076999999999
 31
0.0
 70
   160
  1
<>\PTYP.
 71
     5
 42
-1.0
 73
     0
 74
     0
 75
     0
  3
STANDARD
100
AcDbAlignedDimension
 13
3.037265
 23
6.947004999999999
 33
0.0
 14
4.099765
 24
6.784072
 34
0.0
100
AcDbRotatedDimension
1001
ACAD
1000
DSTYLE
1002
{
1070
    78
1070
     4
1070
   140
1040
0.12
1070
   271
1070
     3
1070
    41
1040
0.15
1002
}
  0
DIMENSION
  5
344
330
18
100
AcDbEntity
  8
DIMS_TEXT
100
AcDbDimension
280
     0
  2
*D14
 10
4.099765
 20
8.597426999999999
 30
0.0
 11
3.037265
 21
8.597426999999999
 31
0.0
 70
    32
 71
     5
 42
-1.0
 73
     0
 74
     0
 75
     0
  3
STANDARD
100
AcDbAlignedDimension
 13
1.974765
 23
6.784072
 33
0.0
 14
4.099765
 24
6.784072
 34
0.0
100
AcDbRotatedDimension
1001
ACAD
1000
DSTYLE
1002
{
1070
    78
1070
     4
1070
   140
1040
0.12
1070
   271
1070
     3
1070
    41
1040
0.15
1002
}
  0
DIMENSION
  5
352
330
18
100
AcDbEntity
  8
DIMS_TEXT
100
AcDbDimension
280
     0
  2
*D15
 10
1.322771999999999
 20
5.284072
 30
0.0
 11
1.322771999999999
 21
3.659072
 31
0.0
 70
    32
 71
     5
 42
-1.0
 73
     0
 74
     0
 75
     0
  3
STANDARD
100
AcDbAlignedDimension
 13
2.037265
 23
2.034072
 33
0.0
 14
1.893716999999999
 24
5.284072
 34
0.0
 50
90.0
100
AcDbRotatedDimension
1001
ACAD
1000
DSTYLE
1002
{
1070
    78
1070
     4
1070
   140
1040
0.12
1070
   271
1070
     3
1070
    41
1040
0.15
1002
}
  0
DIMENSION
  5
360
330
18
100
AcDbEntity
  8
DIMS_TEXT
100
AcDbDimension
280
     0
  2
*D16
 10
0.70102
 20
6.784072
 30
0.0
 11
0.70102
 21
4.641541999999999
 31
0.0
 70
   160
  1
6.25
 71
     5
 42
-1.0
 73
     0
 74
     0
 75
     0
  3
STANDARD
100
AcDbAlignedDimension
 13
2.754765
 23
0.5340720000000001
 33
0.0
 14
1.974765
 24
6.784072
 34
0.0
 50
90.0
100
AcDbRotatedDimension
1001
ACAD
1000
DSTYLE
1002
{
1070
    78
1070
     4
1070
   140
1040
0.12
1070
   271
1070
     3
1070
    41
1040
0.15
1002
}
  0
CIRCLE
  5
387
330
18
100
AcDbEntity
  8
0
100
AcDbCircle
 10
3.37751
 20
5.633116999999999
 30
0.0
 40
0.0935
  0
CIRCLE
  5
388
330
18
100
AcDbEntity
  8
0
100
AcDbCircle
 10
2.69702
 20
4.935026999999999
 30
0.0
 40
0.0935
  0
ARC
  5
39F
330
18
100
AcDbEntity
  8
HIDDEN_LINE
100
AcDbCircle
 10
11.324218
 20
4.689072
 30
0.0
 40
0.375
100
AcDbArc
 50
45.0
 51
225.0
  0
CIRCLE
  5
3A0
330
18
100
AcDbEntity
  8
HIDDEN_LINE
100
AcDbCircle
 10
11.324218
 20
4.689072
 30
0.0
 40
0.1685
  0
CIRCLE
  5
3A1
330
18
100
AcDbEntity
  8
HIDDEN_LINE
100
AcDbCircle
 10
11.324218
 20
4.689072
 30
0.0
 40
0.2
  0
LINE
  5
3A2
330
18
100
AcDbEntity
  8
HIDDEN_LINE
100
AcDbLine
 10
12.119383
 20
4.424237
 30
0.0
 11
11.589383
 21
4.954237
 31
0.0
  0
LINE
  5
3A3
330
18
100
AcDbEntity
  8
HIDDEN_LINE
100
AcDbLine
 10
11.059053
 20
4.423906999999999
 30
0.0
 11
11.589053
 21
3.893907
 31
0.0
  0
LINE
  5
3AA
330
18
100
AcDbEntity
  8
HIDDEN_LINE
100
AcDbLine
 10
2.099334999999999
 20
5.820237999999999
 30
0.0
 11
2.758094999999999
 21
6.204076
 31
0.0
  0
LINE
  5
3AB
330
18
100
AcDbEntity
  8
HIDDEN_LINE
100
AcDbLine
 10
2.821025
 20
6.221072
 30
0.0
 11
3.253505
 21
6.221072
 31
0.0
  0
LINE
  5
3AC
330
18
100
AcDbEntity
  8
HIDDEN_LINE
100
AcDbLine
 10
3.316434999999999
 20
6.204076
 30
0.0
 11
3.975194999999999
 21
5.820237999999999
 31
0.0
  0
LINE
  5
3AD
330
18
100
AcDbEntity
  8
HIDDEN_LINE
100
AcDbLine
 10
3.975194999999999
 20
4.747905999999999
 30
0.0
 11
3.316434999999999
 21
4.364067999999999
 31
0.0
  0
LINE
  5
3AE
330
18
100
AcDbEntity
  8
HIDDEN_LINE
100
AcDbLine
 10
3.253505
 20
4.347071999999999
 30
0.0
 11
3.037265
 21
4.347071999999999
 31
0.0
  0
LINE
  5
3AF
330
18
100
AcDbEntity
  8
HIDDEN_LINE
100
AcDbLine
 10
3.037265
 20
4.347071999999999
 30
0.0
 11
2.821025
 21
4.347071999999999
 31
0.0
  0
LINE
  5
3B0
330
18
100
AcDbEntity
  8
HIDDEN_LINE
100
AcDbLine
 10
2.758094999999999
 20
4.364067999999999
 30
0.0
 11
2.099334999999999
 21
4.747905999999999
 31
0.0
  0
ARC
  5
3B1
330
18
100
AcDbEntity
  8
HIDDEN_LINE
100
AcDbCircle
 10
3.253505
 20
6.096072
 30
0.0
 40
0.125
100
AcDbArc
 50
59.77207099999999
 51
90.0
  0
ARC
  5
3B2
330
18
100
AcDbEntity
  8
HIDDEN_LINE
100
AcDbCircle
 10
2.821025
 20
6.096072
 30
0.0
 40
0.125
100
AcDbArc
 50
90.0
 51
120.227929
  0
ARC
  5
3B3
330
18
100
AcDbEntity
  8
HIDDEN_LINE
100
AcDbCircle
 10
2.162265
 20
5.712233999999999
 30
0.0
 40
0.125
100
AcDbArc
 50
120.227929
 51
180.0
  0
ARC
  5
3B4
330
18
100
AcDbEntity
  8
HIDDEN_LINE
100
AcDbCircle
 10
3.912265
 20
5.712233999999999
 30
0.0
 40
0.125
100
AcDbArc
 50
0.0
 51
59.77207099999999
  0
ARC
  5
3B5
330
18
100
AcDbEntity
  8
HIDDEN_LINE
100
AcDbCircle
 10
3.912265
 20
4.855909999999999
 30
0.0
 40
0.125
100
AcDbArc
 50
300.227929
 51
0.0
  0
ARC
  5
3B6
330
18
100
AcDbEntity
  8
HIDDEN_LINE
100
AcDbCircle
 10
3.253505
 20
4.472071999999999
 30
0.0
 40
0.125
100
AcDbArc
 50
270.0
 51
300.227929
  0
ARC
  5
3B7
330
18
100
AcDbEntity
  8
HIDDEN_LINE
100
AcDbCircle
 10
2.821025
 20
4.472071999999999
 30
0.0
 40
0.125
100
AcDbArc
 50
239.772071
 51
270.0
  0
ARC
  5
3B8
330
18
100
AcDbEntity
  8
HIDDEN_LINE
100
AcDbCircle
 10
2.162265
 20
4.855909999999999
 30
0.0
 40
0.125
100
AcDbArc
 50
180.0
 51
239.772071
  0
LEADER
  5
3BF
330
18
100
AcDbEntity
  8
DIMS_TEXT
100
AcDbLeader
  3
STANDARD
 73
     0
 40
0.5200000000000001
 41
0.782857142857143
 76
     3
 10
2.694983999999999
 20
4.939408
 30
0.0
 10
1.637538999999999
 20
7.514694999999999
 30
0.0
 10
1.524137
 20
7.514694999999999
 30
0.0
340
3C0
1001
ACAD
1000
DSTYLE
1002
{
1070
    78
1070
     4
1070
   140
1040
0.12
1070
   271
1070
     3
1070
    41
1040
0.15
1002
}
  0
MTEXT
  5
3C0
102
{ACAD_REACTORS
330
3BF
102
}
330
18
100
AcDbEntity
  8
DIMS_TEXT
100
AcDbMText
 10
1.434136999999999
 20
7.514694999999999
 30
0.0
 40
0.12
 41
0.0
 46
0.0
 71
     6
 72
     1
  1
\A1;SPANNER\PWRENCH\PHOLES
 73
     1
 44
1.0
  0
LEADER
  5
3C1
330
18
100
AcDbEntity
  8
DIMS_TEXT
100
AcDbLeader
  3
STANDARD
 73
     0
 40
0.3200000000000001
 41
0.422857142857143
 76
     3
 10
11.323495
 20
4.708229
 30
0.0
 10
12.956813
 20
6.452789
 30
0.0
 10
13.033607
 20
6.452789
 30
0.0
340
3C2
1001
ACAD
1000
DSTYLE
1002
{
1070
    78
1070
     4
1070
   140
1040
0.12
1070
   271
1070
     3
1070
    41
1040
0.15
1002
}
  0
MTEXT
  5
3C2
102
{ACAD_REACTORS
330
3C1
102
}
330
18
100
AcDbEntity
  8
DIMS_TEXT
100
AcDbMText
 10
13.123607
 20
6.452789
 30
0.0
 40
0.12
 41
0.0
 46
0.0
 71
     4
 72
     1
  1
\A1;PIPE\PPLUG
 73
     1
 44
1.0
  0
LINE
  5
3CE
330
18
100
AcDbEntity
  8
HIDDEN_LINE
100
AcDbLine
 10
9.471717999999999
 20
2.346071999999999
 30
0.0
 11
9.471717999999999
 21
2.034072
 31
0.0
  0
LINE
  5
3CF
330
18
100
AcDbEntity
  8
HIDDEN_LINE
100
AcDbLine
 10
9.736717999999999
 20
2.346071999999999
 30
0.0
 11
9.736717999999999
 21
2.034072
 31
0.0
  0
LINE
  5
3D0
330
18
100
AcDbEntity
  8
HIDDEN_LINE
100
AcDbLine
 10
11.986718
 20
2.346071999999999
 30
0.0
 11
11.986718
 21
2.034072
 31
0.0
  0
LINE
  5
3D1
330
18
100
AcDbEntity
  8
HIDDEN_LINE
100
AcDbLine
 10
11.721718
 20
2.346071999999999
 30
0.0
 11
11.721718
 21
2.034072
 31
0.0
  0
LINE
  5
3D2
330
18
100
AcDbEntity
  8
HIDDEN_LINE
100
AcDbLine
 10
8.604217999999999
 20
6.541572
 30
0.0
 11
8.916217999999998
 21
6.541572
 31
0.0
  0
LINE
  5
3D3
330
18
100
AcDbEntity
  8
HIDDEN_LINE
100
AcDbLine
 10
8.604217999999999
 20
6.276571999999999
 30
0.0
 11
8.916217999999998
 21
6.276571999999999
 31
0.0
  0
LINE
  5
3D4
330
18
100
AcDbEntity
  8
HIDDEN_LINE
100
AcDbLine
 10
8.604217999999999
 20
4.291572
 30
0.0
 11
8.916217999999998
 21
4.291572
 31
0.0
  0
LINE
  5
3D5
330
18
100
AcDbEntity
  8
HIDDEN_LINE
100
AcDbLine
 10
8.604217999999999
 20
4.026571999999999
 30
0.0
 11
8.916217999999998
 21
4.026571999999999
 31
0.0
  0
LINE
  5
3D6
330
18
100
AcDbEntity
  8
HIDDEN_LINE
100
AcDbLine
 10
3.857765
 20
2.034072
 30
0.0
 11
3.857765
 21
2.346071999999999
 31
0.0
  0
LINE
  5
3D7
330
18
100
AcDbEntity
  8
HIDDEN_LINE
100
AcDbLine
 10
3.592764999999999
 20
2.034072
 30
0.0
 11
3.592764999999999
 21
2.346071999999999
 31
0.0
  0
LINE
  5
3D8
330
18
100
AcDbEntity
  8
HIDDEN_LINE
100
AcDbLine
 10
2.481765
 20
2.034072
 30
0.0
 11
2.481765
 21
2.346071999999999
 31
0.0
  0
LINE
  5
3D9
330
18
100
AcDbEntity
  8
HIDDEN_LINE
100
AcDbLine
 10
2.216765
 20
2.034072
 30
0.0
 11
2.216765
 21
2.346071999999999
 31
0.0
  0
LINE
  5
3DF
330
18
100
AcDbEntity
  8
HIDDEN_LINE
100
AcDbLine
 10
4.099765
 20
4.026571999999999
 30
0.0
 11
1.974765
 21
4.026571999999999
 31
0.0
  0
LINE
  5
3E0
330
18
100
AcDbEntity
  8
HIDDEN_LINE
100
AcDbLine
 10
4.099765
 20
4.291572
 30
0.0
 11
1.974765
 21
4.291572
 31
0.0
  0
LINE
  5
3E1
330
18
100
AcDbEntity
  8
HIDDEN_LINE
100
AcDbLine
 10
4.099765
 20
6.276571999999999
 30
0.0
 11
1.974765
 21
6.276571999999999
 31
0.0
  0
LINE
  5
3E2
330
18
100
AcDbEntity
  8
HIDDEN_LINE
100
AcDbLine
 10
4.099765
 20
6.541572
 30
0.0
 11
1.974765
 21
6.541572
 31
0.0
  0
TEXT
  5
3FB
330
18
100
AcDbEntity
  8
DIMS_TEXT
100
AcDbText
 10
13.125954
 20
-1.505286
 30
0.0
 40
0.2
  1
R101    135624(C1)/135625(C2)    1:1
 41
0.7
100
AcDbText
  0
TEXT
  5
3FC
330
18
100
AcDbEntity
  8
DIMS_TEXT
100
AcDbText
 10
12.928615
 20
-0.600046
 30
0.0
 40
0.15
  1
Tel. (508) 278-2422     Fax (508) 278-7863
 41
0.9
100
AcDbText
  0
TEXT
  5
3FD
330
18
100
AcDbEntity
  8
DIMS_TEXT
100
AcDbText
 10
13.202987
 20
0.032221
 30
0.0
 40
0.2
  1
Two Way Right Angle Gear Drive
 41
0.9
100
AcDbText
  0
TEXT
  5
3FE
330
18
100
AcDbEntity
  8
DIMS_TEXT
100
AcDbText
 10
13.7897
 20
0.494909
 30
0.0
 40
0.3
  1
 MITRPAK
 41
1.5
100
AcDbText
  0
LINE
  5
3FF
330
18
100
AcDbEntity
  8
DIMS_TEXT
100
AcDbLine
 10
12.893334
 20
-1.025254
 30
0.0
 11
18.116704
 21
-1.025254
 31
0.0
  0
LINE
  5
400
330
18
100
AcDbEntity
  8
DIMS_TEXT
100
AcDbLine
 10
12.893334
 20
-0.6916720000000001
 30
0.0
 11
18.116704
 21
-0.6916720000000001
 31
0.0
  0
LINE
  5
401
330
18
100
AcDbEntity
  8
DIMS_TEXT
100
AcDbLine
 10
12.893334
 20
-0.366226
 30
0.0
 11
18.116704
 21
-0.366226
 31
0.0
  0
LINE
  5
402
330
18
100
AcDbEntity
  8
DIMS_TEXT
100
AcDbLine
 10
12.893334
 20
-0.040781
 30
0.0
 11
18.116704
 21
-0.040781
 31
0.0
  0
LINE
  5
403
330
18
100
AcDbEntity
  8
DIMS_TEXT
100
AcDbLine
 10
12.893334
 20
0.382299
 30
0.0
 11
18.116704
 21
0.382299
 31
0.0
  0
TEXT
  5
404
330
18
100
AcDbEntity
  8
DIMS_TEXT
100
AcDbText
 10
12.98297
 20
-0.9601649999999999
 30
0.0
 40
0.2
  1
MODEL   PART NUMBER  RATIO
100
AcDbText
  0
LWPOLYLINE
  5
405
330
18
100
AcDbEntity
  8
DIMS_TEXT
100
AcDbPolyline
 90
        4
 70
     1
 43
0.0
 10
12.893334
 20
0.903012
 10
18.116704
 20
0.903012
 10
18.116704
 20
-1.635464999999999
 10
12.893334
 20
-1.635464999999999
  0
TEXT
  5
406
330
18
100
AcDbEntity
  8
DIMS_TEXT
100
AcDbText
 10
12.928615
 20
-0.276237
 30
0.0
 40
0.15
  1
Uxbridge, MA 01569              U.S.A.
100
AcDbText
  0
LINE
  5
407
330
18
100
AcDbEntity
  8
DIMS_TEXT
100
AcDbLine
 10
14.221585
 20
-0.6916720000000001
 30
0.0
 11
14.221585
 21
-1.635464999999999
 31
0.0
  0
LINE
  5
408
330
18
100
AcDbEntity
  8
DIMS_TEXT
100
AcDbLine
 10
16.910684
 20
-0.6916720000000001
 30
0.0
 11
16.910684
 21
-1.635464999999999
 31
0.0
  0
ENDSEC
  0
SECTION
  2
OBJECTS
  0
DICTIONARY
  5
C
330
0
100
AcDbDictionary
281
     1
  3
ACAD_CIP_PREVIOUS_PRODUCT_INFO
350
466
  3
ACAD_COLOR
350
445
  3
ACAD_DETAILVIEWSTYLE
350
45E
  3
ACAD_GROUP
350
D
  3
ACAD_LAYOUT
350
460
  3
ACAD_MATERIAL
350
413
  3
ACAD_MLEADERSTYLE
350
45A
  3
ACAD_MLINESTYLE
350
1B
  3
ACAD_PLOTSETTINGS
350
461
  3
ACAD_PLOTSTYLENAME
350
411
  3
ACAD_SCALELIST
350
448
  3
ACAD_SECTIONVIEWSTYLE
350
45C
  3
ACAD_TABLESTYLE
350
446
  3
ACAD_VISUALSTYLE
350
42C
  3
ACDB_RECOMPOSE_DATA
350
4AD
  3
AcDbVariableDictionary
350
49C
  0
DICTIONARY
  5
492
330
E
100
AcDbDictionary
280
     1
281
     1
  3
ADSK_XREC_LAYER_RECONCILED
360
493
  0
DICTIONARY
  5
494
330
21
100
AcDbDictionary
280
     1
281
     1
  3
ADSK_XREC_LAYER_RECONCILED
360
495
  0
DICTIONARY
  5
496
330
22
100
AcDbDictionary
280
     1
281
     1
  3
ADSK_XREC_LAYER_RECONCILED
360
497
  0
DICTIONARY
  5
498
330
15B
100
AcDbDictionary
280
     1
281
     1
  3
ADSK_XREC_LAYER_RECONCILED
360
499
  0
DICTIONARY
  5
49A
330
15E
100
AcDbDictionary
280
     1
281
     1
  3
ADSK_XREC_LAYER_RECONCILED
360
49B
  0
XRECORD
  5
466
102
{ACAD_REACTORS
330
C
102
}
330
C
100
AcDbXrecord
280
     1
300
ACDLT
300
2014
300
ACDLT_F_S
  0
DICTIONARY
  5
445
102
{ACAD_REACTORS
330
C
102
}
330
C
100
AcDbDictionary
281
     1
  0
DICTIONARY
  5
45E
102
{ACAD_REACTORS
330
C
102
}
330
C
100
AcDbDictionary
281
     1
  3
Imperial24
350
45F
  0
DICTIONARY
  5
D
102
{ACAD_REACTORS
330
C
102
}
330
C
100
AcDbDictionary
281
     1
  0
DICTIONARY
  5
460
102
{ACAD_REACTORS
330
C
102
}
330
C
100
AcDbDictionary
281
     1
  3
Layout1
350
463
  3
Model
350
462
  0
DICTIONARY
  5
413
102
{ACAD_REACTORS
330
C
102
}
330
C
100
AcDbDictionary
281
     1
  3
ByBlock
350
41C
  3
ByLayer
350
414
  3
Global
350
424
  0
DICTIONARY
  5
45A
102
{ACAD_REACTORS
330
C
102
}
330
C
100
AcDbDictionary
281
     1
  3
Standard
350
45B
  0
DICTIONARY
  5
1B
102
{ACAD_REACTORS
330
C
102
}
330
C
100
AcDbDictionary
281
     1
  3
STANDARD
350
1C
  0
DICTIONARY
  5
461
102
{ACAD_REACTORS
330
C
102
}
330
C
100
AcDbDictionary
281
     1
  0
ACDBDICTIONARYWDFLT
  5
411
102
{ACAD_REACTORS
330
C
102
}
330
C
100
AcDbDictionary
281
     1
  3
Normal
350
412
100
AcDbDictionaryWithDefault
340
412
  0
DICTIONARY
  5
448
102
{ACAD_REACTORS
330
C
102
}
330
C
100
AcDbDictionary
281
     1
  3
A0
350
449
  3
A1
350
44A
  3
A2
350
44B
  3
A3
350
44C
  3
A4
350
44D
  3
A5
350
44E
  3
A6
350
44F
  3
A7
350
450
  3
A8
350
451
  3
A9
350
452
  3
B0
350
453
  3
B1
350
454
  3
B2
350
455
  3
B3
350
456
  3
B4
350
457
  3
B5
350
458
  3
B6
350
459
  0
DICTIONARY
  5
45C
102
{ACAD_REACTORS
330
C
102
}
330
C
100
AcDbDictionary
281
     1
  3
Imperial24
350
45D
  0
DICTIONARY
  5
446
102
{ACAD_REACTORS
330
C
102
}
330
C
100
AcDbDictionary
281
     1
  3
Standard
350
447
  0
DICTIONARY
  5
42C
102
{ACAD_REACTORS
330
C
102
}
330
C
100
AcDbDictionary
281
     1
  3
2dWireframe
350
432
  3
Basic
350
431
  3
Brighten
350
438
  3
ColorChange
350
43C
  3
Conceptual
350
435
  3
Dim
350
437
  3
EdgeColorOff
350
444
  3
Facepattern
350
43B
  3
Flat
350
42D
  3
FlatWithEdges
350
42E
  3
Gouraud
350
42F
  3
GouraudWithEdges
350
430
  3
Hidden
350
434
  3
JitterOff
350
442
  3
Linepattern
350
43A
  3
OverhangOff
350
443
  3
Realistic
350
436
  3
Shaded
350
441
  3
Shaded with edges
350
440
  3
Shades of Gray
350
43D
  3
Sketchy
350
43E
  3
Thicken
350
439
  3
Wireframe
350
433
  3
X-Ray
350
43F
  0
XRECORD
  5
4AD
102
{ACAD_REACTORS
330
C
102
}
330
C
100
AcDbXrecord
280
     1
 90
        1
330
447
330
45D
330
45F
  0
DICTIONARY
  5
49C
102
{ACAD_REACTORS
330
C
102
}
330
C
100
AcDbDictionary
281
     1
  3
CANNOSCALE
350
4A2
  3
CMLEADERSTYLE
350
49E
  3
CTABLESTYLE
350
49D
  3
CVIEWDETAILSTYLE
350
49F
  3
CVIEWSECTIONSTYLE
350
4A0
  3
LAYEREVAL
350
4A4
  3
LAYERNOTIFY
350
4A5
  3
LIGHTINGUNITS
350
4A3
  3
MSLTSCALE
350
4A1
  0
XRECORD
  5
493
102
{ACAD_REACTORS
330
492
102
}
330
492
100
AcDbXrecord
280
     1
290
     1
  0
XRECORD
  5
495
102
{ACAD_REACTORS
330
494
102
}
330
494
100
AcDbXrecord
280
     1
290
     1
  0
XRECORD
  5
497
102
{ACAD_REACTORS
330
496
102
}
330
496
100
AcDbXrecord
280
     1
290
     1
  0
XRECORD
  5
499
102
{ACAD_REACTORS
330
498
102
}
330
498
100
AcDbXrecord
280
     1
290
     1
  0
XRECORD
  5
49B
102
{ACAD_REACTORS
330
49A
102
}
330
49A
100
AcDbXrecord
280
     1
290
     1
  0
ACDBDETAILVIEWSTYLE
  5
45F
102
{ACAD_XDICTIONARY
360
4AB
102
}
102
{ACAD_REACTORS
330
45E
102
}
330
45E
100
AcDbModelDocViewStyle
 70
     0
  3
Imperial24
290
     0
100
AcDbDetailViewStyle
 70
     0
 71
     0
 90
        3
 71
     1
340
F
 62
   256
 40
0.24
340
0
 62
   256
 40
0.24
300

 40
0.36
280
     3
 71
     2
340
14
 90
       25
 62
   256
 71
     3
340
F
 62
   256
 40
0.24
 90
        1
 40
0.75
 90
        1
300
%<\AcVar ViewType \f "%tc1">% %<\AcVar ViewDetailId>%\PSCALE %<\AcVar ViewScale \f "%sn">%
 71
     4
340
14
 90
       25
 62
   256
340
14
 90
       25
 62
   256
280
     0
  0
LAYOUT
  5
463
102
{ACAD_REACTORS
330
460
102
}
330
460
100
AcDbPlotSettings
  1

  2
HP OfficeJet Pro 9010 series
  4

  6

 40
0.0
 41
0.0
 42
0.0
 43
0.0
 44
0.0
 45
0.0
 46
0.0
 47
0.0
 48
0.0
 49
0.0
140
0.0
141
0.0
142
1.0
143
1.0
 70
   688
 72
     0
 73
     0
 74
     5
  7

 75
    16
147
1.0
 76
     0
 77
     2
 78
   300
148
0.0
149
0.0
100
AcDbLayout
  1
Layout1
 70
     1
 71
     1
 10
0.0
 20
0.0
 11
12.0
 21
9.0
 12
0.0
 22
0.0
 32
0.0
 14
1.000000000000000E+20
 24
1.000000000000000E+20
 34
1.000000000000000E+20
 15
-1.000000000000000E+20
 25
-1.000000000000000E+20
 35
-1.000000000000000E+20
146
0.0
 13
0.0
 23
0.0
 33
0.0
 16
1.0
 26
0.0
 36
0.0
 17
0.0
 27
1.0
 37
0.0
 76
     0
330
15
  0
LAYOUT
  5
462
102
{ACAD_REACTORS
330
460
102
}
330
460
100
AcDbPlotSettings
  1

  2
HP OfficeJet Pro 9010 series
  4

  6

 40
0.0
 41
0.0
 42
0.0
 43
0.0
 44
0.0
 45
0.0
 46
0.0
 47
0.0
 48
0.0
 49
0.0
140
0.0
141
0.0
142
1.0
143
1.0
 70
  1712
 72
     0
 73
     0
 74
     0
  7

 75
     0
147
1.0
 76
     0
 77
     2
 78
   300
148
0.0
149
0.0
100
AcDbLayout
  1
Model
 70
     1
 71
     0
 10
0.0
 20
0.0
 11
12.0
 21
9.0
 12
0.0
 22
0.0
 32
0.0
 14
0.0
 24
0.0
 34
0.0
 15
0.0
 25
0.0
 35
0.0
146
0.0
 13
0.0
 23
0.0
 33
0.0
 16
1.0
 26
0.0
 36
0.0
 17
0.0
 27
1.0
 37
0.0
 76
     0
330
18
331
409
  0
MATERIAL
  5
41C
102
{ACAD_XDICTIONARY
360
41D
102
}
102
{ACAD_REACTORS
330
413
102
}
330
413
100
AcDbMaterial
  1
ByBlock
 72
     0
 43
0.0208333333333333
 43
0.0
 43
0.0
 43
0.0
 43
0.0
 43
0.0208333333333333
 43
0.0
 43
0.0
 43
0.0
 43
0.0
 43
1.0
 43
0.0
 43
0.0
 43
0.0
 43
0.0
 43
1.0
 77
     0
 47
0.0208333333333333
 47
0.0
 47
0.0
 47
0.0
 47
0.0
 47
0.0208333333333333
 47
0.0
 47
0.0
 47
0.0
 47
0.0
 47
1.0
 47
0.0
 47
0.0
 47
0.0
 47
0.0
 47
1.0
171
     0
 49
0.0208333333333333
 49
0.0
 49
0.0
 49
0.0
 49
0.0
 49
0.0208333333333333
 49
0.0
 49
0.0
 49
0.0
 49
0.0
 49
1.0
 49
0.0
 49
0.0
 49
0.0
 49
0.0
 49
1.0
175
     0
142
0.0208333333333333
142
0.0
142
0.0
142
0.0
142
0.0
142
0.0208333333333333
142
0.0
142
0.0
142
0.0
142
0.0
142
1.0
142
0.0
142
0.0
142
0.0
142
0.0
142
1.0
179
     0
144
0.0208333333333333
144
0.0
144
0.0
144
0.0
144
0.0
144
0.0208333333333333
144
0.0
144
0.0
144
0.0
144
0.0
144
1.0
144
0.0
144
0.0
144
0.0
144
0.0
144
1.0
147
0.0208333333333333
147
0.0
147
0.0
147
0.0
147
0.0
147
0.0208333333333333
147
0.0
147
0.0
147
0.0
147
0.0
147
1.0
147
0.0
147
0.0
147
0.0
147
0.0
147
1.0
  0
MATERIAL
  5
414
102
{ACAD_XDICTIONARY
360
415
102
}
102
{ACAD_REACTORS
330
413
102
}
330
413
100
AcDbMaterial
  1
ByLayer
 72
     0
 43
0.0208333333333333
 43
0.0
 43
0.0
 43
0.0
 43
0.0
 43
0.0208333333333333
 43
0.0
 43
0.0
 43
0.0
 43
0.0
 43
1.0
 43
0.0
 43
0.0
 43
0.0
 43
0.0
 43
1.0
 77
     0
 47
0.0208333333333333
 47
0.0
 47
0.0
 47
0.0
 47
0.0
 47
0.0208333333333333
 47
0.0
 47
0.0
 47
0.0
 47
0.0
 47
1.0
 47
0.0
 47
0.0
 47
0.0
 47
0.0
 47
1.0
171
     0
 49
0.0208333333333333
 49
0.0
 49
0.0
 49
0.0
 49
0.0
 49
0.0208333333333333
 49
0.0
 49
0.0
 49
0.0
 49
0.0
 49
1.0
 49
0.0
 49
0.0
 49
0.0
 49
0.0
 49
1.0
175
     0
142
0.0208333333333333
142
0.0
142
0.0
142
0.0
142
0.0
142
0.0208333333333333
142
0.0
142
0.0
142
0.0
142
0.0
142
1.0
142
0.0
142
0.0
142
0.0
142
0.0
142
1.0
179
     0
144
0.0208333333333333
144
0.0
144
0.0
144
0.0
144
0.0
144
0.0208333333333333
144
0.0
144
0.0
144
0.0
144
0.0
144
1.0
144
0.0
144
0.0
144
0.0
144
0.0
144
1.0
147
0.0208333333333333
147
0.0
147
0.0
147
0.0
147
0.0
147
0.0208333333333333
147
0.0
147
0.0
147
0.0
147
0.0
147
1.0
147
0.0
147
0.0
147
0.0
147
0.0
147
1.0
  0
MATERIAL
  5
424
102
{ACAD_XDICTIONARY
360
425
102
}
102
{ACAD_REACTORS
330
413
102
}
330
413
100
AcDbMaterial
  1
Global
 72
     0
 43
0.0208333333333333
 43
0.0
 43
0.0
 43
0.0
 43
0.0
 43
0.0208333333333333
 43
0.0
 43
0.0
 43
0.0
 43
0.0
 43
1.0
 43
0.0
 43
0.0
 43
0.0
 43
0.0
 43
1.0
 77
     0
 47
0.0208333333333333
 47
0.0
 47
0.0
 47
0.0
 47
0.0
 47
0.0208333333333333
 47
0.0
 47
0.0
 47
0.0
 47
0.0
 47
1.0
 47
0.0
 47
0.0
 47
0.0
 47
0.0
 47
1.0
171
     0
 49
0.0208333333333333
 49
0.0
 49
0.0
 49
0.0
 49
0.0
 49
0.0208333333333333
 49
0.0
 49
0.0
 49
0.0
 49
0.0
 49
1.0
 49
0.0
 49
0.0
 49
0.0
 49
0.0
 49
1.0
175
     0
142
0.0208333333333333
142
0.0
142
0.0
142
0.0
142
0.0
142
0.0208333333333333
142
0.0
142
0.0
142
0.0
142
0.0
142
1.0
142
0.0
142
0.0
142
0.0
142
0.0
142
1.0
179
     0
144
0.0208333333333333
144
0.0
144
0.0
144
0.0
144
0.0
144
0.0208333333333333
144
0.0
144
0.0
144
0.0
144
0.0
144
1.0
144
0.0
144
0.0
144
0.0
144
0.0
144
1.0
147
0.0208333333333333
147
0.0
147
0.0
147
0.0
147
0.0
147
0.0208333333333333
147
0.0
147
0.0
147
0.0
147
0.0
147
1.0
147
0.0
147
0.0
147
0.0
147
0.0
147
1.0
  0
MLEADERSTYLE
  5
45B
102
{ACAD_REACTORS
330
45A
102
}
330
45A
100
AcDbMLeaderStyle
179
     2
170
     2
171
     1
172
     0
 90
        2
 40
0.0
 41
0.0
173
     1
 91
-1056964608
340
12
 92
       -2
290
     1
 42
0.09
291
     1
 43
0.36
  3
Standard
 44
0.18
300

342
F
174
     1
178
     6
175
     1
176
     0
 93
-1056964608
 45
0.18
292
     0
297
     0
 46
0.18
 94
-1056964608
 47
1.0
 49
1.0
140
1.0
293
     1
141
0.0
294
     1
177
     0
142
1.0
295
     0
296
     0
143
0.125
271
     0
272
     9
273
     9
298
     0
  0
MLINESTYLE
  5
1C
102
{ACAD_REACTORS
330
1B
102
}
330
1B
100
AcDbMlineStyle
  2
STANDARD
 70
     0
  3

 62
   256
 51
90.0
 52
90.0
 71
     2
 49
0.5
 62
   256
  6
BYLAYER
 49
-0.5
 62
   256
  6
BYLAYER
  0
ACDBPLACEHOLDER
  5
412
102
{ACAD_REACTORS
330
411
102
}
330
411
  0
SCALE
  5
449
102
{ACAD_REACTORS
330
448
102
}
330
448
100
AcDbScale
 70
     0
300
1:1
140
1.0
141
1.0
290
     1
  0
SCALE
  5
44A
102
{ACAD_REACTORS
330
448
102
}
330
448
100
AcDbScale
 70
     0
300
1/128" = 1'-0"
140
0.0078125
141
12.0
290
     0
  0
SCALE
  5
44B
102
{ACAD_REACTORS
330
448
102
}
330
448
100
AcDbScale
 70
     0
300
1/64" = 1'-0"
140
0.015625
141
12.0
290
     0
  0
SCALE
  5
44C
102
{ACAD_REACTORS
330
448
102
}
330
448
100
AcDbScale
 70
     0
300
1/32" = 1'-0"
140
0.03125
141
12.0
290
     0
  0
SCALE
  5
44D
102
{ACAD_REACTORS
330
448
102
}
330
448
100
AcDbScale
 70
     0
300
1/16" = 1'-0"
140
0.0625
141
12.0
290
     0
  0
SCALE
  5
44E
102
{ACAD_REACTORS
330
448
102
}
330
448
100
AcDbScale
 70
     0
300
3/32" = 1'-0"
140
0.09375
141
12.0
290
     0
  0
SCALE
  5
44F
102
{ACAD_REACTORS
330
448
102
}
330
448
100
AcDbScale
 70
     0
300
1/8" = 1'-0"
140
0.125
141
12.0
290
     0
  0
SCALE
  5
450
102
{ACAD_REACTORS
330
448
102
}
330
448
100
AcDbScale
 70
     0
300
3/16" = 1'-0"
140
0.1875
141
12.0
290
     0
  0
SCALE
  5
451
102
{ACAD_REACTORS
330
448
102
}
330
448
100
AcDbScale
 70
     0
300
1/4" = 1'-0"
140
0.25
141
12.0
290
     0
  0
SCALE
  5
452
102
{ACAD_REACTORS
330
448
102
}
330
448
100
AcDbScale
 70
     0
300
3/8" = 1'-0"
140
0.375
141
12.0
290
     0
  0
SCALE
  5
453
102
{ACAD_REACTORS
330
448
102
}
330
448
100
AcDbScale
 70
     0
300
1/2" = 1'-0"
140
0.5
141
12.0
290
     0
  0
SCALE
  5
454
102
{ACAD_REACTORS
330
448
102
}
330
448
100
AcDbScale
 70
     0
300
3/4" = 1'-0"
140
0.75
141
12.0
290
     0
  0
SCALE
  5
455
102
{ACAD_REACTORS
330
448
102
}
330
448
100
AcDbScale
 70
     0
300
1" = 1'-0"
140
1.0
141
12.0
290
     0
  0
SCALE
  5
456
102
{ACAD_REACTORS
330
448
102
}
330
448
100
AcDbScale
 70
     0
300
1-1/2" = 1'-0"
140
1.5
141
12.0
290
     0
  0
SCALE
  5
457
102
{ACAD_REACTORS
330
448
102
}
330
448
100
AcDbScale
 70
     0
300
3" = 1'-0"
140
3.0
141
12.0
290
     0
  0
SCALE
  5
458
102
{ACAD_REACTORS
330
448
102
}
330
448
100
AcDbScale
 70
     0
300
6" = 1'-0"
140
6.0
141
12.0
290
     0
  0
SCALE
  5
459
102
{ACAD_REACTORS
330
448
102
}
330
448
100
AcDbScale
 70
     0
300
1'-0" = 1'-0"
140
12.0
141
12.0
290
     0
  0
ACDBSECTIONVIEWSTYLE
  5
45D
102
{ACAD_XDICTIONARY
360
4A9
102
}
102
{ACAD_REACTORS
330
45C
102
}
330
45C
100
AcDbModelDocViewStyle
 70
     0
  3
Imperial24
290
     0
100
AcDbSectionViewStyle
 70
     0
 71
     0
 90
       78
 71
     1
340
F
 62
   256
 40
0.24
340
0
340
0
 62
   256
 40
0.24
300
I, O, Q, S, X, Z
 40
0.48
 90
        3
 40
0.18
 90
        1
 71
     2
340
14
 90
       25
 62
   256
340
14
 90
       50
 62
   256
 40
0.24
 40
0.0
 40
0.24
 71
     3
340
F
 62
   256
 40
0.24
 90
        1
 40
0.75
 90
        1
300
%<\AcVar ViewType \f "%tc1">% %<\AcVar ViewSectionStartId>%-%<\AcVar ViewSectionEndId>%\PSCALE %<\AcVar ViewScale \f "%sn">%
 71
     4
 62
   256
 62
   257
300
ANSI31
 40
1.0
 90
        0
290
     0
290
     0
 90
        6
 40
0.0
 40
1.570796326794896
 40
0.2617993877991494
 40
1.308996938995747
 40
-0.2617993877991494
 40
1.832595714594046
  0
TABLESTYLE
  5
447
102
{ACAD_XDICTIONARY
360
4A7
102
}
102
{ACAD_REACTORS
330
446
102
}
330
446
100
AcDbTableStyle
280
     0
  3
Standard
 70
     0
 71
     0
 40
0.06
 41
0.06
280
     0
281
     0
  7
STANDARD
140
0.18
170
     2
 62
     0
 63
     7
283
     0
 90
      512
 91
        0
  1

274
    -2
284
     1
 64
     0
275
    -2
285
     1
 65
     0
276
    -2
286
     1
 66
     0
277
    -2
287
     1
 67
     0
278
    -2
288
     1
 68
     0
279
    -2
289
     1
 69
     0
  7
STANDARD
140
0.25
170
     5
 62
     0
 63
     7
283
     0
 90
      512
 91
        0
  1

274
    -2
284
     1
 64
     0
275
    -2
285
     1
 65
     0
276
    -2
286
     1
 66
     0
277
    -2
287
     1
 67
     0
278
    -2
288
     1
 68
     0
279
    -2
289
     1
 69
     0
  7
STANDARD
140
0.18
170
     5
 62
     0
 63
     7
283
     0
 90
      512
 91
        0
  1

274
    -2
284
     1
 64
     0
275
    -2
285
     1
 65
     0
276
    -2
286
     1
 66
     0
277
    -2
287
     1
 67
     0
278
    -2
288
     1
 68
     0
279
    -2
289
     1
 69
     0
  0
VISUALSTYLE
  5
432
102
{ACAD_REACTORS
330
42C
102
}
330
42C
100
AcDbVisualStyle
  2
2dWireframe
 70
     4
177
     3
291
     0
 70
    58
 90
        0
176
     1
 90
        2
176
     1
 90
        0
176
     1
 90
        0
176
     1
 40
0.6
176
     1
 40
30.0
176
     1
 62
     7
420
 16777215
176
     1
 90
        1
176
     1
 90
        4
176
     1
 62
     7
176
     1
 62
   257
176
     1
 90
        1
176
     1
 90
        1
176
     1
 40
1.0
176
     1
 90
        0
176
     1
 62
   257
176
     1
 40
1.0
176
     1
 90
        1
176
     1
 90
        6
176
     1
 90
        2
176
     1
 62
     7
176
     1
 90
        5
176
     1
 90
        0
176
     1
 90
        0
176
     1
290
     0
176
     1
 90
        1
176
     1
 40
0.0
176
     1
 90
        0
176
     1
290
     1
176
     1
290
     1
176
     1
290
     0
176
     1
290
     0
176
     1
290
     0
176
     1
290
     0
176
     1
290
     0
176
     1
290
     0
176
     1
290
     0
176
     1
 90
       50
176
     1
 40
0.0
176
     1
 40
1.0
176
     1
 90
        0
176
     1
 62
    18
420
        0
176
     1
 90
       50
176
     1
 90
        3
176
     1
 62
     5
420
      255
176
     1
290
     0
176
     1
 90
       50
176
     1
 90
       50
176
     1
 90
       50
176
     1
290
     0
176
     1
 90
       50
176
     1
 62
   256
176
     0
 40
1.0
176
     0
 90
        2
176
     1
  1
strokes_ogs.tif
176
     1
290
     0
176
     1
 40
1.0
176
     1
 40
1.0
176
     1
  0
VISUALSTYLE
  5
431
102
{ACAD_REACTORS
330
42C
102
}
330
42C
100
AcDbVisualStyle
  2
Basic
 70
     7
177
     3
291
     1
 70
    58
 90
        1
176
     1
 90
        0
176
     1
 90
        1
176
     1
 90
        0
176
     1
 40
0.6
176
     1
 40
30.0
176
     1
 62
     7
420
 16777215
176
     1
 90
        0
176
     1
 90
        4
176
     1
 62
     7
176
     1
 62
   257
176
     1
 90
        1
176
     1
 90
        1
176
     1
 40
1.0
176
     1
 90
        8
176
     1
 62
     7
176
     1
 40
1.0
176
     1
 90
        1
176
     1
 90
        6
176
     1
 90
        2
176
     1
 62
     7
176
     1
 90
        5
176
     1
 90
        0
176
     1
 90
        0
176
     1
290
     0
176
     1
 90
        1
176
     1
 40
0.0
176
     1
 90
        0
176
     1
290
     0
176
     1
290
     1
176
     1
290
     1
176
     1
290
     0
176
     1
290
     0
176
     1
290
     0
176
     1
290
     0
176
     1
290
     0
176
     1
290
     0
176
     1
 90
       50
176
     1
 40
0.0
176
     1
 40
1.0
176
     1
 90
        0
176
     1
 62
    18
420
        0
176
     1
 90
       50
176
     1
 90
        3
176
     1
 62
     5
420
      255
176
     1
290
     0
176
     1
 90
       50
176
     1
 90
       50
176
     1
 90
       50
176
     1
290
     0
176
     1
 90
       50
176
     1
 62
   256
176
     0
 40
1.0
176
     0
 90
        2
176
     1
  1
strokes_ogs.tif
176
     1
290
     0
176
     1
 40
1.0
176
     1
 40
1.0
176
     1
  0
VISUALSTYLE
  5
438
102
{ACAD_REACTORS
330
42C
102
}
330
42C
100
AcDbVisualStyle
  2
Brighten
 70
    12
177
     3
291
     1
 70
    58
 90
        2
176
     1
 90
        2
176
     1
 90
        0
176
     1
 90
        0
176
     1
 40
0.6
176
     1
 40
30.0
176
     1
 62
     7
420
 16777215
176
     1
 90
        1
176
     1
 90
        4
176
     1
 62
     7
176
     1
 62
   257
176
     1
 90
        1
176
     1
 90
        1
176
     1
 40
1.0
176
     1
 90
        8
176
     1
 62
     7
176
     1
 40
1.0
176
     1
 90
        1
176
     1
 90
        6
176
     1
 90
        2
176
     1
 62
     7
176
     1
 90
        5
176
     1
 90
        0
176
     1
 90
        0
176
     1
290
     0
176
     1
 90
        1
176
     1
 40
50.0
176
     1
 90
        0
176
     1
290
     0
176
     1
290
     1
176
     1
290
     1
176
     1
290
     0
176
     1
290
     0
176
     1
290
     0
176
     1
290
     0
176
     1
290
     0
176
     1
290
     0
176
     1
 90
       50
176
     1
 40
0.0
176
     1
 40
1.0
176
     1
 90
        0
176
     1
 62
    18
420
        0
176
     1
 90
       50
176
     1
 90
        3
176
     1
 62
     5
420
      255
176
     1
290
     0
176
     1
 90
       50
176
     1
 90
       50
176
     1
 90
       50
176
     1
290
     0
176
     1
 90
       50
176
     1
 62
   256
176
     0
 40
1.0
176
     0
 90
        2
176
     1
  1
strokes_ogs.tif
176
     1
290
     0
176
     1
 40
1.0
176
     1
 40
1.0
176
     1
  0
VISUALSTYLE
  5
43C
102
{ACAD_REACTORS
330
42C
102
}
330
42C
100
AcDbVisualStyle
  2
ColorChange
 70
    16
177
     3
291
     1
 70
    58
 90
        2
176
     1
 90
        2
176
     1
 90
        3
176
     1
 90
        0
176
     1
 40
0.6
176
     1
 40
30.0
176
     1
 62
     8
420
  8421504
176
     1
 90
        1
176
     1
 90
        4
176
     1
 62
     7
176
     1
 62
   257
176
     1
 90
        1
176
     1
 90
        1
176
     1
 40
1.0
176
     1
 90
        8
176
     1
 62
     8
420
  8421504
176
     1
 40
1.0
176
     1
 90
        1
176
     1
 90
        6
176
     1
 90
        2
176
     1
 62
     7
176
     1
 90
        5
176
     1
 90
        0
176
     1
 90
        0
176
     1
290
     0
176
     1
 90
        1
176
     1
 40
0.0
176
     1
 90
        0
176
     1
290
     0
176
     1
290
     1
176
     1
290
     1
176
     1
290
     0
176
     1
290
     0
176
     1
290
     0
176
     1
290
     0
176
     1
290
     0
176
     1
290
     0
176
     1
 90
       50
176
     1
 40
0.0
176
     1
 40
1.0
176
     1
 90
        0
176
     1
 62
    18
420
        0
176
     1
 90
       50
176
     1
 90
        3
176
     1
 62
     5
420
      255
176
     1
290
     0
176
     1
 90
       50
176
     1
 90
       50
176
     1
 90
       50
176
     1
290
     0
176
     1
 90
       50
176
     1
 62
   256
176
     0
 40
1.0
176
     0
 90
        2
176
     1
  1
strokes_ogs.tif
176
     1
290
     0
176
     1
 40
1.0
176
     1
 40
1.0
176
     1
  0
VISUALSTYLE
  5
435
102
{ACAD_REACTORS
330
42C
102
}
330
42C
100
AcDbVisualStyle
  2
Conceptual
 70
     9
177
     3
291
     0
 70
    58
 90
        3
176
     1
 90
        2
176
     1
 90
        0
176
     1
 90
        0
176
     1
 40
0.6
176
     1
 40
30.0
176
     1
 62
     7
420
 16777215
176
     1
 90
        2
176
     1
 90
        2
176
     1
 62
     7
176
     1
 62
   257
176
     1
 90
        1
176
     1
 90
        1
176
     1
 40
179.0
176
     1
 90
        8
176
     1
 62
     7
176
     1
 40
1.0
176
     1
 90
        1
176
     1
 90
        6
176
     1
 90
        2
176
     1
 62
     7
176
     1
 90
        3
176
     1
 90
        0
176
     1
 90
        0
176
     1
290
     0
176
     1
 90
        1
176
     1
 40
0.0
176
     1
 90
        0
176
     1
290
     0
176
     1
290
     1
176
     1
290
     1
176
     1
290
     0
176
     1
290
     0
176
     1
290
     0
176
     1
290
     0
176
     1
290
     0
176
     1
290
     0
176
     1
 90
       50
176
     1
 40
0.0
176
     1
 40
1.0
176
     1
 90
        0
176
     1
 62
    18
420
        0
176
     1
 90
       50
176
     1
 90
        3
176
     1
 62
     5
420
      255
176
     1
290
     0
176
     1
 90
       50
176
     1
 90
       50
176
     1
 90
       50
176
     1
290
     0
176
     1
 90
       50
176
     1
 62
   256
176
     0
 40
1.0
176
     0
 90
        2
176
     1
  1
strokes_ogs.tif
176
     1
290
     0
176
     1
 40
1.0
176
     1
 40
1.0
176
     1
  0
VISUALSTYLE
  5
437
102
{ACAD_REACTORS
330
42C
102
}
330
42C
100
AcDbVisualStyle
  2
Dim
 70
    11
177
     3
291
     1
 70
    58
 90
        2
176
     1
 90
        2
176
     1
 90
        0
176
     1
 90
        0
176
     1
 40
0.6
176
     1
 40
30.0
176
     1
 62
     7
420
 16777215
176
     1
 90
        1
176
     1
 90
        4
176
     1
 62
     7
176
     1
 62
   257
176
     1
 90
        1
176
     1
 90
        1
176
     1
 40
1.0
176
     1
 90
        8
176
     1
 62
     7
176
     1
 40
1.0
176
     1
 90
        1
176
     1
 90
        6
176
     1
 90
        2
176
     1
 62
     7
176
     1
 90
        5
176
     1
 90
        0
176
     1
 90
        0
176
     1
290
     0
176
     1
 90
        1
176
     1
 40
-50.0
176
     1
 90
        0
176
     1
290
     0
176
     1
290
     1
176
     1
290
     1
176
     1
290
     0
176
     1
290
     0
176
     1
290
     0
176
     1
290
     0
176
     1
290
     0
176
     1
290
     0
176
     1
 90
       50
176
     1
 40
0.0
176
     1
 40
1.0
176
     1
 90
        0
176
     1
 62
    18
420
        0
176
     1
 90
       50
176
     1
 90
        3
176
     1
 62
     5
420
      255
176
     1
290
     0
176
     1
 90
       50
176
     1
 90
       50
176
     1
 90
       50
176
     1
290
     0
176
     1
 90
       50
176
     1
 62
   256
176
     0
 40
1.0
176
     0
 90
        2
176
     1
  1
strokes_ogs.tif
176
     1
290
     0
176
     1
 40
1.0
176
     1
 40
1.0
176
     1
  0
VISUALSTYLE
  5
444
102
{ACAD_REACTORS
330
42C
102
}
330
42C
100
AcDbVisualStyle
  2
EdgeColorOff
 70
    22
177
     3
291
     1
 70
    58
 90
        2
176
     0
 90
        2
176
     0
 90
        0
176
     0
 90
        0
176
     0
 40
0.6
176
     0
 40
30.0
176
     0
 62
     7
420
 16777215
176
     0
 90
        1
176
     0
 90
        4
176
     0
 62
     7
176
     0
 62
   257
176
     0
 90
        1
176
     0
 90
        1
176
     0
 40
1.0
176
     0
 90
        8
176
     2
 62
     7
176
     0
 40
1.0
176
     0
 90
        1
176
     0
 90
        6
176
     0
 90
        2
176
     0
 62
     7
176
     0
 90
        5
176
     0
 90
        0
176
     0
 90
        0
176
     0
290
     0
176
     0
 90
        1
176
     0
 40
0.0
176
     0
 90
        0
176
     0
290
     0
176
     1
290
     1
176
     1
290
     1
176
     1
290
     0
176
     1
290
     0
176
     1
290
     0
176
     1
290
     0
176
     1
290
     0
176
     1
290
     0
176
     1
 90
       50
176
     0
 40
0.0
176
     0
 40
1.0
176
     0
 90
        0
176
     0
 62
    18
420
        0
176
     0
 90
       50
176
     0
 90
        3
176
     0
 62
     5
420
      255
176
     0
290
     0
176
     1
 90
       50
176
     0
 90
       50
176
     0
 90
       50
176
     0
290
     0
176
     1
 90
       50
176
     0
 62
   256
176
     0
 40
1.0
176
     0
 90
        2
176
     0
  1
strokes_ogs.tif
176
     0
290
     0
176
     1
 40
1.0
176
     0
 40
1.0
176
     0
  0
VISUALSTYLE
  5
43B
102
{ACAD_REACTORS
330
42C
102
}
330
42C
100
AcDbVisualStyle
  2
Facepattern
 70
    15
177
     3
291
     1
 70
    58
 90
        2
176
     1
 90
        2
176
     1
 90
        0
176
     1
 90
        0
176
     1
 40
0.6
176
     1
 40
30.0
176
     1
 62
     7
420
 16777215
176
     1
 90
        1
176
     1
 90
        4
176
     1
 62
     7
176
     1
 62
   257
176
     1
 90
        1
176
     1
 90
        1
176
     1
 40
1.0
176
     1
 90
        8
176
     1
 62
     7
176
     1
 40
1.0
176
     1
 90
        1
176
     1
 90
        6
176
     1
 90
        2
176
     1
 62
     7
176
     1
 90
        5
176
     1
 90
        0
176
     1
 90
        0
176
     1
290
     0
176
     1
 90
        1
176
     1
 40
0.0
176
     1
 90
        0
176
     1
290
     0
176
     1
290
     1
176
     1
290
     1
176
     1
290
     0
176
     1
290
     0
176
     1
290
     0
176
     1
290
     0
176
     1
290
     0
176
     1
290
     0
176
     1
 90
       50
176
     1
 40
0.0
176
     1
 40
1.0
176
     1
 90
        0
176
     1
 62
    18
420
        0
176
     1
 90
       50
176
     1
 90
        3
176
     1
 62
     5
420
      255
176
     1
290
     0
176
     1
 90
       50
176
     1
 90
       50
176
     1
 90
       50
176
     1
290
     0
176
     1
 90
       50
176
     1
 62
   256
176
     0
 40
1.0
176
     0
 90
        2
176
     1
  1
strokes_ogs.tif
176
     1
290
     0
176
     1
 40
1.0
176
     1
 40
1.0
176
     1
  0
VISUALSTYLE
  5
42D
102
{ACAD_REACTORS
330
42C
102
}
330
42C
100
AcDbVisualStyle
  2
Flat
 70
     0
177
     3
291
     1
 70
    58
 90
        2
176
     1
 90
        1
176
     1
 90
        1
176
     1
 90
        2
176
     1
 40
0.6
176
     1
 40
30.0
176
     1
 62
     7
420
 16777215
176
     1
 90
        0
176
     1
 90
        0
176
     1
 62
     7
176
     1
 62
   257
176
     1
 90
        1
176
     1
 90
        1
176
     1
 40
1.0
176
     1
 90
        8
176
     1
 62
     7
176
     1
 40
1.0
176
     1
 90
        1
176
     1
 90
        6
176
     1
 90
        2
176
     1
 62
     7
176
     1
 90
        5
176
     1
 90
        0
176
     1
 90
        0
176
     1
290
     0
176
     1
 90
       13
176
     1
 40
0.0
176
     1
 90
        0
176
     1
290
     0
176
     1
290
     1
176
     1
290
     1
176
     1
290
     0
176
     1
290
     0
176
     1
290
     0
176
     1
290
     0
176
     1
290
     0
176
     1
290
     0
176
     1
 90
       50
176
     1
 40
0.0
176
     1
 40
1.0
176
     1
 90
        0
176
     1
 62
    18
420
        0
176
     1
 90
       50
176
     1
 90
        3
176
     1
 62
     5
420
      255
176
     1
290
     0
176
     1
 90
       50
176
     1
 90
       50
176
     1
 90
       50
176
     1
290
     0
176
     1
 90
       50
176
     1
 62
   256
176
     0
 40
1.0
176
     0
 90
        2
176
     1
  1
strokes_ogs.tif
176
     1
290
     0
176
     1
 40
1.0
176
     1
 40
1.0
176
     1
  0
VISUALSTYLE
  5
42E
102
{ACAD_REACTORS
330
42C
102
}
330
42C
100
AcDbVisualStyle
  2
FlatWithEdges
 70
     1
177
     3
291
     1
 70
    58
 90
        2
176
     1
 90
        1
176
     1
 90
        1
176
     1
 90
        2
176
     1
 40
0.6
176
     1
 40
30.0
176
     1
 62
     7
420
 16777215
176
     1
 90
        1
176
     1
 90
        0
176
     1
 62
     7
176
     1
 62
   257
176
     1
 90
        1
176
     1
 90
        1
176
     1
 40
1.0
176
     1
 90
        0
176
     1
 62
   257
176
     1
 40
1.0
176
     1
 90
        1
176
     1
 90
        6
176
     1
 90
        2
176
     1
 62
     7
176
     1
 90
        5
176
     1
 90
        0
176
     1
 90
        0
176
     1
290
     0
176
     1
 90
       13
176
     1
 40
0.0
176
     1
 90
        0
176
     1
290
     0
176
     1
290
     1
176
     1
290
     1
176
     1
290
     0
176
     1
290
     0
176
     1
290
     0
176
     1
290
     0
176
     1
290
     0
176
     1
290
     0
176
     1
 90
       50
176
     1
 40
0.0
176
     1
 40
1.0
176
     1
 90
        0
176
     1
 62
    18
420
        0
176
     1
 90
       50
176
     1
 90
        3
176
     1
 62
     5
420
      255
176
     1
290
     0
176
     1
 90
       50
176
     1
 90
       50
176
     1
 90
       50
176
     1
290
     0
176
     1
 90
       50
176
     1
 62
   256
176
     0
 40
1.0
176
     0
 90
        2
176
     1
  1
strokes_ogs.tif
176
     1
290
     0
176
     1
 40
1.0
176
     1
 40
1.0
176
     1
  0
VISUALSTYLE
  5
42F
102
{ACAD_REACTORS
330
42C
102
}
330
42C
100
AcDbVisualStyle
  2
Gouraud
 70
     2
177
     3
291
     1
 70
    58
 90
        2
176
     1
 90
        2
176
     1
 90
        1
176
     1
 90
        2
176
     1
 40
0.6
176
     1
 40
30.0
176
     1
 62
     7
420
 16777215
176
     1
 90
        0
176
     1
 90
        0
176
     1
 62
     7
176
     1
 62
   257
176
     1
 90
        1
176
     1
 90
        1
176
     1
 40
1.0
176
     1
 90
        0
176
     1
 62
     7
176
     1
 40
1.0
176
     1
 90
        1
176
     1
 90
        6
176
     1
 90
        2
176
     1
 62
     7
176
     1
 90
        5
176
     1
 90
        0
176
     1
 90
        0
176
     1
290
     0
176
     1
 90
       13
176
     1
 40
0.0
176
     1
 90
        0
176
     1
290
     0
176
     1
290
     1
176
     1
290
     1
176
     1
290
     0
176
     1
290
     0
176
     1
290
     0
176
     1
290
     0
176
     1
290
     0
176
     1
290
     0
176
     1
 90
       50
176
     1
 40
0.0
176
     1
 40
1.0
176
     1
 90
        0
176
     1
 62
    18
420
        0
176
     1
 90
       50
176
     1
 90
        3
176
     1
 62
     5
420
      255
176
     1
290
     0
176
     1
 90
       50
176
     1
 90
       50
176
     1
 90
       50
176
     1
290
     0
176
     1
 90
       50
176
     1
 62
   256
176
     0
 40
1.0
176
     0
 90
        2
176
     1
  1
strokes_ogs.tif
176
     1
290
     0
176
     1
 40
1.0
176
     1
 40
1.0
176
     1
  0
VISUALSTYLE
  5
430
102
{ACAD_REACTORS
330
42C
102
}
330
42C
100
AcDbVisualStyle
  2
GouraudWithEdges
 70
     3
177
     3
291
     1
 70
    58
 90
        2
176
     1
 90
        2
176
     1
 90
        1
176
     1
 90
        2
176
     1
 40
0.6
176
     1
 40
30.0
176
     1
 62
     7
420
 16777215
176
     1
 90
        1
176
     1
 90
        0
176
     1
 62
     7
176
     1
 62
   257
176
     1
 90
        1
176
     1
 90
        1
176
     1
 40
1.0
176
     1
 90
        0
176
     1
 62
   257
176
     1
 40
1.0
176
     1
 90
        1
176
     1
 90
        6
176
     1
 90
        2
176
     1
 62
     7
176
     1
 90
        5
176
     1
 90
        0
176
     1
 90
        0
176
     1
290
     0
176
     1
 90
       13
176
     1
 40
0.0
176
     1
 90
        0
176
     1
290
     0
176
     1
290
     1
176
     1
290
     1
176
     1
290
     0
176
     1
290
     0
176
     1
290
     0
176
     1
290
     0
176
     1
290
     0
176
     1
290
     0
176
     1
 90
       50
176
     1
 40
0.0
176
     1
 40
1.0
176
     1
 90
        0
176
     1
 62
    18
420
        0
176
     1
 90
       50
176
     1
 90
        3
176
     1
 62
     5
420
      255
176
     1
290
     0
176
     1
 90
       50
176
     1
 90
       50
176
     1
 90
       50
176
     1
290
     0
176
     1
 90
       50
176
     1
 62
   256
176
     0
 40
1.0
176
     0
 90
        2
176
     1
  1
strokes_ogs.tif
176
     1
290
     0
176
     1
 40
1.0
176
     1
 40
1.0
176
     1
  0
VISUALSTYLE
  5
434
102
{ACAD_REACTORS
330
42C
102
}
330
42C
100
AcDbVisualStyle
  2
Hidden
 70
     6
177
     3
291
     0
 70
    58
 90
        1
176
     1
 90
        2
176
     1
 90
        2
176
     1
 90
        0
176
     1
 40
0.6
176
     1
 40
30.0
176
     1
 62
     7
420
 16777215
176
     1
 90
        2
176
     1
 90
        2
176
     1
 62
     7
176
     1
 62
   257
176
     1
 90
        2
176
     1
 90
        1
176
     1
 40
40.0
176
     1
 90
        0
176
     1
 62
   257
176
     1
 40
1.0
176
     1
 90
        1
176
     1
 90
        6
176
     1
 90
        2
176
     1
 62
     7
176
     1
 90
        3
176
     1
 90
        0
176
     1
 90
        0
176
     1
290
     0
176
     1
 90
        1
176
     1
 40
0.0
176
     1
 90
        0
176
     1
290
     0
176
     1
290
     1
176
     1
290
     1
176
     1
290
     0
176
     1
290
     0
176
     1
290
     0
176
     1
290
     0
176
     1
290
     0
176
     1
290
     0
176
     1
 90
       50
176
     1
 40
0.0
176
     1
 40
1.0
176
     1
 90
        0
176
     1
 62
    18
420
        0
176
     1
 90
       50
176
     1
 90
        3
176
     1
 62
     5
420
      255
176
     1
290
     0
176
     1
 90
       50
176
     1
 90
       50
176
     1
 90
       50
176
     1
290
     0
176
     1
 90
       50
176
     1
 62
   256
176
     0
 40
1.0
176
     0
 90
        2
176
     1
  1
strokes_ogs.tif
176
     1
290
     0
176
     1
 40
1.0
176
     1
 40
1.0
176
     1
  0
VISUALSTYLE
  5
442
102
{ACAD_REACTORS
330
42C
102
}
330
42C
100
AcDbVisualStyle
  2
JitterOff
 70
    20
177
     3
291
     1
 70
    58
 90
        2
176
     0
 90
        2
176
     0
 90
        0
176
     0
 90
        0
176
     0
 40
0.6
176
     0
 40
30.0
176
     0
 62
     7
420
 16777215
176
     0
 90
        1
176
     0
 90
        4
176
     0
 62
     7
176
     0
 62
   257
176
     0
 90
        1
176
     0
 90
        1
176
     0
 40
1.0
176
     0
 90
       10
176
     2
 62
     7
176
     0
 40
1.0
176
     0
 90
        1
176
     0
 90
        6
176
     0
 90
        2
176
     0
 62
     7
176
     0
 90
        5
176
     0
 90
        0
176
     0
 90
        0
176
     0
290
     0
176
     0
 90
        1
176
     0
 40
0.0
176
     0
 90
        0
176
     0
290
     0
176
     1
290
     1
176
     1
290
     1
176
     1
290
     0
176
     1
290
     0
176
     1
290
     0
176
     1
290
     0
176
     1
290
     0
176
     1
290
     0
176
     1
 90
       50
176
     0
 40
0.0
176
     0
 40
1.0
176
     0
 90
        0
176
     0
 62
    18
420
        0
176
     0
 90
       50
176
     0
 90
        3
176
     0
 62
     5
420
      255
176
     0
290
     0
176
     1
 90
       50
176
     0
 90
       50
176
     0
 90
       50
176
     0
290
     0
176
     1
 90
       50
176
     0
 62
   256
176
     0
 40
1.0
176
     0
 90
        2
176
     0
  1
strokes_ogs.tif
176
     0
290
     0
176
     1
 40
1.0
176
     0
 40
1.0
176
     0
  0
VISUALSTYLE
  5
43A
102
{ACAD_REACTORS
330
42C
102
}
330
42C
100
AcDbVisualStyle
  2
Linepattern
 70
    14
177
     3
291
     1
 70
    58
 90
        2
176
     1
 90
        2
176
     1
 90
        0
176
     1
 90
        0
176
     1
 40
0.6
176
     1
 40
30.0
176
     1
 62
     7
420
 16777215
176
     1
 90
        1
176
     1
 90
        4
176
     1
 62
     7
176
     1
 62
   257
176
     1
 90
        7
176
     1
 90
        7
176
     1
 40
1.0
176
     1
 90
        8
176
     1
 62
     7
176
     1
 40
1.0
176
     1
 90
        1
176
     1
 90
        6
176
     1
 90
        2
176
     1
 62
     7
176
     1
 90
        5
176
     1
 90
        0
176
     1
 90
        0
176
     1
290
     0
176
     1
 90
        1
176
     1
 40
0.0
176
     1
 90
        0
176
     1
290
     0
176
     1
290
     1
176
     1
290
     1
176
     1
290
     0
176
     1
290
     0
176
     1
290
     0
176
     1
290
     0
176
     1
290
     0
176
     1
290
     0
176
     1
 90
       50
176
     1
 40
0.0
176
     1
 40
1.0
176
     1
 90
        0
176
     1
 62
    18
420
        0
176
     1
 90
       50
176
     1
 90
        3
176
     1
 62
     5
420
      255
176
     1
290
     0
176
     1
 90
       50
176
     1
 90
       50
176
     1
 90
       50
176
     1
290
     0
176
     1
 90
       50
176
     1
 62
   256
176
     0
 40
1.0
176
     0
 90
        2
176
     1
  1
strokes_ogs.tif
176
     1
290
     0
176
     1
 40
1.0
176
     1
 40
1.0
176
     1
  0
VISUALSTYLE
  5
443
102
{ACAD_REACTORS
330
42C
102
}
330
42C
100
AcDbVisualStyle
  2
OverhangOff
 70
    21
177
     3
291
     1
 70
    58
 90
        2
176
     0
 90
        2
176
     0
 90
        0
176
     0
 90
        0
176
     0
 40
0.6
176
     0
 40
30.0
176
     0
 62
     7
420
 16777215
176
     0
 90
        1
176
     0
 90
        4
176
     0
 62
     7
176
     0
 62
   257
176
     0
 90
        1
176
     0
 90
        1
176
     0
 40
1.0
176
     0
 90
        9
176
     2
 62
     7
176
     0
 40
1.0
176
     0
 90
        1
176
     0
 90
        6
176
     0
 90
        2
176
     0
 62
     7
176
     0
 90
        5
176
     0
 90
        0
176
     0
 90
        0
176
     0
290
     0
176
     0
 90
        1
176
     0
 40
0.0
176
     0
 90
        0
176
     0
290
     0
176
     1
290
     1
176
     1
290
     1
176
     1
290
     0
176
     1
290
     0
176
     1
290
     0
176
     1
290
     0
176
     1
290
     0
176
     1
290
     0
176
     1
 90
       50
176
     0
 40
0.0
176
     0
 40
1.0
176
     0
 90
        0
176
     0
 62
    18
420
        0
176
     0
 90
       50
176
     0
 90
        3
176
     0
 62
     5
420
      255
176
     0
290
     0
176
     1
 90
       50
176
     0
 90
       50
176
     0
 90
       50
176
     0
290
     0
176
     1
 90
       50
176
     0
 62
   256
176
     0
 40
1.0
176
     0
 90
        2
176
     0
  1
strokes_ogs.tif
176
     0
290
     0
176
     1
 40
1.0
176
     0
 40
1.0
176
     0
  0
VISUALSTYLE
  5
436
102
{ACAD_REACTORS
330
42C
102
}
330
42C
100
AcDbVisualStyle
  2
Realistic
 70
     8
177
     3
291
     0
 70
    58
 90
        2
176
     1
 90
        3
176
     1
 90
        0
176
     1
 90
        2
176
     1
 40
0.6
176
     1
 40
30.0
176
     1
 62
     7
420
 16777215
176
     1
 90
        0
176
     1
 90
        0
176
     1
 62
     7
176
     1
 62
   257
176
     1
 90
        1
176
     1
 90
        1
176
     1
 40
1.0
176
     1
 90
        8
176
     1
 62
   257
176
     1
 40
1.0
176
     1
 90
        1
176
     1
 90
        6
176
     1
 90
        2
176
     1
 62
     7
176
     1
 90
        3
176
     1
 90
        0
176
     1
 90
        0
176
     1
290
     0
176
     1
 90
       13
176
     1
 40
0.0
176
     1
 90
        0
176
     1
290
     0
176
     1
290
     1
176
     1
290
     1
176
     1
290
     0
176
     1
290
     0
176
     1
290
     0
176
     1
290
     0
176
     1
290
     0
176
     1
290
     0
176
     1
 90
       50
176
     1
 40
0.0
176
     1
 40
1.0
176
     1
 90
        0
176
     1
 62
    18
420
        0
176
     1
 90
       50
176
     1
 90
        3
176
     1
 62
     5
420
      255
176
     1
290
     0
176
     1
 90
       50
176
     1
 90
       50
176
     1
 90
       50
176
     1
290
     0
176
     1
 90
       50
176
     1
 62
   256
176
     0
 40
1.0
176
     0
 90
        2
176
     1
  1
strokes_ogs.tif
176
     1
290
     0
176
     1
 40
1.0
176
     1
 40
1.0
176
     1
  0
VISUALSTYLE
  5
441
102
{ACAD_REACTORS
330
42C
102
}
330
42C
100
AcDbVisualStyle
  2
Shaded
 70
    27
177
     3
291
     0
 70
    58
 90
        2
176
     1
 90
        2
176
     1
 90
        1
176
     1
 90
        2
176
     1
 40
0.6
176
     1
 40
30.0
176
     1
 62
     7
420
 16777215
176
     1
 90
        0
176
     1
 90
        4
176
     1
 62
     7
176
     1
 62
   257
176
     1
 90
        1
176
     1
 90
        1
176
     1
 40
1.0
176
     1
 90
        8
176
     1
 62
   257
176
     1
 40
1.0
176
     1
 90
        1
176
     1
 90
        6
176
     1
 90
        2
176
     1
 62
     8
420
  7895160
176
     1
 90
        3
176
     1
 90
        0
176
     1
 90
        0
176
     1
290
     0
176
     1
 90
        5
176
     1
 40
0.0
176
     1
 90
        0
176
     1
290
     0
176
     1
290
     1
176
     1
290
     1
176
     1
290
     0
176
     1
290
     0
176
     1
290
     0
176
     1
290
     0
176
     1
290
     0
176
     1
290
     0
176
     1
 90
       50
176
     1
 40
0.0
176
     1
 40
1.0
176
     1
 90
        0
176
     1
 62
    18
420
        0
176
     1
 90
       50
176
     1
 90
        3
176
     1
 62
     5
420
      255
176
     1
290
     0
176
     1
 90
       50
176
     1
 90
       50
176
     1
 90
       50
176
     1
290
     0
176
     1
 90
       50
176
     1
 62
   256
176
     0
 40
1.0
176
     0
 90
        2
176
     1
  1
strokes_ogs.tif
176
     1
290
     0
176
     1
 40
1.0
176
     1
 40
1.0
176
     1
  0
VISUALSTYLE
  5
440
102
{ACAD_REACTORS
330
42C
102
}
330
42C
100
AcDbVisualStyle
  2
Shaded with edges
 70
    26
177
     3
291
     0
 70
    58
 90
        2
176
     1
 90
        2
176
     1
 90
        1
176
     1
 90
        2
176
     1
 40
0.6
176
     1
 40
30.0
176
     1
 62
     7
420
 16777215
176
     1
 90
        1
176
     1
 90
       10
176
     1
 62
     7
176
     1
 62
   257
176
     1
 90
        2
176
     1
 90
        1
176
     1
 40
1.0
176
     1
 90
        8
176
     1
 62
   257
176
     1
 40
1.0
176
     1
 90
        1
176
     1
 90
        6
176
     1
 90
        2
176
     1
 62
     7
176
     1
 90
        3
176
     1
 90
        0
176
     1
 90
        0
176
     1
290
     0
176
     1
 90
        5
176
     1
 40
0.0
176
     1
 90
        0
176
     1
290
     0
176
     1
290
     1
176
     1
290
     1
176
     1
290
     0
176
     1
290
     0
176
     1
290
     0
176
     1
290
     0
176
     1
290
     0
176
     1
290
     0
176
     1
 90
       50
176
     1
 40
0.0
176
     1
 40
1.0
176
     1
 90
        0
176
     1
 62
    18
420
        0
176
     1
 90
       50
176
     1
 90
        3
176
     1
 62
     5
420
      255
176
     1
290
     0
176
     1
 90
       50
176
     1
 90
       50
176
     1
 90
       50
176
     1
290
     0
176
     1
 90
       50
176
     1
 62
   256
176
     0
 40
1.0
176
     0
 90
        2
176
     1
  1
strokes_ogs.tif
176
     1
290
     0
176
     1
 40
1.0
176
     1
 40
1.0
176
     1
  0
VISUALSTYLE
  5
43D
102
{ACAD_REACTORS
330
42C
102
}
330
42C
100
AcDbVisualStyle
  2
Shades of Gray
 70
    23
177
     3
291
     0
 70
    58
 90
        2
176
     1
 90
        2
176
     1
 90
        3
176
     1
 90
        0
176
     1
 40
0.6
176
     1
 40
30.0
176
     1
 62
     7
420
 16777215
176
     1
 90
        2
176
     1
 90
        2
176
     1
 62
     7
176
     1
 62
     7
176
     1
 90
        1
176
     1
 90
        1
176
     1
 40
40.0
176
     1
 90
        8
176
     1
 62
     7
176
     1
 40
1.0
176
     1
 90
        1
176
     1
 90
        6
176
     1
 90
        2
176
     1
 62
     7
176
     1
 90
        3
176
     1
 90
        0
176
     1
 90
        0
176
     1
290
     0
176
     1
 90
        1
176
     1
 40
0.0
176
     1
 90
        0
176
     1
290
     0
176
     1
290
     1
176
     1
290
     1
176
     1
290
     0
176
     1
290
     0
176
     1
290
     0
176
     1
290
     0
176
     1
290
     0
176
     1
290
     0
176
     1
 90
       50
176
     1
 40
0.0
176
     1
 40
1.0
176
     1
 90
        0
176
     1
 62
    18
420
        0
176
     1
 90
       50
176
     1
 90
        3
176
     1
 62
     5
420
      255
176
     1
290
     0
176
     1
 90
       50
176
     1
 90
       50
176
     1
 90
       50
176
     1
290
     0
176
     1
 90
       50
176
     1
 62
   256
176
     0
 40
1.0
176
     0
 90
        2
176
     1
  1
strokes_ogs.tif
176
     1
290
     0
176
     1
 40
1.0
176
     1
 40
1.0
176
     1
  0
VISUALSTYLE
  5
43E
102
{ACAD_REACTORS
330
42C
102
}
330
42C
100
AcDbVisualStyle
  2
Sketchy
 70
    24
177
     3
291
     0
 70
    58
 90
        1
176
     1
 90
        2
176
     1
 90
        2
176
     1
 90
        0
176
     1
 40
0.6
176
     1
 40
30.0
176
     1
 62
     7
420
 16777215
176
     1
 90
        2
176
     1
 90
        2
176
     1
 62
     7
176
     1
 62
     7
176
     1
 90
        1
176
     1
 90
        1
176
     1
 40
40.0
176
     1
 90
       11
176
     1
 62
     7
176
     1
 40
1.0
176
     1
 90
        1
176
     1
 90
        6
176
     1
 90
        2
176
     1
 62
     7
176
     1
 90
        6
176
     1
 90
        0
176
     1
 90
        0
176
     1
290
     0
176
     1
 90
        1
176
     1
 40
0.0
176
     1
 90
        0
176
     1
290
     0
176
     1
290
     1
176
     1
290
     1
176
     1
290
     0
176
     1
290
     0
176
     1
290
     0
176
     1
290
     0
176
     1
290
     0
176
     1
290
     0
176
     1
 90
       50
176
     1
 40
0.0
176
     1
 40
1.0
176
     1
 90
        0
176
     1
 62
    18
420
        0
176
     1
 90
       50
176
     1
 90
        3
176
     1
 62
     5
420
      255
176
     1
290
     0
176
     1
 90
       50
176
     1
 90
       50
176
     1
 90
       50
176
     1
290
     0
176
     1
 90
       50
176
     1
 62
   256
176
     0
 40
1.0
176
     0
 90
        2
176
     1
  1
strokes_ogs.tif
176
     1
290
     0
176
     1
 40
1.0
176
     1
 40
1.0
176
     1
  0
VISUALSTYLE
  5
439
102
{ACAD_REACTORS
330
42C
102
}
330
42C
100
AcDbVisualStyle
  2
Thicken
 70
    13
177
     3
291
     1
 70
    58
 90
        2
176
     1
 90
        2
176
     1
 90
        0
176
     1
 90
        0
176
     1
 40
0.6
176
     1
 40
30.0
176
     1
 62
     7
420
 16777215
176
     1
 90
        1
176
     1
 90
        4
176
     1
 62
     7
176
     1
 62
   257
176
     1
 90
        1
176
     1
 90
        1
176
     1
 40
1.0
176
     1
 90
       12
176
     1
 62
     7
176
     1
 40
1.0
176
     1
 90
        1
176
     1
 90
        6
176
     1
 90
        2
176
     1
 62
     7
176
     1
 90
        5
176
     1
 90
        0
176
     1
 90
        0
176
     1
290
     0
176
     1
 90
        1
176
     1
 40
0.0
176
     1
 90
        0
176
     1
290
     0
176
     1
290
     1
176
     1
290
     1
176
     1
290
     0
176
     1
290
     0
176
     1
290
     0
176
     1
290
     0
176
     1
290
     0
176
     1
290
     0
176
     1
 90
       50
176
     1
 40
0.0
176
     1
 40
1.0
176
     1
 90
        0
176
     1
 62
    18
420
        0
176
     1
 90
       50
176
     1
 90
        3
176
     1
 62
     5
420
      255
176
     1
290
     0
176
     1
 90
       50
176
     1
 90
       50
176
     1
 90
       50
176
     1
290
     0
176
     1
 90
       50
176
     1
 62
   256
176
     0
 40
1.0
176
     0
 90
        2
176
     1
  1
strokes_ogs.tif
176
     1
290
     0
176
     1
 40
1.0
176
     1
 40
1.0
176
     1
  0
VISUALSTYLE
  5
433
102
{ACAD_REACTORS
330
42C
102
}
330
42C
100
AcDbVisualStyle
  2
Wireframe
 70
     5
177
     3
291
     0
 70
    58
 90
        0
176
     1
 90
        2
176
     1
 90
        0
176
     1
 90
        0
176
     1
 40
0.6
176
     1
 40
30.0
176
     1
 62
     7
420
 16777215
176
     1
 90
        1
176
     1
 90
        4
176
     1
 62
     7
176
     1
 62
   257
176
     1
 90
        1
176
     1
 90
        1
176
     1
 40
1.0
176
     1
 90
        0
176
     1
 62
   257
176
     1
 40
1.0
176
     1
 90
        1
176
     1
 90
        6
176
     1
 90
        2
176
     1
 62
     7
176
     1
 90
        3
176
     1
 90
        0
176
     1
 90
        0
176
     1
290
     0
176
     1
 90
        1
176
     1
 40
0.0
176
     1
 90
        0
176
     1
290
     0
176
     1
290
     1
176
     1
290
     1
176
     1
290
     0
176
     1
290
     0
176
     1
290
     0
176
     1
290
     0
176
     1
290
     0
176
     1
290
     0
176
     1
 90
       50
176
     1
 40
0.0
176
     1
 40
1.0
176
     1
 90
        0
176
     1
 62
    18
420
        0
176
     1
 90
       50
176
     1
 90
        3
176
     1
 62
     5
420
      255
176
     1
290
     0
176
     1
 90
       50
176
     1
 90
       50
176
     1
 90
       50
176
     1
290
     0
176
     1
 90
       50
176
     1
 62
   256
176
     0
 40
1.0
176
     0
 90
        2
176
     1
  1
strokes_ogs.tif
176
     1
290
     0
176
     1
 40
1.0
176
     1
 40
1.0
176
     1
  0
VISUALSTYLE
  5
43F
102
{ACAD_REACTORS
330
42C
102
}
330
42C
100
AcDbVisualStyle
  2
X-Ray
 70
    25
177
     3
291
     0
 70
    58
 90
        2
176
     1
 90
        2
176
     1
 90
        1
176
     1
 90
        1
176
     1
 40
0.5
176
     1
 40
30.0
176
     1
 62
     7
420
 16777215
176
     1
 90
        1
176
     1
 90
        0
176
     1
 62
     7
176
     1
 62
   257
176
     1
 90
        1
176
     1
 90
        1
176
     1
 40
1.0
176
     1
 90
        8
176
     1
 62
     7
176
     1
 40
1.0
176
     1
 90
        1
176
     1
 90
        6
176
     1
 90
        2
176
     1
 62
     7
176
     1
 90
        3
176
     1
 90
        0
176
     1
 90
        0
176
     1
290
     0
176
     1
 90
       13
176
     1
 40
0.0
176
     1
 90
        0
176
     1
290
     0
176
     1
290
     1
176
     1
290
     1
176
     1
290
     0
176
     1
290
     0
176
     1
290
     0
176
     1
290
     0
176
     1
290
     0
176
     1
290
     0
176
     1
 90
       50
176
     1
 40
0.0
176
     1
 40
1.0
176
     1
 90
        0
176
     1
 62
    18
420
        0
176
     1
 90
       50
176
     1
 90
        3
176
     1
 62
     5
420
      255
176
     1
290
     0
176
     1
 90
       50
176
     1
 90
       50
176
     1
 90
       50
176
     1
290
     0
176
     1
 90
       50
176
     1
 62
   256
176
     0
 40
1.0
176
     0
 90
        2
176
     1
  1
strokes_ogs.tif
176
     1
290
     0
176
     1
 40
1.0
176
     1
 40
1.0
176
     1
  0
DICTIONARYVAR
  5
4A2
102
{ACAD_REACTORS
330
49C
102
}
330
49C
100
DictionaryVariables
280
     0
  1
1:1
  0
DICTIONARYVAR
  5
49E
102
{ACAD_REACTORS
330
49C
102
}
330
49C
100
DictionaryVariables
280
     0
  1
STANDARD
  0
DICTIONARYVAR
  5
49D
102
{ACAD_REACTORS
330
49C
102
}
330
49C
100
DictionaryVariables
280
     0
  1
STANDARD
  0
DICTIONARYVAR
  5
49F
102
{ACAD_REACTORS
330
49C
102
}
330
49C
100
DictionaryVariables
280
     0
  1
Imperial24
  0
DICTIONARYVAR
  5
4A0
102
{ACAD_REACTORS
330
49C
102
}
330
49C
100
DictionaryVariables
280
     0
  1
Imperial24
  0
DICTIONARYVAR
  5
4A4
102
{ACAD_REACTORS
330
49C
102
}
330
49C
100
DictionaryVariables
280
     0
  1
1
  0
DICTIONARYVAR
  5
4A5
102
{ACAD_REACTORS
330
49C
102
}
330
49C
100
DictionaryVariables
280
     0
  1
15
  0
DICTIONARYVAR
  5
4A3
102
{ACAD_REACTORS
330
49C
102
}
330
49C
100
DictionaryVariables
280
     0
  1
0
  0
DICTIONARYVAR
  5
4A1
102
{ACAD_REACTORS
330
49C
102
}
330
49C
100
DictionaryVariables
280
     0
  1
0
  0
DICTIONARY
  5
4AB
330
45F
100
AcDbDictionary
280
     1
281
     1
  3
ACAD_XREC_ROUNDTRIP
360
4AC
  0
DICTIONARY
  5
41D
330
41C
100
AcDbDictionary
280
     1
281
     1
  3
BUMPTILE
360
41F
  3
DIFFUSETILE
360
41E
  3
OPACITYTILE
360
422
  3
REFLECTIONTILE
360
421
  3
REFRACTIONTILE
360
423
  3
SPECULARTILE
360
420
  0
DICTIONARY
  5
415
330
414
100
AcDbDictionary
280
     1
281
     1
  3
BUMPTILE
360
417
  3
DIFFUSETILE
360
416
  3
OPACITYTILE
360
41A
  3
REFLECTIONTILE
360
419
  3
REFRACTIONTILE
360
41B
  3
SPECULARTILE
360
418
  0
DICTIONARY
  5
425
330
424
100
AcDbDictionary
280
     1
281
     1
  3
BUMPTILE
360
427
  3
DIFFUSETILE
360
426
  3
OPACITYTILE
360
42A
  3
REFLECTIONTILE
360
429
  3
REFRACTIONTILE
360
42B
  3
SPECULARTILE
360
428
  0
DICTIONARY
  5
4A9
330
45D
100
AcDbDictionary
280
     1
281
     1
  3
ACAD_XREC_ROUNDTRIP
360
4AA
  0
DICTIONARY
  5
4A7
330
447
100
AcDbDictionary
280
     1
281
     1
  3
ACAD_ROUNDTRIP_2008_TABLESTYLE_CELLSTYLEMAP
360
4A8
  0
XRECORD
  5
4AC
102
{ACAD_REACTORS
330
4AB
102
}
330
4AB
100
AcDbXrecord
280
     1
102
DISPLAYNAME
  1
Imperial24
102
FLAGS
 90
        0
  0
XRECORD
  5
41F
102
{ACAD_REACTORS
330
41D
102
}
330
41D
100
AcDbXrecord
280
     1
270
     1
271
     1
  0
XRECORD
  5
41E
102
{ACAD_REACTORS
330
41D
102
}
330
41D
100
AcDbXrecord
280
     1
270
     1
271
     1
  0
XRECORD
  5
422
102
{ACAD_REACTORS
330
41D
102
}
330
41D
100
AcDbXrecord
280
     1
270
     1
271
     1
  0
XRECORD
  5
421
102
{ACAD_REACTORS
330
41D
102
}
330
41D
100
AcDbXrecord
280
     1
270
     1
271
     1
  0
XRECORD
  5
423
102
{ACAD_REACTORS
330
41D
102
}
330
41D
100
AcDbXrecord
280
     1
270
     1
271
     1
  0
XRECORD
  5
420
102
{ACAD_REACTORS
330
41D
102
}
330
41D
100
AcDbXrecord
280
     1
270
     1
271
     1
  0
XRECORD
  5
417
102
{ACAD_REACTORS
330
415
102
}
330
415
100
AcDbXrecord
280
     1
270
     1
271
     1
  0
XRECORD
  5
416
102
{ACAD_REACTORS
330
415
102
}
330
415
100
AcDbXrecord
280
     1
270
     1
271
     1
  0
XRECORD
  5
41A
102
{ACAD_REACTORS
330
415
102
}
330
415
100
AcDbXrecord
280
     1
270
     1
271
     1
  0
XRECORD
  5
419
102
{ACAD_REACTORS
330
415
102
}
330
415
100
AcDbXrecord
280
     1
270
     1
271
     1
  0
XRECORD
  5
41B
102
{ACAD_REACTORS
330
415
102
}
330
415
100
AcDbXrecord
280
     1
270
     1
271
     1
  0
XRECORD
  5
418
102
{ACAD_REACTORS
330
415
102
}
330
415
100
AcDbXrecord
280
     1
270
     1
271
     1
  0
XRECORD
  5
427
102
{ACAD_REACTORS
330
425
102
}
330
425
100
AcDbXrecord
280
     1
270
     1
271
     1
  0
XRECORD
  5
426
102
{ACAD_REACTORS
330
425
102
}
330
425
100
AcDbXrecord
280
     1
270
     1
271
     1
  0
XRECORD
  5
42A
102
{ACAD_REACTORS
330
425
102
}
330
425
100
AcDbXrecord
280
     1
270
     1
271
     1
  0
XRECORD
  5
429
102
{ACAD_REACTORS
330
425
102
}
330
425
100
AcDbXrecord
280
     1
270
     1
271
     1
  0
XRECORD
  5
42B
102
{ACAD_REACTORS
330
425
102
}
330
425
100
AcDbXrecord
280
     1
270
     1
271
     1
  0
XRECORD
  5
428
102
{ACAD_REACTORS
330
425
102
}
330
425
100
AcDbXrecord
280
     1
270
     1
271
     1
  0
XRECORD
  5
4AA
102
{ACAD_REACTORS
330
4A9
102
}
330
4A9
100
AcDbXrecord
280
     1
102
DISPLAYNAME
  1
Imperial24
102
FLAGS
 90
        0
  0
CELLSTYLEMAP
  5
4A8
102
{ACAD_REACTORS
330
4A7
102
}
330
4A7
100
AcDbCellStyleMap
 90
        3
300
CELLSTYLE
  1
TABLEFORMAT_BEGIN
 90
        5
170
     1
 91
        0
 92
    32768
 62
   257
 93
        1
300
CONTENTFORMAT
  1
CONTENTFORMAT_BEGIN
 90
        0
 91
        0
 92
      512
 93
        0
300

 40
0.0
140
1.0
 94
        5
 62
     0
340
F
144
0.25
309
CONTENTFORMAT_END
171
     0
 94
        0
309
TABLEFORMAT_END
  1
CELLSTYLE_BEGIN
 90
        1
 91
        1
300
_TITLE
309
CELLSTYLE_END
300
CELLSTYLE
  1
TABLEFORMAT_BEGIN
 90
        5
170
     1
 91
        0
 92
        0
 62
   257
 93
        1
300
CONTENTFORMAT
  1
CONTENTFORMAT_BEGIN
 90
        0
 91
        0
 92
      512
 93
        0
300

 40
0.0
140
1.0
 94
        5
 62
     0
340
F
144
0.18
309
CONTENTFORMAT_END
171
     0
 94
        0
309
TABLEFORMAT_END
  1
CELLSTYLE_BEGIN
 90
        2
 91
        1
300
_HEADER
309
CELLSTYLE_END
300
CELLSTYLE
  1
TABLEFORMAT_BEGIN
 90
        5
170
     1
 91
        0
 92
        0
 62
   257
 93
        1
300
CONTENTFORMAT
  1
CONTENTFORMAT_BEGIN
 90
        0
 91
        0
 92
      512
 93
        0
300

 40
0.0
140
1.0
 94
        2
 62
     0
340
F
144
0.18
309
CONTENTFORMAT_END
171
     0
 94
        0
309
TABLEFORMAT_END
  1
CELLSTYLE_BEGIN
 90
        3
 91
        2
300
_DATA
309
CELLSTYLE_END
  0
ENDSEC
  0
EOF
