  0
SECTION
  2
HEADER
  9
$ACADVER
  1
AC1027
  9
$ACADMAINTVER
 70
    55
  9
$DWGCODEPAGE
  3
ANSI_1252
  9
$LASTSAVEDBY
  1
ggruner
  9
$REQUIREDVERSIONS
160
                 0
  9
$INSBASE
 10
0.0
 20
0.0
 30
0.0
  9
$EXTMIN
 10
-1.625243000000001
 20
-3.441756999999999
 30
0.0
  9
$EXTMAX
 10
17.933551
 20
9.265260000000001
 30
0.0
  9
$LIMMIN
 10
0.0
 20
0.0
  9
$LIMMAX
 10
12.0
 20
9.0
  9
$ORTHOMODE
 70
     1
  9
$REGENMODE
 70
     1
  9
$FILLMODE
 70
     1
  9
$QTEXTMODE
 70
     0
  9
$MIRRTEXT
 70
     1
  9
$LTSCALE
 40
1.0
  9
$ATTMODE
 70
     1
  9
$TEXTSIZE
 40
0.2
  9
$TRACEWID
 40
0.05
  9
$TEXTSTYLE
  7
STANDARD
  9
$CLAYER
  8
DIMS_TEXT
  9
$CELTYPE
  6
BYLAYER
  9
$CECOLOR
 62
   256
  9
$CELTSCALE
 40
1.0
  9
$DISPSILH
 70
     0
  9
$DIMSCALE
 40
0.0
  9
$DIMASZ
 40
0.15
  9
$DIMEXO
 40
0.0625
  9
$DIMDLI
 40
0.38
  9
$DIMRND
 40
0.0
  9
$DIMDLE
 40
0.0
  9
$DIMEXE
 40
0.18
  9
$DIMTP
 40
0.0
  9
$DIMTM
 40
0.0
  9
$DIMTXT
 40
0.15
  9
$DIMCEN
 40
0.09
  9
$DIMTSZ
 40
0.0
  9
$DIMTOL
 70
     0
  9
$DIMLIM
 70
     0
  9
$DIMTIH
 70
     1
  9
$DIMTOH
 70
     1
  9
$DIMSE1
 70
     0
  9
$DIMSE2
 70
     0
  9
$DIMTAD
 70
     0
  9
$DIMZIN
 70
     4
  9
$DIMBLK
  1

  9
$DIMASO
 70
     1
  9
$DIMSHO
 70
     1
  9
$DIMPOST
  1

  9
$DIMAPOST
  1

  9
$DIMALT
 70
     0
  9
$DIMALTD
 70
     2
  9
$DIMALTF
 40
25.4
  9
$DIMLFAC
 40
1.0
  9
$DIMTOFL
 70
     0
  9
$DIMTVP
 40
0.0
  9
$DIMTIX
 70
     0
  9
$DIMSOXD
 70
     0
  9
$DIMSAH
 70
     0
  9
$DIMBLK1
  1

  9
$DIMBLK2
  1

  9
$DIMSTYLE
  2
STANDARD
  9
$DIMCLRD
 70
     0
  9
$DIMCLRE
 70
     0
  9
$DIMCLRT
 70
     0
  9
$DIMTFAC
 40
1.0
  9
$DIMGAP
 40
0.09
  9
$DIMJUST
 70
     0
  9
$DIMSD1
 70
     0
  9
$DIMSD2
 70
     0
  9
$DIMTOLJ
 70
     1
  9
$DIMTZIN
 70
     0
  9
$DIMALTZ
 70
     0
  9
$DIMALTTZ
 70
     0
  9
$DIMUPT
 70
     0
  9
$DIMDEC
 70
     3
  9
$DIMTDEC
 70
     4
  9
$DIMALTU
 70
     2
  9
$DIMALTTD
 70
     2
  9
$DIMTXSTY
  7
STANDARD
  9
$DIMAUNIT
 70
     0
  9
$DIMADEC
 70
     0
  9
$DIMALTRND
 40
0.0
  9
$DIMAZIN
 70
     0
  9
$DIMDSEP
 70
    46
  9
$DIMATFIT
 70
     3
  9
$DIMFRAC
 70
     0
  9
$DIMLDRBLK
  1

  9
$DIMLUNIT
 70
     2
  9
$DIMLWD
 70
    -2
  9
$DIMLWE
 70
    -2
  9
$DIMTMOVE
 70
     0
  9
$DIMFXL
 40
1.0
  9
$DIMFXLON
 70
     0
  9
$DIMJOGANG
 40
0.7853981633974483
  9
$DIMTFILL
 70
     0
  9
$DIMTFILLCLR
 70
     0
  9
$DIMARCSYM
 70
     0
  9
$DIMLTYPE
  6

  9
$DIMLTEX1
  6

  9
$DIMLTEX2
  6

  9
$DIMTXTDIRECTION
 70
     0
  9
$LUNITS
 70
     2
  9
$LUPREC
 70
     4
  9
$SKETCHINC
 40
0.1
  9
$FILLETRAD
 40
0.125
  9
$AUNITS
 70
     0
  9
$AUPREC
 70
     0
  9
$MENU
  1
acad
  9
$ELEVATION
 40
0.0
  9
$PELEVATION
 40
0.0
  9
$THICKNESS
 40
0.0
  9
$LIMCHECK
 70
     0
  9
$CHAMFERA
 40
0.03
  9
$CHAMFERB
 40
0.03
  9
$CHAMFERC
 40
1.0
  9
$CHAMFERD
 40
0.0
  9
$SKPOLY
 70
     0
  9
$TDCREATE
 40
2451981.613614931
  9
$TDUCREATE
 40
2451981.821948264
  9
$TDUPDATE
 40
2459222.339870891
  9
$TDUUPDATE
 40
2459222.548204225
  9
$TDINDWG
 40
0.1074002894
  9
$TDUSRTIMER
 40
0.1074001505
  9
$USRTIMER
 70
     1
  9
$ANGBASE
 50
0.0
  9
$ANGDIR
 70
     0
  9
$PDMODE
 70
     0
  9
$PDSIZE
 40
0.0
  9
$PLINEWID
 40
0.0
  9
$SPLFRAME
 70
     0
  9
$SPLINETYPE
 70
     6
  9
$SPLINESEGS
 70
     8
  9
$HANDSEED
  5
632
  9
$SURFTAB1
 70
     6
  9
$SURFTAB2
 70
     6
  9
$SURFTYPE
 70
     6
  9
$SURFU
 70
     6
  9
$SURFV
 70
     6
  9
$UCSBASE
  2

  9
$UCSNAME
  2

  9
$UCSORG
 10
0.0
 20
0.0
 30
0.0
  9
$UCSXDIR
 10
1.0
 20
0.0
 30
0.0
  9
$UCSYDIR
 10
0.0
 20
1.0
 30
0.0
  9
$UCSORTHOREF
  2

  9
$UCSORTHOVIEW
 70
     0
  9
$UCSORGTOP
 10
0.0
 20
0.0
 30
0.0
  9
$UCSORGBOTTOM
 10
0.0
 20
0.0
 30
0.0
  9
$UCSORGLEFT
 10
0.0
 20
0.0
 30
0.0
  9
$UCSORGRIGHT
 10
0.0
 20
0.0
 30
0.0
  9
$UCSORGFRONT
 10
0.0
 20
0.0
 30
0.0
  9
$UCSORGBACK
 10
0.0
 20
0.0
 30
0.0
  9
$PUCSBASE
  2

  9
$PUCSNAME
  2

  9
$PUCSORG
 10
0.0
 20
0.0
 30
0.0
  9
$PUCSXDIR
 10
1.0
 20
0.0
 30
0.0
  9
$PUCSYDIR
 10
0.0
 20
1.0
 30
0.0
  9
$PUCSORTHOREF
  2

  9
$PUCSORTHOVIEW
 70
     0
  9
$PUCSORGTOP
 10
0.0
 20
0.0
 30
0.0
  9
$PUCSORGBOTTOM
 10
0.0
 20
0.0
 30
0.0
  9
$PUCSORGLEFT
 10
0.0
 20
0.0
 30
0.0
  9
$PUCSORGRIGHT
 10
0.0
 20
0.0
 30
0.0
  9
$PUCSORGFRONT
 10
0.0
 20
0.0
 30
0.0
  9
$PUCSORGBACK
 10
0.0
 20
0.0
 30
0.0
  9
$USERI1
 70
     0
  9
$USERI2
 70
     0
  9
$USERI3
 70
     0
  9
$USERI4
 70
     0
  9
$USERI5
 70
     0
  9
$USERR1
 40
0.0
  9
$USERR2
 40
0.0
  9
$USERR3
 40
0.0
  9
$USERR4
 40
0.0
  9
$USERR5
 40
0.0
  9
$WORLDVIEW
 70
     1
  9
$SHADEDGE
 70
     3
  9
$SHADEDIF
 70
    70
  9
$TILEMODE
 70
     1
  9
$MAXACTVP
 70
    48
  9
$PINSBASE
 10
0.0
 20
0.0
 30
0.0
  9
$PLIMCHECK
 70
     0
  9
$PEXTMIN
 10
1.000000000000000E+20
 20
1.000000000000000E+20
 30
1.000000000000000E+20
  9
$PEXTMAX
 10
-1.000000000000000E+20
 20
-1.000000000000000E+20
 30
-1.000000000000000E+20
  9
$PLIMMIN
 10
0.0
 20
0.0
  9
$PLIMMAX
 10
12.0
 20
9.0
  9
$UNITMODE
 70
     0
  9
$VISRETAIN
 70
     1
  9
$PLINEGEN
 70
     0
  9
$PSLTSCALE
 70
     1
  9
$TREEDEPTH
 70
  3020
  9
$CMLSTYLE
  2
STANDARD
  9
$CMLJUST
 70
     0
  9
$CMLSCALE
 40
1.0
  9
$PROXYGRAPHICS
 70
     1
  9
$MEASUREMENT
 70
     0
  9
$CELWEIGHT
370
    -1
  9
$ENDCAPS
280
     0
  9
$JOINSTYLE
280
     0
  9
$LWDISPLAY
290
     0
  9
$INSUNITS
 70
     0
  9
$HYPERLINKBASE
  1

  9
$STYLESHEET
  1

  9
$XEDIT
290
     1
  9
$CEPSNTYPE
380
     0
  9
$PSTYLEMODE
290
     1
  9
$FINGERPRINTGUID
  2
{F8F75F9E-500D-4C25-A8F2-1735B61D9572}
  9
$VERSIONGUID
  2
{FF099FFD-936C-4351-955B-394881365E33}
  9
$EXTNAMES
290
     1
  9
$PSVPSCALE
 40
0.0
  9
$OLESTARTUP
290
     0
  9
$SORTENTS
280
   127
  9
$INDEXCTL
280
     0
  9
$HIDETEXT
280
     0
  9
$XCLIPFRAME
280
     2
  9
$HALOGAP
280
     0
  9
$OBSCOLOR
 70
   257
  9
$OBSLTYPE
280
     0
  9
$INTERSECTIONDISPLAY
280
     0
  9
$INTERSECTIONCOLOR
 70
   257
  9
$DIMASSOC
280
     1
  9
$PROJECTNAME
  1

  9
$CAMERADISPLAY
290
     0
  9
$LENSLENGTH
 40
50.0
  9
$CAMERAHEIGHT
 40
0.0
  9
$STEPSPERSEC
 40
2.0
  9
$STEPSIZE
 40
6.0
  9
$3DDWFPREC
 40
2.0
  9
$PSOLWIDTH
 40
0.25
  9
$PSOLHEIGHT
 40
4.0
  9
$LOFTANG1
 40
1.570796326794896
  9
$LOFTANG2
 40
1.570796326794896
  9
$LOFTMAG1
 40
0.0
  9
$LOFTMAG2
 40
0.0
  9
$LOFTPARAM
 70
     7
  9
$LOFTNORMALS
280
     1
  9
$LATITUDE
 40
37.795
  9
$LONGITUDE
 40
-122.394
  9
$NORTHDIRECTION
 40
0.0
  9
$TIMEZONE
 70
 -8000
  9
$LIGHTGLYPHDISPLAY
280
     1
  9
$TILEMODELIGHTSYNCH
280
     1
  9
$CMATERIAL
347
5AD
  9
$SOLIDHIST
280
     0
  9
$SHOWHIST
280
     1
  9
$DWFFRAME
280
     2
  9
$DGNFRAME
280
     0
  9
$REALWORLDSCALE
290
     1
  9
$INTERFERECOLOR
 62
     1
  9
$INTERFEREOBJVS
345
5CF
  9
$INTERFEREVPVS
346
5CC
  9
$CSHADOW
280
     0
  9
$SHADOWPLANELOCATION
 40
0.0
  0
ENDSEC
  0
SECTION
  2
CLASSES
  0
CLASS
  1
ACDBDICTIONARYWDFLT
  2
AcDbDictionaryWithDefault
  3
ObjectDBX Classes
 90
        0
 91
        1
280
     0
281
     0
  0
CLASS
  1
MATERIAL
  2
AcDbMaterial
  3
ObjectDBX Classes
 90
     1153
 91
        3
280
     0
281
     0
  0
CLASS
  1
VISUALSTYLE
  2
AcDbVisualStyle
  3
ObjectDBX Classes
 90
     4095
 91
       24
280
     0
281
     0
  0
CLASS
  1
TABLESTYLE
  2
AcDbTableStyle
  3
ObjectDBX Classes
 90
     4095
 91
        1
280
     0
281
     0
  0
CLASS
  1
SCALE
  2
AcDbScale
  3
ObjectDBX Classes
 90
     1153
 91
       17
280
     0
281
     0
  0
CLASS
  1
MLEADERSTYLE
  2
AcDbMLeaderStyle
  3
ACDB_MLEADERSTYLE_CLASS
 90
     4095
 91
        1
280
     0
281
     0
  0
CLASS
  1
ACDBSECTIONVIEWSTYLE
  2
AcDbSectionViewStyle
  3
ObjectDBX Classes
 90
     1025
 91
        1
280
     0
281
     0
  0
CLASS
  1
ACDBDETAILVIEWSTYLE
  2
AcDbDetailViewStyle
  3
ObjectDBX Classes
 90
     1025
 91
        1
280
     0
281
     0
  0
CLASS
  1
DICTIONARYVAR
  2
AcDbDictionaryVar
  3
ObjectDBX Classes
 90
        0
 91
        9
280
     0
281
     0
  0
CLASS
  1
CELLSTYLEMAP
  2
AcDbCellStyleMap
  3
ObjectDBX Classes
 90
     1152
 91
        1
280
     0
281
     0
  0
ENDSEC
  0
SECTION
  2
TABLES
  0
TABLE
  2
VPORT
  5
8
330
0
100
AcDbSymbolTable
 70
     1
  0
VPORT
  5
5A1
330
8
100
AcDbSymbolTableRecord
100
AcDbViewportTableRecord
  2
*ACTIVE
 70
     0
 10
0.0
 20
0.0
 11
1.0
 21
1.0
 12
9.500053762773472
 22
3.802007328011459
 13
0.0
 23
0.0
 14
0.5
 24
0.5
 15
0.5
 25
0.5
 16
0.0
 26
0.0
 36
1.0
 17
0.0
 27
0.0
 37
0.0
 40
15.73091899267478
 41
2.53012048192771
 42
50.0
 43
0.0
 44
0.0
 50
0.0
 51
0.0
 71
     0
 72
   100
 73
     1
 74
     1
 75
     0
 76
     0
 77
     0
 78
     0
281
     0
 65
     1
110
0.0
120
0.0
130
0.0
111
1.0
121
0.0
131
0.0
112
0.0
122
1.0
132
0.0
 79
     0
146
0.0
348
5CB
 60
     3
 61
     5
292
     1
282
     1
141
0.0
142
0.0
 63
   250
421
  3355443
1001
ACAD_NAV_VCDISPLAY
1070
     3
  0
ENDTAB
  0
TABLE
  2
LTYPE
  5
5
330
0
100
AcDbSymbolTable
 70
     5
  0
LTYPE
  5
12
330
5
100
AcDbSymbolTableRecord
100
AcDbLinetypeTableRecord
  2
BYBLOCK
 70
     0
  3

 72
    65
 73
     0
 40
0.0
  0
LTYPE
  5
13
330
5
100
AcDbSymbolTableRecord
100
AcDbLinetypeTableRecord
  2
BYLAYER
 70
     0
  3

 72
    65
 73
     0
 40
0.0
  0
LTYPE
  5
14
330
5
100
AcDbSymbolTableRecord
100
AcDbLinetypeTableRecord
  2
CONTINUOUS
 70
     0
  3
Solid line
 72
    65
 73
     0
 40
0.0
  0
LTYPE
  5
5F
330
5
100
AcDbSymbolTableRecord
100
AcDbLinetypeTableRecord
  2
CENTER
 70
     0
  3
Center ____ _ ____ _ ____ _ ____ _ ____ _ ____
 72
    65
 73
     4
 40
2.0
 49
1.25
 74
     0
 49
-0.25
 74
     0
 49
0.25
 74
     0
 49
-0.25
 74
     0
  0
LTYPE
  5
60
330
5
100
AcDbSymbolTableRecord
100
AcDbLinetypeTableRecord
  2
DASHED2
 70
     0
  3
Dashed (.5x) _ _ _ _ _ _ _ _ _ _ _ _ _ _ _ _ _
 72
    65
 73
     2
 40
0.375
 49
0.25
 74
     0
 49
-0.125
 74
     0
  0
LTYPE
  5
61
330
5
100
AcDbSymbolTableRecord
100
AcDbLinetypeTableRecord
  2
HIDDEN2
 70
     0
  3
Hidden (.5x) _ _ _ _ _ _ _ _ _ _ _ _ _ _ _ _ _
 72
    65
 73
     2
 40
0.1875
 49
0.125
 74
     0
 49
-0.0625
 74
     0
  0
ENDTAB
  0
TABLE
  2
LAYER
  5
2
330
0
100
AcDbSymbolTable
 70
     6
  0
LAYER
  5
E
102
{ACAD_XDICTIONARY
360
616
102
}
330
2
100
AcDbSymbolTableRecord
100
AcDbLayerTableRecord
  2
0
 70
     0
 62
     7
  6
CONTINUOUS
370
    -3
390
5AB
347
5BD
348
0
  0
LAYER
  5
62
102
{ACAD_XDICTIONARY
360
618
102
}
330
2
100
AcDbSymbolTableRecord
100
AcDbLayerTableRecord
  2
TB
 70
     0
 62
     7
  6
CONTINUOUS
370
    -3
390
5AB
347
5BD
348
0
  0
LAYER
  5
63
102
{ACAD_XDICTIONARY
360
61A
102
}
330
2
100
AcDbSymbolTableRecord
100
AcDbLayerTableRecord
  2
CTR_LINES
 70
     0
 62
     1
  6
CENTER
370
    -3
390
5AB
347
5BD
348
0
  0
LAYER
  5
64
102
{ACAD_XDICTIONARY
360
61C
102
}
330
2
100
AcDbSymbolTableRecord
100
AcDbLayerTableRecord
  2
DIMS_TEXT
 70
     0
 62
     3
  6
CONTINUOUS
370
    -3
390
5AB
347
5BD
348
0
  0
LAYER
  5
65
330
2
100
AcDbSymbolTableRecord
100
AcDbLayerTableRecord
  2
DEFPOINTS
 70
     0
 62
     7
  6
CONTINUOUS
290
     0
370
    -3
390
5AB
347
5BD
348
0
  0
LAYER
  5
66
102
{ACAD_XDICTIONARY
360
61E
102
}
330
2
100
AcDbSymbolTableRecord
100
AcDbLayerTableRecord
  2
HIDDEN_LINE
 70
     0
 62
     4
  6
HIDDEN2
370
    -3
390
5AB
347
5BD
348
0
  0
ENDTAB
  0
TABLE
  2
STYLE
  5
3
330
0
100
AcDbSymbolTable
 70
     1
  0
STYLE
  5
F
330
3
100
AcDbSymbolTableRecord
100
AcDbTextStyleTableRecord
  2
STANDARD
 70
     0
 40
0.0
 41
1.0
 50
0.0
 71
     0
 42
0.2
  3
txt
  4

  0
ENDTAB
  0
TABLE
  2
VIEW
  5
6
330
0
100
AcDbSymbolTable
 70
     0
  0
ENDTAB
  0
TABLE
  2
UCS
  5
7
330
0
100
AcDbSymbolTable
 70
     0
  0
ENDTAB
  0
TABLE
  2
APPID
  5
9
330
0
100
AcDbSymbolTable
 70
     4
  0
APPID
  5
10
330
9
100
AcDbSymbolTableRecord
100
AcDbRegAppTableRecord
  2
ACAD
 70
     0
  0
APPID
  5
5FF
330
9
100
AcDbSymbolTableRecord
100
AcDbRegAppTableRecord
  2
AcadAnnoMonitorAlertIconDisabled
 70
     0
  0
APPID
  5
600
330
9
100
AcDbSymbolTableRecord
100
AcDbRegAppTableRecord
  2
ACAD_EXEMPT_FROM_CAD_STANDARDS
 70
     0
  0
APPID
  5
62A
330
9
100
AcDbSymbolTableRecord
100
AcDbRegAppTableRecord
  2
ACAD_NAV_VCDISPLAY
 70
     0
  0
ENDTAB
  0
TABLE
  2
DIMSTYLE
  5
A
330
0
100
AcDbSymbolTable
 70
     1
100
AcDbDimStyleTable
 71
     0
  0
DIMSTYLE
105
1D
102
{ACAD_REACTORS
330
14C
330
333
330
340
330
365
330
381
330
39C
330
3C4
330
3DE
330
408
330
430
330
43E
330
44C
330
472
330
48A
330
4C0
330
4CE
330
6A
330
76
330
77
330
85
330
EF
102
}
330
A
100
AcDbSymbolTableRecord
100
AcDbDimStyleTableRecord
  2
STANDARD
 70
     0
340
F
  0
ENDTAB
  0
TABLE
  2
BLOCK_RECORD
  5
1
330
0
100
AcDbSymbolTable
 70
    23
  0
BLOCK_RECORD
  5
18
330
1
100
AcDbSymbolTableRecord
100
AcDbBlockTableRecord
  2
*MODEL_SPACE
340
5FB
 70
     0
280
     1
281
     0
  0
BLOCK_RECORD
  5
15
330
1
100
AcDbSymbolTableRecord
100
AcDbBlockTableRecord
  2
*PAPER_SPACE
340
5FC
 70
     0
280
     1
281
     0
  0
BLOCK_RECORD
  5
21
330
1
100
AcDbSymbolTableRecord
100
AcDbBlockTableRecord
  2
*D0
340
0
 70
     0
280
     1
281
     0
  0
BLOCK_RECORD
  5
2C
330
1
100
AcDbSymbolTableRecord
100
AcDbBlockTableRecord
  2
*D1
340
0
 70
     0
280
     1
281
     0
  0
BLOCK_RECORD
  5
39
330
1
100
AcDbSymbolTableRecord
100
AcDbBlockTableRecord
  2
*D2
340
0
 70
     0
280
     1
281
     0
  0
BLOCK_RECORD
  5
46
330
1
100
AcDbSymbolTableRecord
100
AcDbBlockTableRecord
  2
*D3
340
0
 70
     0
280
     1
281
     0
  0
BLOCK_RECORD
  5
54
330
1
100
AcDbSymbolTableRecord
100
AcDbBlockTableRecord
  2
*D4
340
0
 70
     0
280
     1
281
     0
  0
BLOCK_RECORD
  5
67
330
1
100
AcDbSymbolTableRecord
100
AcDbBlockTableRecord
  2
BOB1
340
0
 70
     0
280
     1
281
     0
  0
BLOCK_RECORD
  5
219
330
1
100
AcDbSymbolTableRecord
100
AcDbBlockTableRecord
  2
*D6
340
0
 70
     0
280
     1
281
     0
  0
BLOCK_RECORD
  5
326
330
1
100
AcDbSymbolTableRecord
100
AcDbBlockTableRecord
  2
*D7
340
0
 70
     0
280
     1
281
     0
  0
BLOCK_RECORD
  5
334
330
1
100
AcDbSymbolTableRecord
100
AcDbBlockTableRecord
  2
*D8
340
0
 70
     0
280
     1
281
     0
  0
BLOCK_RECORD
  5
358
330
1
100
AcDbSymbolTableRecord
100
AcDbBlockTableRecord
  2
*D9
340
0
 70
     0
280
     1
281
     0
  0
BLOCK_RECORD
  5
374
330
1
100
AcDbSymbolTableRecord
100
AcDbBlockTableRecord
  2
*D10
340
0
 70
     0
280
     1
281
     0
  0
BLOCK_RECORD
  5
38E
330
1
100
AcDbSymbolTableRecord
100
AcDbBlockTableRecord
  2
*D11
340
0
 70
     0
280
     1
281
     0
  0
BLOCK_RECORD
  5
3B7
330
1
100
AcDbSymbolTableRecord
100
AcDbBlockTableRecord
  2
*D12
340
0
 70
     0
280
     1
281
     0
  0
BLOCK_RECORD
  5
3D1
330
1
100
AcDbSymbolTableRecord
100
AcDbBlockTableRecord
  2
*D13
340
0
 70
     0
280
     1
281
     0
  0
BLOCK_RECORD
  5
3FB
330
1
100
AcDbSymbolTableRecord
100
AcDbBlockTableRecord
  2
*D14
340
0
 70
     0
280
     1
281
     0
  0
BLOCK_RECORD
  5
423
330
1
100
AcDbSymbolTableRecord
100
AcDbBlockTableRecord
  2
*D15
340
0
 70
     0
280
     1
281
     0
  0
BLOCK_RECORD
  5
431
330
1
100
AcDbSymbolTableRecord
100
AcDbBlockTableRecord
  2
*D16
340
0
 70
     0
280
     1
281
     0
  0
BLOCK_RECORD
  5
43F
330
1
100
AcDbSymbolTableRecord
100
AcDbBlockTableRecord
  2
*D17
340
0
 70
     0
280
     1
281
     0
  0
BLOCK_RECORD
  5
465
330
1
100
AcDbSymbolTableRecord
100
AcDbBlockTableRecord
  2
*D18
340
0
 70
     0
280
     1
281
     0
  0
BLOCK_RECORD
  5
47F
330
1
100
AcDbSymbolTableRecord
100
AcDbBlockTableRecord
  2
*D19
340
0
 70
     0
280
     1
281
     0
  0
BLOCK_RECORD
  5
4B3
330
1
100
AcDbSymbolTableRecord
100
AcDbBlockTableRecord
  2
*D20
340
0
 70
     0
280
     1
281
     0
  0
BLOCK_RECORD
  5
4C1
330
1
100
AcDbSymbolTableRecord
100
AcDbBlockTableRecord
  2
*D21
340
0
 70
     0
280
     1
281
     0
  0
BLOCK_RECORD
  5
57A
330
1
100
AcDbSymbolTableRecord
100
AcDbBlockTableRecord
  2
TITLE_BLOCK
340
0
 70
     0
280
     1
281
     0
  0
ENDTAB
  0
ENDSEC
  0
SECTION
  2
BLOCKS
  0
BLOCK
  5
19
330
18
100
AcDbEntity
  8
0
100
AcDbBlockBegin
  2
*MODEL_SPACE
 70
     0
 10
0.0
 20
0.0
 30
0.0
  3
*MODEL_SPACE
  1

  0
ENDBLK
  5
1A
330
18
100
AcDbEntity
  8
0
100
AcDbBlockEnd
  0
BLOCK
  5
16
330
15
100
AcDbEntity
 67
     1
  8
0
100
AcDbBlockBegin
  2
*PAPER_SPACE
 70
     0
 10
0.0
 20
0.0
 30
0.0
  3
*PAPER_SPACE
  1

  0
ENDBLK
  5
17
330
15
100
AcDbEntity
 67
     1
  8
0
100
AcDbBlockEnd
  0
BLOCK
  5
2A
330
21
100
AcDbEntity
  8
0
100
AcDbBlockBegin
  2
*D0
 70
     1
 10
0.0
 20
0.0
 30
0.0
  3
*D0
  1

  0
LINE
  5
22
330
21
100
AcDbEntity
  8
0
  6
ByBlock
 62
     0
440
 16777216
100
AcDbLine
 10
8.143417999999998
 20
3.355310999999999
 30
0.0
 11
7.716408999999999
 21
3.355310999999999
 31
0.0
  0
LINE
  5
23
330
21
100
AcDbEntity
  8
0
  6
ByBlock
 62
     0
440
 16777216
100
AcDbLine
 10
7.716408999999999
 20
3.355310999999999
 30
0.0
 11
6.401406999999999
 21
4.461319
 31
0.0
  0
MTEXT
  5
24
330
21
100
AcDbEntity
  8
0
  6
ByBlock
 62
     0
440
 16777216
100
AcDbMText
 10
8.296732999999999
 20
3.355310999999999
 30
0.0
 40
0.13
 41
0.0
 46
0.0
 71
     5
 72
     1
  1
\A1;∅
 73
     1
 44
1.0
  0
SOLID
  5
25
330
21
100
AcDbEntity
  8
0
  6
ByBlock
 62
     0
440
 16777216
100
AcDbTrace
 10
6.420716999999999
 20
4.484277999999999
 30
0.0
 11
6.382096999999999
 21
4.438359999999999
 31
0.0
 12
6.263652999999999
 22
4.57718
 32
0.0
 13
6.263652999999999
 23
4.57718
 33
0.0
  0
LINE
  5
26
330
21
100
AcDbEntity
  8
0
  6
ByBlock
 62
     0
440
 16777216
100
AcDbLine
 10
6.048142999999999
 20
4.682742
 30
0.0
 11
6.228143
 21
4.682742
 31
0.0
  0
LINE
  5
27
330
21
100
AcDbEntity
  8
0
  6
ByBlock
 62
     0
440
 16777216
100
AcDbLine
 10
6.138143
 20
4.592741999999999
 30
0.0
 11
6.138143
 21
4.772742
 31
0.0
  0
POINT
  5
28
330
21
100
AcDbEntity
  8
DEFPOINTS
  6
ByBlock
 62
     0
440
 16777216
100
AcDbPoint
 10
6.263652999999999
 20
4.57718
 30
0.0
  0
POINT
  5
29
330
21
100
AcDbEntity
  8
DEFPOINTS
  6
ByBlock
 62
     0
440
 16777216
100
AcDbPoint
 10
6.012633999999999
 20
4.788304
 30
0.0
  0
ENDBLK
  5
2B
330
21
100
AcDbEntity
  8
0
100
AcDbBlockEnd
  0
BLOCK
  5
37
330
2C
100
AcDbEntity
  8
0
100
AcDbBlockBegin
  2
*D1
 70
     1
 10
0.0
 20
0.0
 30
0.0
  3
*D1
  1

  0
LINE
  5
2D
330
2C
100
AcDbEntity
  8
0
  6
ByBlock
 62
     0
440
 16777216
100
AcDbLine
 10
2.825642999999999
 20
1.682741999999999
 30
0.0
 11
0.606257
 21
1.682741999999999
 31
0.0
  0
LINE
  5
2E
330
2C
100
AcDbEntity
  8
0
  6
ByBlock
 62
     0
440
 16777216
100
AcDbLine
 10
1.825643
 20
6.057742
 30
0.0
 11
0.606257
 21
6.057742
 31
0.0
  0
LINE
  5
2F
330
2C
100
AcDbEntity
  8
0
  6
ByBlock
 62
     0
440
 16777216
100
AcDbLine
 10
0.786257
 20
1.862741999999999
 30
0.0
 11
0.786257
 21
3.554627999999999
 31
0.0
  0
LINE
  5
30
330
2C
100
AcDbEntity
  8
0
  6
ByBlock
 62
     0
440
 16777216
100
AcDbLine
 10
0.786257
 20
5.877741999999999
 30
0.0
 11
0.786257
 21
4.185855999999999
 31
0.0
  0
SOLID
  5
31
330
2C
100
AcDbEntity
  8
0
  6
ByBlock
 62
     0
440
 16777216
100
AcDbTrace
 10
0.756257
 20
1.862741999999999
 30
0.0
 11
0.816257
 21
1.862741999999999
 31
0.0
 12
0.786257
 22
1.682741999999999
 32
0.0
 13
0.786257
 23
1.682741999999999
 33
0.0
  0
SOLID
  5
32
330
2C
100
AcDbEntity
  8
0
  6
ByBlock
 62
     0
440
 16777216
100
AcDbTrace
 10
0.756257
 20
5.877741999999999
 30
0.0
 11
0.816257
 21
5.877741999999999
 31
0.0
 12
0.786257
 22
6.057742
 32
0.0
 13
0.786257
 23
6.057742
 33
0.0
  0
MTEXT
  5
33
330
2C
100
AcDbEntity
  8
0
  6
ByBlock
 62
     0
440
 16777216
100
AcDbMText
 10
0.786257
 20
3.870241999999999
 30
0.0
 40
0.15
 41
0.0
 46
0.0
 71
     5
 72
     1
  1
\A1;\L4.377\P\l4.373
 73
     1
 44
1.0
  0
POINT
  5
34
330
2C
100
AcDbEntity
  8
DEFPOINTS
  6
ByBlock
 62
     0
440
 16777216
100
AcDbPoint
 10
2.888142999999999
 20
1.682741999999999
 30
0.0
  0
POINT
  5
35
330
2C
100
AcDbEntity
  8
DEFPOINTS
  6
ByBlock
 62
     0
440
 16777216
100
AcDbPoint
 10
1.888143
 20
6.057742
 30
0.0
  0
POINT
  5
36
330
2C
100
AcDbEntity
  8
DEFPOINTS
  6
ByBlock
 62
     0
440
 16777216
100
AcDbPoint
 10
0.786257
 20
6.057742
 30
0.0
  0
ENDBLK
  5
38
330
2C
100
AcDbEntity
  8
0
100
AcDbBlockEnd
  0
BLOCK
  5
44
330
39
100
AcDbEntity
  8
0
100
AcDbBlockBegin
  2
*D2
 70
     1
 10
0.0
 20
0.0
 30
0.0
  3
*D2
  1

  0
LINE
  5
3A
330
39
100
AcDbEntity
  8
0
  6
ByBlock
 62
     0
440
 16777216
100
AcDbLine
 10
-4.05678
 20
7.995242
 30
0.0
 11
-4.05678
 21
8.683002
 31
0.0
  0
LINE
  5
3B
330
39
100
AcDbEntity
  8
0
  6
ByBlock
 62
     0
440
 16777216
100
AcDbLine
 10
-4.86878
 20
7.995242
 30
0.0
 11
-4.86878
 21
8.683002
 31
0.0
  0
LINE
  5
3C
330
39
100
AcDbEntity
  8
0
  6
ByBlock
 62
     0
440
 16777216
100
AcDbLine
 10
-4.23678
 20
8.503002
 30
0.0
 11
-4.68878
 21
8.503002
 31
0.0
  0
LINE
  5
3D
330
39
100
AcDbEntity
  8
0
  6
ByBlock
 62
     0
440
 16777216
100
AcDbLine
 10
-4.86878
 20
8.503002
 30
0.0
 11
-5.945451
 21
8.503002
 31
0.0
  0
SOLID
  5
3E
330
39
100
AcDbEntity
  8
0
  6
ByBlock
 62
     0
440
 16777216
100
AcDbTrace
 10
-4.23678
 20
8.533001999999999
 30
0.0
 11
-4.23678
 21
8.473002000000001
 31
0.0
 12
-4.05678
 22
8.503002
 32
0.0
 13
-4.05678
 23
8.503002
 33
0.0
  0
SOLID
  5
3F
330
39
100
AcDbEntity
  8
0
  6
ByBlock
 62
     0
440
 16777216
100
AcDbTrace
 10
-4.68878
 20
8.533001999999999
 30
0.0
 11
-4.68878
 21
8.473002000000001
 31
0.0
 12
-4.86878
 22
8.503002
 32
0.0
 13
-4.86878
 23
8.503002
 33
0.0
  0
MTEXT
  5
40
330
39
100
AcDbEntity
  8
0
  6
ByBlock
 62
     0
440
 16777216
100
AcDbMText
 10
-6.266283
 20
8.503002
 30
0.0
 40
0.15
 41
0.0
 46
0.0
 71
     5
 72
     1
  1
\A1;\L.814\P\l.810\PTYP.
 73
     1
 44
1.0
  0
POINT
  5
41
330
39
100
AcDbEntity
  8
DEFPOINTS
  6
ByBlock
 62
     0
440
 16777216
100
AcDbPoint
 10
-4.05678
 20
7.932742
 30
0.0
  0
POINT
  5
42
330
39
100
AcDbEntity
  8
DEFPOINTS
  6
ByBlock
 62
     0
440
 16777216
100
AcDbPoint
 10
-4.86878
 20
7.932742
 30
0.0
  0
POINT
  5
43
330
39
100
AcDbEntity
  8
DEFPOINTS
  6
ByBlock
 62
     0
440
 16777216
100
AcDbPoint
 10
-4.86878
 20
8.503002
 30
0.0
  0
ENDBLK
  5
45
330
39
100
AcDbEntity
  8
0
100
AcDbBlockEnd
  0
BLOCK
  5
52
330
46
100
AcDbEntity
  8
0
100
AcDbBlockBegin
  2
*D3
 70
     1
 10
0.0
 20
0.0
 30
0.0
  3
*D3
  1

  0
LINE
  5
47
330
46
100
AcDbEntity
  8
0
  6
ByBlock
 62
     0
440
 16777216
100
AcDbLine
 10
-2.692779999999999
 20
4.682742
 30
0.0
 11
-0.7397890000000001
 21
4.682742
 31
0.0
  0
LINE
  5
48
330
46
100
AcDbEntity
  8
0
  6
ByBlock
 62
     0
440
 16777216
100
AcDbLine
 10
-2.630279999999999
 20
7.432742
 30
0.0
 11
-0.7397890000000001
 21
7.432742
 31
0.0
  0
LINE
  5
49
330
46
100
AcDbEntity
  8
0
  6
ByBlock
 62
     0
440
 16777216
100
AcDbLine
 10
-0.9197889999999999
 20
4.862741999999999
 30
0.0
 11
-0.9197889999999999
 21
7.252741999999999
 31
0.0
  0
LINE
  5
4A
330
46
100
AcDbEntity
  8
0
  6
ByBlock
 62
     0
440
 16777216
100
AcDbLine
 10
-0.9197889999999999
 20
7.432742
 30
0.0
 11
-0.9197889999999999
 21
8.300195
 31
0.0
  0
LINE
  5
4B
330
46
100
AcDbEntity
  8
0
  6
ByBlock
 62
     0
440
 16777216
100
AcDbLine
 10
-0.9197889999999999
 20
8.300195
 30
0.0
 11
-0.7397890000000001
 21
8.300195
 31
0.0
  0
SOLID
  5
4C
330
46
100
AcDbEntity
  8
0
  6
ByBlock
 62
     0
440
 16777216
100
AcDbTrace
 10
-0.9497889999999999
 20
4.862741999999999
 30
0.0
 11
-0.889789
 21
4.862741999999999
 31
0.0
 12
-0.9197889999999999
 22
4.682742
 32
0.0
 13
-0.9197889999999999
 23
4.682742
 33
0.0
  0
SOLID
  5
4D
330
46
100
AcDbEntity
  8
0
  6
ByBlock
 62
     0
440
 16777216
100
AcDbTrace
 10
-0.9497889999999999
 20
7.252741999999999
 30
0.0
 11
-0.889789
 21
7.252741999999999
 31
0.0
 12
-0.9197889999999999
 22
7.432742
 32
0.0
 13
-0.9197889999999999
 23
7.432742
 33
0.0
  0
MTEXT
  5
4E
330
46
100
AcDbEntity
  8
0
  6
ByBlock
 62
     0
440
 16777216
100
AcDbMText
 10
-0.395475
 20
8.300195
 30
0.0
 40
0.15
 41
0.0
 46
0.0
 71
     5
 72
     1
  1
\A1;\L2.754\P\l2.746\PTYP.
 73
     1
 44
1.0
  0
POINT
  5
4F
330
46
100
AcDbEntity
  8
DEFPOINTS
  6
ByBlock
 62
     0
440
 16777216
100
AcDbPoint
 10
-2.755279999999999
 20
4.682742
 30
0.0
  0
POINT
  5
50
330
46
100
AcDbEntity
  8
DEFPOINTS
  6
ByBlock
 62
     0
440
 16777216
100
AcDbPoint
 10
-2.692779999999999
 20
7.432742
 30
0.0
  0
POINT
  5
51
330
46
100
AcDbEntity
  8
DEFPOINTS
  6
ByBlock
 62
     0
440
 16777216
100
AcDbPoint
 10
-0.9197889999999999
 20
7.432742
 30
0.0
  0
ENDBLK
  5
53
330
46
100
AcDbEntity
  8
0
100
AcDbBlockEnd
  0
BLOCK
  5
5D
330
54
100
AcDbEntity
  8
0
100
AcDbBlockBegin
  2
*D4
 70
     1
 10
0.0
 20
0.0
 30
0.0
  3
*D4
  1

  0
LINE
  5
55
330
54
100
AcDbEntity
  8
0
  6
ByBlock
 62
     0
440
 16777216
100
AcDbLine
 10
-0.754711
 20
3.379131999999999
 30
0.0
 11
-1.255368999999999
 21
3.379131999999999
 31
0.0
  0
LINE
  5
56
330
54
100
AcDbEntity
  8
0
  6
ByBlock
 62
     0
440
 16777216
100
AcDbLine
 10
-1.255368999999999
 20
3.379131999999999
 30
0.0
 11
-2.050113
 21
4.410277999999999
 31
0.0
  0
MTEXT
  5
57
330
54
100
AcDbEntity
  8
0
  6
ByBlock
 62
     0
440
 16777216
100
AcDbMText
 10
-0.368282
 20
3.379131999999999
 30
0.0
 40
0.15
 41
0.0
 46
0.0
 71
     5
 72
     1
  1
\A1;∅.328\PX 12
 73
     1
 44
1.0
  0
SOLID
  5
58
330
54
100
AcDbEntity
  8
0
  6
ByBlock
 62
     0
440
 16777216
100
AcDbTrace
 10
-2.026352
 20
4.428592
 30
0.0
 11
-2.073875
 21
4.391963999999999
 31
0.0
 12
-2.159996
 22
4.552846999999999
 32
0.0
 13
-2.159996
 23
4.552846999999999
 33
0.0
  0
LINE
  5
59
330
54
100
AcDbEntity
  8
0
  6
ByBlock
 62
     0
440
 16777216
100
AcDbLine
 10
-2.350111999999999
 20
4.682742
 30
0.0
 11
-2.170112
 21
4.682742
 31
0.0
  0
LINE
  5
5A
330
54
100
AcDbEntity
  8
0
  6
ByBlock
 62
     0
440
 16777216
100
AcDbLine
 10
-2.260111999999999
 20
4.592741999999999
 30
0.0
 11
-2.260111999999999
 21
4.772742
 31
0.0
  0
POINT
  5
5B
330
54
100
AcDbEntity
  8
DEFPOINTS
  6
ByBlock
 62
     0
440
 16777216
100
AcDbPoint
 10
-2.159996
 20
4.552846999999999
 30
0.0
  0
POINT
  5
5C
330
54
100
AcDbEntity
  8
DEFPOINTS
  6
ByBlock
 62
     0
440
 16777216
100
AcDbPoint
 10
-2.360227
 20
4.812637999999999
 30
0.0
  0
ENDBLK
  5
5E
330
54
100
AcDbEntity
  8
0
100
AcDbBlockEnd
  0
BLOCK
  5
12C
330
67
100
AcDbEntity
  8
0
100
AcDbBlockBegin
  2
BOB1
 70
     0
 10
0.0
 20
0.0
 30
0.0
  3
BOB1
  1

  0
MTEXT
  5
68
102
{ACAD_REACTORS
330
69
102
}
330
67
100
AcDbEntity
  8
DIMS_TEXT
100
AcDbMText
 10
5.736280999999999
 20
-3.921933
 30
0.0
 40
0.15
 41
0.0
 46
0.0
 71
     4
 72
     1
  1
\A1;LETTER 'R' DRILL THRU\PONE SIDE.\P.125-27 NP THREADS\PFOR LEVEL SEAL PIPE PLUG.
 73
     1
 44
1.0
  0
LEADER
  5
69
330
67
100
AcDbEntity
  8
DIMS_TEXT
100
AcDbLeader
  3
STANDARD
 73
     0
 40
0.9
 41
3.599999999999998
 76
     3
 10
3.782087
 20
-0.9036649999999999
 30
0.0
 10
5.554599999999999
 20
-3.921933
 30
0.0
 10
5.646281
 20
-3.921933
 30
0.0
340
68
1001
ACAD
1000
DSTYLE
1002
{
1070
    78
1070
     4
1070
   284
1070
     4
1070
   140
1040
0.13
1070
   272
1070
     1
1070
   271
1070
     3
1002
}
  0
DIMENSION
  5
6A
330
67
100
AcDbEntity
  8
DIMS_TEXT
100
AcDbDimension
280
     0
  2
*D0
 10
4.186990999999999
 20
-1.269437999999999
 30
0.0
 11
6.47109
 21
-2.702431
 31
0.0
 12
-1.825643
 22
-6.057742
 32
0.0
 70
   131
  1
%%c
 71
     5
 42
-1.0
 73
     0
 74
     0
 75
     0
  3
STANDARD
100
AcDbDiametricDimension
 15
4.438009
 25
-1.480562
 35
0.0
 40
0.0
1001
ACAD
1000
DSTYLE
1002
{
1070
    78
1070
     4
1070
   288
1070
     1
1070
   284
1070
     4
1070
   140
1040
0.13
1070
   272
1070
     1
1070
   271
1070
     3
1002
}
  0
LINE
  5
6B
330
67
100
AcDbEntity
  8
CTR_LINES
100
AcDbLine
 10
-6.577783999999999
 20
-1.375
 30
0.0
 11
6.160491999999999
 21
-1.375
 31
0.0
  0
LINE
  5
6C
330
67
100
AcDbEntity
  8
CTR_LINES
100
AcDbLine
 10
-6.577783999999999
 20
1.375
 30
0.0
 11
6.160491999999999
 21
1.375
 31
0.0
  0
ARC
  5
6D
330
67
100
AcDbEntity
  8
0
100
AcDbCircle
 10
4.3125
 20
-1.375
 30
0.0
 40
0.4375
100
AcDbArc
 50
225.0
 51
45.0
  0
ARC
  5
6E
330
67
100
AcDbEntity
  8
0
100
AcDbCircle
 10
4.933914999999999
 20
-1.436999999999999
 30
0.0
 40
0.187
100
AcDbArc
 50
90.0
 51
174.302322
  0
ARC
  5
6F
330
67
100
AcDbEntity
  8
0
100
AcDbCircle
 10
4.937
 20
-0.812
 30
0.0
 40
0.187
100
AcDbArc
 50
90.0
 51
180.0
  0
LINE
  5
70
330
67
100
AcDbEntity
  8
0
100
AcDbLine
 10
3.561999999999999
 20
0.625
 30
0.0
 11
5.125499999999999
 21
0.625
 31
0.0
  0
LINE
  5
71
330
67
100
AcDbEntity
  8
0
100
AcDbLine
 10
3.558915
 20
1.25
 30
0.0
 11
5.125499999999999
 21
1.25
 31
0.0
  0
LINE
  5
72
330
67
100
AcDbEntity
  8
CTR_LINES
100
AcDbLine
 10
-0.9444450000000001
 20
-0.75
 30
0.0
 11
6.160491999999999
 21
-0.75
 31
0.0
  0
LINE
  5
73
330
67
100
AcDbEntity
  8
CTR_LINES
100
AcDbLine
 10
-0.9444450000000001
 20
-1.375
 30
0.0
 11
6.160491999999999
 21
-1.375
 31
0.0
  0
LINE
  5
74
330
67
100
AcDbEntity
  8
CTR_LINES
100
AcDbLine
 10
-0.9444450000000001
 20
1.375
 30
0.0
 11
6.160491999999999
 21
1.375
 31
0.0
  0
LINE
  5
75
330
67
100
AcDbEntity
  8
CTR_LINES
100
AcDbLine
 10
-6.577783999999999
 20
0.0
 30
0.0
 11
6.160491999999999
 21
0.0
 31
0.0
  0
DIMENSION
  5
76
330
67
100
AcDbEntity
  8
DIMS_TEXT
100
AcDbDimension
280
     0
  2
*D3
 10
-1.760763999999999
 20
1.375
 30
0.0
 11
-1.23645
 21
2.242452999999999
 31
0.0
 12
-0.840975
 22
-6.057742
 32
0.0
 70
   128
  1
\L2.754\P\l2.746\PTYP.
 71
     5
 42
-1.0
 73
     0
 74
     0
 75
     0
  3
STANDARD
100
AcDbAlignedDimension
 13
-3.596255
 23
-1.375
 33
0.0
 14
-3.533755
 24
1.375
 34
0.0
 50
90.0
100
AcDbRotatedDimension
1001
ACAD
1000
DSTYLE
1002
{
1070
    78
1070
     4
1070
   284
1070
     4
1070
   140
1040
0.15
1070
   272
1070
     1
1070
   271
1070
     3
1002
}
  0
DIMENSION
  5
77
330
67
100
AcDbEntity
  8
DIMS_TEXT
100
AcDbDimension
280
     0
  2
*D1
 10
-1.039387
 20
0.0
 30
0.0
 11
-1.039387
 21
-2.1875
 31
0.0
 12
-1.825643
 22
-6.057742
 32
0.0
  1
\L4.377\P\l4.373
 71
     5
 42
-1.0
 73
     0
 74
     0
 75
     0
  3
STANDARD
100
AcDbAlignedDimension
 13
1.0625
 23
-4.375
 33
0.0
 14
0.0625
 24
0.0
 34
0.0
 50
90.0
100
AcDbRotatedDimension
1001
ACAD
1000
DSTYLE
1002
{
1070
    78
1070
     4
1070
   284
1070
     4
1070
   140
1040
0.15
1070
   272
1070
     1
1070
   271
1070
     3
1002
}
  0
LINE
  5
78
330
67
100
AcDbEntity
  8
CTR_LINES
100
AcDbLine
 10
-5.709755
 20
2.255691
 30
0.0
 11
-5.709755
 21
-4.527491999999999
 31
0.0
  0
LINE
  5
79
330
67
100
AcDbEntity
  8
CTR_LINES
100
AcDbLine
 10
-4.085755
 20
2.255691
 30
0.0
 11
-4.085755
 21
-4.527491999999999
 31
0.0
  0
CIRCLE
  5
7A
330
67
100
AcDbEntity
  8
HIDDEN_LINE
  6
HIDDEN2
100
AcDbCircle
 10
-4.897755
 20
0.0
 30
0.0
 40
0.9685
  0
CIRCLE
  5
7B
330
67
100
AcDbEntity
  8
0
  6
Continuous
100
AcDbCircle
 10
-4.897755
 20
0.0
 30
0.0
 40
0.9252499999999999
  0
LINE
  5
7C
330
67
100
AcDbEntity
  8
0
100
AcDbLine
 10
-6.159254999999999
 20
0.8769999999999999
 30
0.0
 11
-6.159254999999999
 21
-0.8774999999999998
 31
0.0
  0
LINE
  5
7D
330
67
100
AcDbEntity
  8
0
100
AcDbLine
 10
-3.660869
 20
0.876942
 30
0.0
 11
-3.659772
 21
-0.252558
 31
0.0
  0
LINE
  5
7E
330
67
100
AcDbEntity
  8
0
100
AcDbLine
 10
-3.658255
 20
0.521936
 30
0.0
 11
-3.658255
 21
-0.521936
 31
0.0
  0
LINE
  5
7F
330
67
100
AcDbEntity
  8
0
100
AcDbLine
 10
-6.159254999999999
 20
0.520728
 30
0.0
 11
-6.159254999999999
 21
-0.520728
 31
0.0
  0
LINE
  5
80
330
67
100
AcDbEntity
  8
CTR_LINES
100
AcDbLine
 10
3.6875
 20
2.857699
 30
0.0
 11
3.6875
 21
-1.612511
 31
0.0
  0
LINE
  5
81
330
67
100
AcDbEntity
  8
CTR_LINES
100
AcDbLine
 10
1.5625
 20
2.857699
 30
0.0
 11
1.5625
 21
-4.671912999999999
 31
0.0
  0
LINE
  5
82
330
67
100
AcDbEntity
  8
CTR_LINES
100
AcDbLine
 10
4.3125
 20
2.857699
 30
0.0
 11
4.3125
 21
-4.641087999999999
 31
0.0
  0
LINE
  5
83
330
67
100
AcDbEntity
  8
0
100
AcDbLine
 10
0.0625
 20
1.875
 30
0.0
 11
0.0625
 21
-1.875
 31
0.0
  0
LEADER
  5
84
330
67
100
AcDbEntity
  8
DIMS_TEXT
100
AcDbLeader
  3
STANDARD
 76
     2
 10
-5.605005
 20
-5.727851999999999
 30
0.0
 10
-4.897755
 20
-5.727851999999999
 30
0.0
1001
ACAD
1000
DSTYLE
1002
{
1070
    78
1070
     4
1070
   284
1070
     4
1070
   140
1040
0.13
1070
   272
1070
     1
1070
   271
1070
     3
1002
}
  0
DIMENSION
  5
85
330
67
100
AcDbEntity
  8
DIMS_TEXT
100
AcDbDimension
280
     0
  2
*D4
 10
-4.185870999999999
 20
-1.245103999999999
 30
0.0
 11
-2.193925999999999
 21
-2.678609999999999
 31
0.0
 12
-1.825643
 22
-6.057742
 32
0.0
 70
   131
  1
<>\PX 12
 71
     5
 42
-1.0
 73
     0
 74
     0
 75
     0
  3
STANDARD
100
AcDbDiametricDimension
 15
-3.98564
 25
-1.504896
 35
0.0
 40
0.0
1001
ACAD
1000
DSTYLE
1002
{
1070
    78
1070
     4
1070
   288
1070
     1
1070
   284
1070
     4
1070
   140
1040
0.15
1070
   272
1070
     1
1070
   271
1070
     3
1002
}
  0
LINE
  5
86
330
67
100
AcDbEntity
  8
HIDDEN_LINE
  6
HIDDEN2
100
AcDbLine
 10
-5.545755
 20
-3.875
 30
0.0
 11
-5.545755
 21
-4.375
 31
0.0
  0
LINE
  5
87
330
67
100
AcDbEntity
  8
HIDDEN_LINE
  6
HIDDEN2
100
AcDbLine
 10
-5.873755
 20
-3.875
 30
0.0
 11
-5.873755
 21
-4.375
 31
0.0
  0
LINE
  5
88
330
67
100
AcDbEntity
  8
HIDDEN_LINE
  6
HIDDEN2
100
AcDbLine
 10
-4.249755
 20
-3.875
 30
0.0
 11
-4.249755
 21
-4.375
 31
0.0
  0
LINE
  5
89
330
67
100
AcDbEntity
  8
HIDDEN_LINE
  6
HIDDEN2
100
AcDbLine
 10
-3.921755
 20
-3.875
 30
0.0
 11
-3.921755
 21
-4.375
 31
0.0
  0
LINE
  5
8A
330
67
100
AcDbEntity
  8
0
100
AcDbLine
 10
-6.159254999999999
 20
-1.8125
 30
0.0
 11
-6.159254999999999
 21
-4.375
 31
0.0
  0
LINE
  5
8B
330
67
100
AcDbEntity
  8
0
100
AcDbLine
 10
-3.658258
 20
-1.8125
 30
0.0
 11
-3.655769999999999
 21
-4.375
 31
0.0
  0
ARC
  5
8C
330
67
100
AcDbEntity
  8
0
100
AcDbCircle
 10
-4.460755
 20
-3.688
 30
0.0
 40
0.187
100
AcDbArc
 50
180.0
 51
270.0
  0
ARC
  5
8D
330
67
100
AcDbEntity
  8
0
100
AcDbCircle
 10
-5.334755
 20
-3.688
 30
0.0
 40
0.187
100
AcDbArc
 50
270.0
 51
360.0
  0
ARC
  5
8E
330
67
100
AcDbEntity
  8
0
100
AcDbCircle
 10
-3.718255
 20
-3.935
 30
0.0
 40
0.06
100
AcDbArc
 50
360.0
 51
90.0
  0
ARC
  5
8F
330
67
100
AcDbEntity
  8
0
100
AcDbCircle
 10
-6.099255
 20
-3.935
 30
0.0
 40
0.06
100
AcDbArc
 50
90.0
 51
180.0
  0
TEXT
  5
90
330
67
100
AcDbEntity
  8
DIMS_TEXT
100
AcDbText
 10
-5.822726999999999
 20
-5.795641999999999
 30
0.0
 40
0.18
  1
A
100
AcDbText
  0
LINE
  5
91
330
67
100
AcDbEntity
  8
0
100
AcDbLine
 10
-6.159254999999999
 20
-4.375
 30
0.0
 11
-3.655769999999999
 21
-4.375
 31
0.0
  0
LINE
  5
92
330
67
100
AcDbEntity
  8
DIMS_TEXT
100
AcDbLine
 10
-5.605005
 20
-5.727851999999999
 30
0.0
 11
-4.897755
 21
-5.727851999999999
 31
0.0
  0
LINE
  5
93
330
67
100
AcDbEntity
  8
0
100
AcDbLine
 10
-6.159254999999999
 20
-3.935
 30
0.0
 11
-6.159254999999999
 21
-4.375
 31
0.0
  0
LINE
  5
94
330
67
100
AcDbEntity
  8
0
100
AcDbLine
 10
-3.658255
 20
-3.935
 30
0.0
 11
-3.656188999999999
 21
-3.942859999999999
 31
0.0
  0
LINE
  5
95
330
67
100
AcDbEntity
  8
0
100
AcDbLine
 10
-5.147755
 20
-1.9995
 30
0.0
 11
-5.147755
 21
-3.688
 31
0.0
  0
LINE
  5
96
330
67
100
AcDbEntity
  8
0
100
AcDbLine
 10
-4.647755
 20
-1.9995
 30
0.0
 11
-4.647755
 21
-3.688
 31
0.0
  0
LINE
  5
97
330
67
100
AcDbEntity
  8
0
100
AcDbLine
 10
-6.099255
 20
-3.875
 30
0.0
 11
-5.334755
 21
-3.875
 31
0.0
  0
LINE
  5
98
330
67
100
AcDbEntity
  8
0
100
AcDbLine
 10
-4.460755
 20
-3.875
 30
0.0
 11
-3.718255
 21
-3.875
 31
0.0
  0
ARC
  5
99
330
67
100
AcDbEntity
  8
HIDDEN_LINE
  6
DASHED2
100
AcDbCircle
 10
-4.701868
 20
-1.062999999999999
 30
0.0
 40
0.187
100
AcDbArc
 50
270.0
 51
302.277823
  0
LINE
  5
9A
330
67
100
AcDbEntity
  8
0
100
AcDbLine
 10
-5.972255
 20
-1.875
 30
0.0
 11
-3.845255
 21
-1.875
 31
0.0
  0
LINE
  5
9B
330
67
100
AcDbEntity
  8
0
100
AcDbLine
 10
-6.159254999999999
 20
-1.688
 30
0.0
 11
-6.159254999999999
 21
-0.8774999999999998
 31
0.0
  0
LINE
  5
9C
330
67
100
AcDbEntity
  8
HIDDEN_LINE
  6
HIDDEN2
100
AcDbLine
 10
-6.070551
 20
-0.67981
 30
0.0
 11
-5.192937999999999
 21
-1.222081999999999
 31
0.0
  0
LINE
  5
9D
330
67
100
AcDbEntity
  8
0
100
AcDbLine
 10
-6.221255
 20
-0.9375
 30
0.0
 11
-6.221255
 21
-1.8125
 31
0.0
  0
CIRCLE
  5
9E
330
67
100
AcDbEntity
  8
0
  6
Continuous
100
AcDbCircle
 10
-5.709755
 20
-1.375
 30
0.0
 40
0.164
  0
LINE
  5
9F
330
67
100
AcDbEntity
  8
HIDDEN_LINE
  6
HIDDEN2
100
AcDbLine
 10
-6.111786
 20
-1.8125
 30
0.0
 11
-5.334755
 21
-1.8125
 31
0.0
  0
ARC
  5
A0
330
67
100
AcDbEntity
  8
0
100
AcDbCircle
 10
-5.972255
 20
-1.688
 30
0.0
 40
0.187
100
AcDbArc
 50
180.0
 51
270.0
  0
LINE
  5
A1
330
67
100
AcDbEntity
  8
0
100
AcDbLine
 10
-6.159254999999999
 20
-1.8125
 30
0.0
 11
-6.111786
 21
-1.8125
 31
0.0
  0
LINE
  5
A2
330
67
100
AcDbEntity
  8
0
  6
DASHED2
100
AcDbLine
 10
-6.221255
 20
-1.8125
 30
0.0
 11
-6.159254999999999
 21
-1.8125
 31
0.0
  0
LINE
  5
A3
330
67
100
AcDbEntity
  8
0
100
AcDbLine
 10
-6.159254999999999
 20
-1.8125
 30
0.0
 11
-6.221255
 21
-1.8125
 31
0.0
  0
ARC
  5
A4
330
67
100
AcDbEntity
  8
0
100
AcDbCircle
 10
-5.334755
 20
-1.9995
 30
0.0
 40
0.187
100
AcDbArc
 50
360.0
 51
41.74184
  0
ARC
  5
A5
330
67
100
AcDbEntity
  8
HIDDEN_LINE
100
AcDbCircle
 10
-5.334755
 20
-1.9995
 30
0.0
 40
0.1875
100
AcDbArc
 50
41.605654
 51
94.18522299999999
  0
ARC
  5
A6
330
67
100
AcDbEntity
  8
HIDDEN_LINE
  6
DASHED2
100
AcDbCircle
 10
-5.094642999999999
 20
-1.062999999999999
 30
0.0
 40
0.187
100
AcDbArc
 50
238.288321
 51
270.0
  0
LINE
  5
A7
330
67
100
AcDbEntity
  8
HIDDEN_LINE
  6
HIDDEN2
100
AcDbLine
 10
-5.094642999999999
 20
-1.25
 30
0.0
 11
-4.701868
 21
-1.25
 31
0.0
  0
ARC
  5
A8
330
67
100
AcDbEntity
  8
HIDDEN_LINE
  6
DASHED2
100
AcDbCircle
 10
-5.972255
 20
-0.520728
 30
0.0
 40
0.187
100
AcDbArc
 50
180.0
 51
238.288321
  0
ARC
  5
A9
330
67
100
AcDbEntity
  8
0
100
AcDbCircle
 10
-6.219255
 20
-0.8774999999999998
 30
0.0
 40
0.06
100
AcDbArc
 50
270.0
 51
0.0
  0
LINE
  5
AA
330
67
100
AcDbEntity
  8
0
100
AcDbLine
 10
-6.219255
 20
-0.9375
 30
0.0
 11
-6.221255
 21
-0.9375
 31
0.0
  0
LINE
  5
AB
330
67
100
AcDbEntity
  8
0
100
AcDbLine
 10
-3.658255
 20
-1.688
 30
0.0
 11
-3.658255
 21
-0.521936
 31
0.0
  0
LINE
  5
AC
330
67
100
AcDbEntity
  8
HIDDEN_LINE
  6
HIDDEN2
100
AcDbLine
 10
-4.602005
 20
-1.221103
 30
0.0
 11
-3.745391999999999
 21
-0.6800390000000001
 31
0.0
  0
LINE
  5
AD
330
67
100
AcDbEntity
  8
0
100
AcDbLine
 10
-3.596255
 20
-0.3125
 30
0.0
 11
-3.596255
 21
-1.8125
 31
0.0
  0
ARC
  5
AE
330
67
100
AcDbEntity
  8
0
100
AcDbCircle
 10
-3.845255
 20
-1.688
 30
0.0
 40
0.187
100
AcDbArc
 50
270.0
 51
360.0
  0
LINE
  5
AF
330
67
100
AcDbEntity
  8
HIDDEN_LINE
  6
HIDDEN2
100
AcDbLine
 10
-4.460755
 20
-1.8125
 30
0.0
 11
-3.705725
 21
-1.8125
 31
0.0
  0
ARC
  5
B0
330
67
100
AcDbEntity
  8
HIDDEN_LINE
100
AcDbCircle
 10
-4.460755
 20
-1.9995
 30
0.0
 40
0.1875
100
AcDbArc
 50
85.814777
 51
138.394346
  0
ARC
  5
B1
330
67
100
AcDbEntity
  8
0
  6
DASHED2
100
AcDbCircle
 10
-4.460755
 20
-1.9995
 30
0.0
 40
0.187
100
AcDbArc
 50
138.25816
 51
180.0
  0
CIRCLE
  5
B2
330
67
100
AcDbEntity
  8
0
  6
Continuous
100
AcDbCircle
 10
-4.085755
 20
-1.375
 30
0.0
 40
0.164
  0
LINE
  5
B3
330
67
100
AcDbEntity
  8
0
100
AcDbLine
 10
-3.705725
 20
-1.8125
 30
0.0
 11
-3.658258
 21
-1.8125
 31
0.0
  0
LINE
  5
B4
330
67
100
AcDbEntity
  8
HIDDEN_LINE
  6
HIDDEN2
100
AcDbLine
 10
-3.658258
 20
-1.8125
 30
0.0
 11
-3.658255
 21
-1.8125
 31
0.0
  0
LINE
  5
B5
330
67
100
AcDbEntity
  8
0
100
AcDbLine
 10
-3.596255
 20
-1.8125
 30
0.0
 11
-3.658255
 21
-1.8125
 31
0.0
  0
ARC
  5
B6
330
67
100
AcDbEntity
  8
HIDDEN_LINE
  6
DASHED2
100
AcDbCircle
 10
-3.845255
 20
-0.521936
 30
0.0
 40
0.187
100
AcDbArc
 50
302.277823
 51
360.0
  0
ARC
  5
B7
330
67
100
AcDbEntity
  8
0
100
AcDbCircle
 10
-3.599772
 20
-0.2525
 30
0.0
 40
0.06
100
AcDbArc
 50
180.055627
 51
270.0
  0
LINE
  5
B8
330
67
100
AcDbEntity
  8
0
100
AcDbLine
 10
-3.596255
 20
-0.3125
 30
0.0
 11
-3.599772
 21
-0.3125
 31
0.0
  0
LINE
  5
B9
330
67
100
AcDbEntity
  8
HIDDEN_LINE
  6
DASHED2
100
AcDbLine
 10
4.1485
 20
-3.875
 30
0.0
 11
4.1485
 21
-4.375
 31
0.0
  0
LINE
  5
BA
330
67
100
AcDbEntity
  8
HIDDEN_LINE
  6
DASHED2
100
AcDbLine
 10
4.476499999999999
 20
-3.875
 30
0.0
 11
4.476499999999999
 21
-4.375
 31
0.0
  0
LINE
  5
BB
330
67
100
AcDbEntity
  8
HIDDEN_LINE
  6
DASHED2
100
AcDbLine
 10
1.726499999999999
 20
-3.875
 30
0.0
 11
1.726499999999999
 21
-4.375
 31
0.0
  0
LINE
  5
BC
330
67
100
AcDbEntity
  8
HIDDEN_LINE
  6
DASHED2
100
AcDbLine
 10
1.3985
 20
-3.875
 30
0.0
 11
1.3985
 21
-4.375
 31
0.0
  0
ARC
  5
BD
330
67
100
AcDbEntity
  8
0
100
AcDbCircle
 10
4.6875
 20
-4.0
 30
0.0
 40
0.125
100
AcDbArc
 50
360.0
 51
90.0
  0
ARC
  5
BE
330
67
100
AcDbEntity
  8
0
100
AcDbCircle
 10
3.749499999999999
 20
-3.688
 30
0.0
 40
0.187
100
AcDbArc
 50
180.0
 51
270.0
  0
ARC
  5
BF
330
67
100
AcDbEntity
  8
0
100
AcDbCircle
 10
2.1255
 20
-3.688
 30
0.0
 40
0.187
100
AcDbArc
 50
270.0
 51
0.0
  0
ARC
  5
C0
330
67
100
AcDbEntity
  8
0
100
AcDbCircle
 10
4.3745
 20
-3.688
 30
0.0
 40
0.187
100
AcDbArc
 50
180.0
 51
270.0
  0
ARC
  5
C1
330
67
100
AcDbEntity
  8
0
100
AcDbCircle
 10
1.500499999999999
 20
-3.688
 30
0.0
 40
0.187
100
AcDbArc
 50
270.0
 51
0.0
  0
ARC
  5
C2
330
67
100
AcDbEntity
  8
0
100
AcDbCircle
 10
1.1875
 20
-4.0
 30
0.0
 40
0.125
100
AcDbArc
 50
90.0
 51
180.0
  0
LINE
  5
C3
330
67
100
AcDbEntity
  8
0
100
AcDbLine
 10
1.0625
 20
-4.375
 30
0.0
 11
4.8125
 21
-4.375
 31
0.0
  0
LINE
  5
C4
330
67
100
AcDbEntity
  8
0
100
AcDbLine
 10
1.0625
 20
-4.0
 30
0.0
 11
1.0625
 21
-4.375
 31
0.0
  0
LINE
  5
C5
330
67
100
AcDbEntity
  8
0
100
AcDbLine
 10
4.8125
 20
-4.0
 30
0.0
 11
4.8125
 21
-4.375
 31
0.0
  0
ARC
  5
C6
330
67
100
AcDbEntity
  8
0
100
AcDbCircle
 10
0.9410849999999999
 20
-1.436999999999999
 30
0.0
 40
0.187
100
AcDbArc
 50
5.697677999999999
 51
90.0
  0
ARC
  5
C7
330
67
100
AcDbEntity
  8
0
100
AcDbCircle
 10
0.9379999999999999
 20
-0.812
 30
0.0
 40
0.187
100
AcDbArc
 50
0.0
 51
90.0
  0
LINE
  5
C8
330
67
100
AcDbEntity
  8
0
100
AcDbLine
 10
0.5625
 20
-0.812
 30
0.0
 11
0.5625
 21
-1.375
 31
0.0
  0
LINE
  5
C9
330
67
100
AcDbEntity
  8
0
  6
DASHED2
100
AcDbLine
 10
0.5625
 20
-0.812
 30
0.0
 11
0.5625
 21
-1.75
 31
0.0
  0
LINE
  5
CA
330
67
100
AcDbEntity
  8
HIDDEN_LINE
  6
HIDDEN2
100
AcDbLine
 10
0.0625
 20
-1.539
 30
0.0
 11
0.5625
 21
-1.539
 31
0.0
  0
LINE
  5
CB
330
67
100
AcDbEntity
  8
HIDDEN_LINE
  6
HIDDEN2
100
AcDbLine
 10
0.0625
 20
-1.210999999999999
 30
0.0
 11
0.5625
 21
-1.210999999999999
 31
0.0
  0
LINE
  5
CC
330
67
100
AcDbEntity
  8
0
  6
DASHED2
100
AcDbLine
 10
0.4375
 20
-1.875
 30
0.0
 11
0.0625
 21
-1.875
 31
0.0
  0
ARC
  5
CD
330
67
100
AcDbEntity
  8
0
100
AcDbCircle
 10
0.4375
 20
-1.75
 30
0.0
 40
0.125
100
AcDbArc
 50
270.0
 51
0.0
  0
ARC
  5
CE
330
67
100
AcDbEntity
  8
0
  6
DASHED2
100
AcDbCircle
 10
0.7495000000000001
 20
-1.436999999999999
 30
0.0
 40
0.187
100
AcDbArc
 50
90.0
 51
180.0
  0
LINE
  5
CF
330
67
100
AcDbEntity
  8
0
100
AcDbLine
 10
0.5625
 20
-1.436999999999999
 30
0.0
 11
0.5625
 21
-1.210999999999999
 31
0.0
  0
LINE
  5
D0
330
67
100
AcDbEntity
  8
0
100
AcDbLine
 10
0.5625
 20
-1.375
 30
0.0
 11
0.5625
 21
-1.210999999999999
 31
0.0
  0
LINE
  5
D1
330
67
100
AcDbEntity
  8
0
100
AcDbLine
 10
0.7495000000000001
 20
-1.25
 30
0.0
 11
0.9410849999999999
 21
-1.25
 31
0.0
  0
ARC
  5
D2
330
67
100
AcDbEntity
  8
0
100
AcDbCircle
 10
0.7495000000000001
 20
-0.812
 30
0.0
 40
0.187
100
AcDbArc
 50
90.0
 51
180.0
  0
LINE
  5
D3
330
67
100
AcDbEntity
  8
0
100
AcDbLine
 10
0.7495000000000001
 20
-0.625
 30
0.0
 11
0.9379999999999999
 21
-0.625
 31
0.0
  0
LINE
  5
D4
330
67
100
AcDbEntity
  8
0
100
AcDbLine
 10
2.3125
 20
-1.9995
 30
0.0
 11
2.3125
 21
-3.688
 31
0.0
  0
LINE
  5
D5
330
67
100
AcDbEntity
  8
0
100
AcDbLine
 10
3.5625
 20
-1.9995
 30
0.0
 11
3.5625
 21
-3.688
 31
0.0
  0
LINE
  5
D6
330
67
100
AcDbEntity
  8
0
100
AcDbLine
 10
1.6875
 20
-1.996415
 30
0.0
 11
1.6875
 21
-3.688
 31
0.0
  0
LINE
  5
D7
330
67
100
AcDbEntity
  8
0
100
AcDbLine
 10
4.1875
 20
-1.996415
 30
0.0
 11
4.1875
 21
-3.688
 31
0.0
  0
LINE
  5
D8
330
67
100
AcDbEntity
  8
0
100
AcDbLine
 10
1.1875
 20
-3.875
 30
0.0
 11
2.1255
 21
-3.875
 31
0.0
  0
LINE
  5
D9
330
67
100
AcDbEntity
  8
0
100
AcDbLine
 10
3.749499999999999
 20
-3.875
 30
0.0
 11
4.381721999999999
 21
-3.875
 31
0.0
  0
LINE
  5
DA
330
67
100
AcDbEntity
  8
0
100
AcDbLine
 10
4.6875
 20
-3.875
 30
0.0
 11
4.381721999999999
 21
-3.875
 31
0.0
  0
LINE
  5
DB
330
67
100
AcDbEntity
  8
0
100
AcDbLine
 10
1.125
 20
-1.375
 30
0.0
 11
1.125
 21
-0.812
 31
0.0
  0
CIRCLE
  5
DC
330
67
100
AcDbEntity
  8
0
100
AcDbCircle
 10
1.5625
 20
-1.375
 30
0.0
 40
0.4375
  0
LINE
  5
DD
330
67
100
AcDbEntity
  8
0
100
AcDbLine
 10
1.524375999999999
 20
-1.8125
 30
0.0
 11
2.1255
 21
-1.8125
 31
0.0
  0
ARC
  5
DE
330
67
100
AcDbEntity
  8
0
100
AcDbCircle
 10
1.500499999999999
 20
-1.996415
 30
0.0
 40
0.187
100
AcDbArc
 50
0.0
 51
84.302322
  0
LINE
  5
DF
330
67
100
AcDbEntity
  8
0
100
AcDbLine
 10
1.519064999999999
 20
-1.810338999999999
 30
0.0
 11
1.483502
 21
-1.795863999999999
 31
0.0
  0
LINE
  5
E0
330
67
100
AcDbEntity
  8
0
100
AcDbLine
 10
1.519064999999999
 20
-1.810338999999999
 30
0.0
 11
1.519064999999999
 21
-1.810338999999999
 31
0.0
  0
LINE
  5
E1
330
67
100
AcDbEntity
  8
0
100
AcDbLine
 10
1.5625
 20
-1.8125
 30
0.0
 11
1.534329
 21
-1.8125
 31
0.0
  0
CIRCLE
  5
E2
330
67
100
AcDbEntity
  8
0
100
AcDbCircle
 10
1.5625
 20
-1.375
 30
0.0
 40
0.164
  0
ARC
  5
E3
330
67
100
AcDbEntity
  8
0
100
AcDbCircle
 10
2.1255
 20
-1.9995
 30
0.0
 40
0.187
100
AcDbArc
 50
0.0
 51
90.0
  0
ARC
  5
E4
330
67
100
AcDbEntity
  8
HIDDEN_LINE
100
AcDbCircle
 10
4.3125
 20
-1.375
 30
0.0
 40
0.4375
100
AcDbArc
 50
45.0
 51
225.0
  0
LINE
  5
E5
330
67
100
AcDbEntity
  8
0
100
AcDbLine
 10
4.75
 20
-1.375
 30
0.0
 11
4.75
 21
-0.812
 31
0.0
  0
LINE
  5
E6
330
67
100
AcDbEntity
  8
0
100
AcDbLine
 10
3.378141
 20
-1.059358999999999
 30
0.0
 11
4.003141
 21
-1.684358999999999
 31
0.0
  0
ARC
  5
E7
330
67
100
AcDbEntity
  8
0
100
AcDbCircle
 10
3.6875
 20
-0.75
 30
0.0
 40
0.4375
100
AcDbArc
 50
42.58194399999999
 51
225.0
  0
LINE
  5
E8
330
67
100
AcDbEntity
  8
0
100
AcDbLine
 10
3.749499999999999
 20
-1.8125
 30
0.0
 11
4.3125
 21
-1.8125
 31
0.0
  0
ARC
  5
E9
330
67
100
AcDbEntity
  8
0
100
AcDbCircle
 10
3.749499999999999
 20
-1.9995
 30
0.0
 40
0.187
100
AcDbArc
 50
90.0
 51
180.0
  0
ARC
  5
EA
330
67
100
AcDbEntity
  8
0
100
AcDbCircle
 10
4.3745
 20
-1.996415
 30
0.0
 40
0.187
100
AcDbArc
 50
95.69767799999999
 51
180.0
  0
CIRCLE
  5
EB
330
67
100
AcDbEntity
  8
0
100
AcDbCircle
 10
4.3125
 20
-1.375
 30
0.0
 40
0.164
  0
CIRCLE
  5
EC
330
67
100
AcDbEntity
  8
0
100
AcDbCircle
 10
3.6875
 20
-0.75
 30
0.0
 40
0.1685
  0
CIRCLE
  5
ED
330
67
100
AcDbEntity
  8
HIDDEN_LINE
  6
HIDDEN2
100
AcDbCircle
 10
3.6875
 20
-0.75
 30
0.0
 40
0.21
  0
LINE
  5
EE
330
67
100
AcDbEntity
  8
0
100
AcDbLine
 10
3.996858999999999
 20
-0.4406410000000001
 30
0.0
 11
4.621858999999999
 21
-1.065641
 31
0.0
  0
DIMENSION
  5
EF
330
67
100
AcDbEntity
  8
DIMS_TEXT
100
AcDbDimension
280
     0
  2
*D2
 10
-5.709755
 20
2.445259
 30
0.0
 11
-7.107257999999999
 21
2.445259
 31
0.0
 12
-0.840975
 22
-6.057742
 32
0.0
 70
   128
  1
\L.814\P\l.810\PTYP.
 71
     5
 42
-1.0
 73
     0
 74
     0
 75
     0
  3
STANDARD
100
AcDbAlignedDimension
 13
-4.897755
 23
1.875
 33
0.0
 14
-5.709755
 24
1.875
 34
0.0
100
AcDbRotatedDimension
1001
ACAD
1000
DSTYLE
1002
{
1070
    78
1070
     4
1070
   284
1070
     4
1070
   140
1040
0.15
1070
   272
1070
     1
1070
   271
1070
     3
1002
}
  0
LINE
  5
F0
330
67
100
AcDbEntity
  8
0
100
AcDbLine
 10
-6.159254999999999
 20
0.8769999999999999
 30
0.0
 11
-6.159254999999999
 21
1.688
 31
0.0
  0
LINE
  5
F1
330
67
100
AcDbEntity
  8
0
100
AcDbLine
 10
-3.660869
 20
0.876942
 30
0.0
 11
-3.658255
 21
1.688
 31
0.0
  0
LINE
  5
F2
330
67
100
AcDbEntity
  8
0
100
AcDbLine
 10
-3.596255
 20
1.811999999999999
 30
0.0
 11
-3.596255
 21
0.937
 31
0.0
  0
LINE
  5
F3
330
67
100
AcDbEntity
  8
0
100
AcDbLine
 10
-6.221255
 20
1.811999999999999
 30
0.0
 11
-6.221255
 21
0.937
 31
0.0
  0
ARC
  5
F4
330
67
100
AcDbEntity
  8
HIDDEN_LINE
  6
DASHED2
100
AcDbCircle
 10
-4.701868
 20
1.062999999999999
 30
0.0
 40
0.187
100
AcDbArc
 50
57.722177
 51
90.0
  0
ARC
  5
F5
330
67
100
AcDbEntity
  8
0
  6
DASHED2
100
AcDbCircle
 10
-4.701868
 20
1.062999999999999
 30
0.0
 40
0.187
100
AcDbArc
 50
57.722177
 51
90.0
  0
LINE
  5
F6
330
67
100
AcDbEntity
  8
HIDDEN_LINE
  6
HIDDEN2
100
AcDbLine
 10
-5.192937999999999
 20
1.222081999999999
 30
0.0
 11
-6.070551
 21
0.67981
 31
0.0
  0
ARC
  5
F7
330
67
100
AcDbEntity
  8
HIDDEN_LINE
  6
DASHED2
100
AcDbCircle
 10
-5.972255
 20
0.520728
 30
0.0
 40
0.187
100
AcDbArc
 50
121.711679
 51
180.0
  0
CIRCLE
  5
F8
330
67
100
AcDbEntity
  8
0
  6
Continuous
100
AcDbCircle
 10
-5.709755
 20
1.375
 30
0.0
 40
0.164
  0
ARC
  5
F9
330
67
100
AcDbEntity
  8
0
100
AcDbCircle
 10
-6.219255
 20
0.8769999999999999
 30
0.0
 40
0.06
100
AcDbArc
 50
0.0
 51
90.0
  0
LINE
  5
FA
330
67
100
AcDbEntity
  8
0
100
AcDbLine
 10
-6.221255
 20
0.937
 30
0.0
 11
-6.219255
 21
0.937
 31
0.0
  0
ARC
  5
FB
330
67
100
AcDbEntity
  8
HIDDEN_LINE
  6
DASHED2
100
AcDbCircle
 10
-5.094642999999999
 20
1.062999999999999
 30
0.0
 40
0.187
100
AcDbArc
 50
90.0
 51
121.711679
  0
LINE
  5
FC
330
67
100
AcDbEntity
  8
HIDDEN_LINE
  6
HIDDEN2
100
AcDbLine
 10
-4.701868
 20
1.25
 30
0.0
 11
-5.094642999999999
 21
1.25
 31
0.0
  0
LINE
  5
FD
330
67
100
AcDbEntity
  8
HIDDEN_LINE
  6
HIDDEN2
100
AcDbLine
 10
-3.745391999999999
 20
0.6800390000000001
 30
0.0
 11
-4.602005
 21
1.221103
 31
0.0
  0
ARC
  5
FE
330
67
100
AcDbEntity
  8
HIDDEN_LINE
  6
DASHED2
100
AcDbCircle
 10
-3.845255
 20
0.521936
 30
0.0
 40
0.187
100
AcDbArc
 50
360.0
 51
57.722177
  0
CIRCLE
  5
FF
330
67
100
AcDbEntity
  8
0
  6
Continuous
100
AcDbCircle
 10
-4.085755
 20
1.375
 30
0.0
 40
0.164
  0
ARC
  5
100
330
67
100
AcDbEntity
  8
0
100
AcDbCircle
 10
-3.600869
 20
0.8769999999999999
 30
0.0
 40
0.06
100
AcDbArc
 50
90.0
 51
180.055627
  0
LINE
  5
101
330
67
100
AcDbEntity
  8
0
100
AcDbLine
 10
-3.600869
 20
0.937
 30
0.0
 11
-3.596255
 21
0.937
 31
0.0
  0
LINE
  5
102
330
67
100
AcDbEntity
  8
HIDDEN_LINE
  6
HIDDEN2
100
AcDbLine
 10
-6.11223
 20
1.811999999999999
 30
0.0
 11
-3.70528
 21
1.811999999999999
 31
0.0
  0
LINE
  5
103
330
67
100
AcDbEntity
  8
0
100
AcDbLine
 10
-5.972255
 20
1.875
 30
0.0
 11
-3.845255
 21
1.875
 31
0.0
  0
ARC
  5
104
330
67
100
AcDbEntity
  8
0
100
AcDbCircle
 10
-5.972255
 20
1.688
 30
0.0
 40
0.187
100
AcDbArc
 50
90.0
 51
180.0
  0
LINE
  5
105
330
67
100
AcDbEntity
  8
0
100
AcDbLine
 10
-6.221255
 20
1.811999999999999
 30
0.0
 11
-6.11223
 21
1.811999999999999
 31
0.0
  0
ARC
  5
106
330
67
100
AcDbEntity
  8
0
100
AcDbCircle
 10
-3.845255
 20
1.688
 30
0.0
 40
0.187
100
AcDbArc
 50
360.0
 51
90.0
  0
LINE
  5
107
330
67
100
AcDbEntity
  8
0
100
AcDbLine
 10
-3.70528
 20
1.811999999999999
 30
0.0
 11
-3.596255
 21
1.811999999999999
 31
0.0
  0
LINE
  5
108
330
67
100
AcDbEntity
  8
0
100
AcDbLine
 10
0.7495000000000001
 20
0.625
 30
0.0
 11
2.313
 21
0.625
 31
0.0
  0
LINE
  5
109
330
67
100
AcDbEntity
  8
0
100
AcDbLine
 10
0.7495000000000001
 20
1.25
 30
0.0
 11
2.316084999999999
 21
1.25
 31
0.0
  0
LINE
  5
10A
330
67
100
AcDbEntity
  8
0
100
AcDbLine
 10
0.5625
 20
0.812
 30
0.0
 11
0.5625
 21
1.75
 31
0.0
  0
ARC
  5
10B
330
67
100
AcDbEntity
  8
0
100
AcDbCircle
 10
0.7495000000000001
 20
0.812
 30
0.0
 40
0.187
100
AcDbArc
 50
180.0
 51
270.0
  0
LINE
  5
10C
330
67
100
AcDbEntity
  8
HIDDEN_LINE
  6
HIDDEN2
100
AcDbLine
 10
0.0625
 20
1.210999999999999
 30
0.0
 11
0.5625
 21
1.210999999999999
 31
0.0
  0
LINE
  5
10D
330
67
100
AcDbEntity
  8
HIDDEN_LINE
  6
HIDDEN2
100
AcDbLine
 10
0.0625
 20
1.539
 30
0.0
 11
0.5625
 21
1.539
 31
0.0
  0
ARC
  5
10E
330
67
100
AcDbEntity
  8
0
  6
DASHED2
100
AcDbCircle
 10
0.7495000000000001
 20
1.436999999999999
 30
0.0
 40
0.187
100
AcDbArc
 50
180.0
 51
270.0
  0
LINE
  5
10F
330
67
100
AcDbEntity
  8
0
100
AcDbLine
 10
0.0625
 20
1.875
 30
0.0
 11
0.4375
 21
1.875
 31
0.0
  0
ARC
  5
110
330
67
100
AcDbEntity
  8
0
100
AcDbCircle
 10
0.4375
 20
1.75
 30
0.0
 40
0.125
100
AcDbArc
 50
0.0
 51
90.0
  0
CIRCLE
  5
111
330
67
100
AcDbEntity
  8
0
100
AcDbCircle
 10
2.9375
 20
1.375
 30
0.0
 40
0.4375
  0
CIRCLE
  5
112
330
67
100
AcDbEntity
  8
0
100
AcDbCircle
 10
2.9375
 20
1.375
 30
0.0
 40
0.164
  0
ARC
  5
113
330
67
100
AcDbEntity
  8
0
100
AcDbCircle
 10
2.313
 20
0.812
 30
0.0
 40
0.187
100
AcDbArc
 50
270.0
 51
0.0
  0
LINE
  5
114
330
67
100
AcDbEntity
  8
0
100
AcDbLine
 10
2.5
 20
1.375
 30
0.0
 11
2.5
 21
0.812
 31
0.0
  0
ARC
  5
115
330
67
100
AcDbEntity
  8
0
100
AcDbCircle
 10
2.316084999999999
 20
1.436999999999999
 30
0.0
 40
0.187
100
AcDbArc
 50
270.0
 51
354.302322
  0
ARC
  5
116
330
67
100
AcDbEntity
  8
0
100
AcDbCircle
 10
3.561999999999999
 20
0.812
 30
0.0
 40
0.187
100
AcDbArc
 50
180.0
 51
270.0
  0
LINE
  5
117
330
67
100
AcDbEntity
  8
0
100
AcDbLine
 10
3.375
 20
1.375
 30
0.0
 11
3.375
 21
0.812
 31
0.0
  0
ARC
  5
118
330
67
100
AcDbEntity
  8
0
100
AcDbCircle
 10
3.558915
 20
1.436999999999999
 30
0.0
 40
0.187
100
AcDbArc
 50
185.697678
 51
270.0
  0
LINE
  5
119
330
67
100
AcDbEntity
  8
0
100
AcDbLine
 10
5.8125
 20
1.875
 30
0.0
 11
5.8125
 21
-1.875
 31
0.0
  0
LINE
  5
11A
330
67
100
AcDbEntity
  8
0
100
AcDbLine
 10
5.3125
 20
-0.812
 30
0.0
 11
5.3125
 21
-1.75
 31
0.0
  0
ARC
  5
11B
330
67
100
AcDbEntity
  8
0
100
AcDbCircle
 10
5.4375
 20
-1.75
 30
0.0
 40
0.125
100
AcDbArc
 50
180.0
 51
270.0
  0
LINE
  5
11C
330
67
100
AcDbEntity
  8
0
100
AcDbLine
 10
5.4375
 20
-1.875
 30
0.0
 11
5.8125
 21
-1.875
 31
0.0
  0
LINE
  5
11D
330
67
100
AcDbEntity
  8
HIDDEN_LINE
  6
HIDDEN2
100
AcDbLine
 10
5.3125
 20
-1.539
 30
0.0
 11
5.8125
 21
-1.539
 31
0.0
  0
LINE
  5
11E
330
67
100
AcDbEntity
  8
HIDDEN_LINE
  6
HIDDEN2
100
AcDbLine
 10
5.3125
 20
-1.210999999999999
 30
0.0
 11
5.8125
 21
-1.210999999999999
 31
0.0
  0
ARC
  5
11F
330
67
100
AcDbEntity
  8
0
100
AcDbCircle
 10
5.125499999999999
 20
-1.436999999999999
 30
0.0
 40
0.187
100
AcDbArc
 50
0.0
 51
90.0
  0
LINE
  5
120
330
67
100
AcDbEntity
  8
0
100
AcDbLine
 10
4.933914999999999
 20
-1.25
 30
0.0
 11
5.125499999999999
 21
-1.25
 31
0.0
  0
ARC
  5
121
330
67
100
AcDbEntity
  8
0
100
AcDbCircle
 10
5.125499999999999
 20
-0.812
 30
0.0
 40
0.187
100
AcDbArc
 50
0.0
 51
90.0
  0
LINE
  5
122
330
67
100
AcDbEntity
  8
0
100
AcDbLine
 10
4.937
 20
-0.625
 30
0.0
 11
5.125499999999999
 21
-0.625
 31
0.0
  0
LINE
  5
123
330
67
100
AcDbEntity
  8
0
100
AcDbLine
 10
5.3125
 20
0.812
 30
0.0
 11
5.3125
 21
1.75
 31
0.0
  0
ARC
  5
124
330
67
100
AcDbEntity
  8
0
100
AcDbCircle
 10
5.125499999999999
 20
0.812
 30
0.0
 40
0.187
100
AcDbArc
 50
270.0
 51
0.0
  0
LINE
  5
125
330
67
100
AcDbEntity
  8
HIDDEN_LINE
  6
HIDDEN2
100
AcDbLine
 10
5.3125
 20
1.210999999999999
 30
0.0
 11
5.8125
 21
1.210999999999999
 31
0.0
  0
LINE
  5
126
330
67
100
AcDbEntity
  8
HIDDEN_LINE
  6
HIDDEN2
100
AcDbLine
 10
5.3125
 20
1.539
 30
0.0
 11
5.8125
 21
1.539
 31
0.0
  0
ARC
  5
127
330
67
100
AcDbEntity
  8
0
100
AcDbCircle
 10
5.125499999999999
 20
1.436999999999999
 30
0.0
 40
0.187
100
AcDbArc
 50
270.0
 51
0.0
  0
ARC
  5
128
330
67
100
AcDbEntity
  8
0
100
AcDbCircle
 10
5.4375
 20
1.75
 30
0.0
 40
0.125
100
AcDbArc
 50
90.0
 51
180.0
  0
LINE
  5
129
330
67
100
AcDbEntity
  8
0
100
AcDbLine
 10
5.3125
 20
1.75
 30
0.0
 11
5.3125
 21
1.75
 31
0.0
  0
LINE
  5
12A
330
67
100
AcDbEntity
  8
0
100
AcDbLine
 10
5.4375
 20
1.875
 30
0.0
 11
5.8125
 21
1.875
 31
0.0
  0
LINE
  5
12B
330
67
100
AcDbEntity
  8
CTR_LINES
100
AcDbLine
 10
-4.897755
 20
5.642717
 30
0.0
 11
-4.897755
 21
-5.727851999999999
 31
0.0
  0
ENDBLK
  5
12D
330
67
100
AcDbEntity
  8
0
100
AcDbBlockEnd
  0
BLOCK
  5
310
330
219
100
AcDbEntity
  8
0
100
AcDbBlockBegin
  2
*D6
 70
     1
 10
0.0
 20
0.0
 30
0.0
  3
*D6
  1

  0
LINE
  5
311
330
219
100
AcDbEntity
  8
0
  6
ByBlock
 62
     0
440
 16777216
100
AcDbLine
 10
3.549332
 20
2.630085999999999
 30
0.0
 11
3.369331999999999
 21
2.630085999999999
 31
0.0
  0
LINE
  5
312
330
219
100
AcDbEntity
  8
0
  6
ByBlock
 62
     0
440
 16777216
100
AcDbLine
 10
3.369331999999999
 20
2.630085999999999
 30
0.0
 11
2.574589
 21
3.661232
 31
0.0
  0
MTEXT
  5
313
330
219
100
AcDbEntity
  8
0
  6
ByBlock
 62
     0
440
 16777216
100
AcDbMText
 10
4.314332
 20
2.630085999999999
 30
0.0
 40
0.15
 41
0.0
 46
0.0
 71
     5
 72
     1
  1
\A1;∅.328 THRU\PX 4\PTYP.
 73
     1
 44
1.0
  0
SOLID
  5
314
330
219
100
AcDbEntity
  8
0
  6
ByBlock
 62
     0
440
 16777216
100
AcDbTrace
 10
2.598349999999999
 20
3.679544999999999
 30
0.0
 11
2.550826999999999
 21
3.642917999999999
 31
0.0
 12
2.464706
 22
3.803799999999999
 32
0.0
 13
2.464706
 23
3.803799999999999
 33
0.0
  0
LINE
  5
315
330
219
100
AcDbEntity
  8
0
  6
ByBlock
 62
     0
440
 16777216
100
AcDbLine
 10
2.27459
 20
3.933695999999999
 30
0.0
 11
2.45459
 21
3.933695999999999
 31
0.0
  0
LINE
  5
316
330
219
100
AcDbEntity
  8
0
  6
ByBlock
 62
     0
440
 16777216
100
AcDbLine
 10
2.36459
 20
3.843695999999999
 30
0.0
 11
2.36459
 21
4.023696
 31
0.0
  0
POINT
  5
317
330
219
100
AcDbEntity
  8
DEFPOINTS
  6
ByBlock
 62
     0
440
 16777216
100
AcDbPoint
 10
2.464706
 20
3.803799999999999
 30
0.0
  0
POINT
  5
318
330
219
100
AcDbEntity
  8
DEFPOINTS
  6
ByBlock
 62
     0
440
 16777216
100
AcDbPoint
 10
2.264475
 20
4.063591
 30
0.0
  0
ENDBLK
  5
319
330
219
100
AcDbEntity
  8
0
100
AcDbBlockEnd
  0
BLOCK
  5
341
330
326
100
AcDbEntity
  8
0
100
AcDbBlockBegin
  2
*D7
 70
     1
 10
0.0
 20
0.0
 30
0.0
  3
*D7
  1

  0
LINE
  5
342
330
326
100
AcDbEntity
  8
0
  6
ByBlock
 62
     0
440
 16777216
100
AcDbLine
 10
7.521896
 20
7.246196
 30
0.0
 11
7.521896
 21
8.134275999999999
 31
0.0
  0
LINE
  5
343
330
326
100
AcDbEntity
  8
0
  6
ByBlock
 62
     0
440
 16777216
100
AcDbLine
 10
10.396896
 20
7.395794
 30
0.0
 11
10.396896
 21
8.134275999999999
 31
0.0
  0
LINE
  5
344
330
326
100
AcDbEntity
  8
0
  6
ByBlock
 62
     0
440
 16777216
100
AcDbLine
 10
7.671896
 20
7.954275999999999
 30
0.0
 11
8.569396000000001
 21
7.954275999999999
 31
0.0
  0
LINE
  5
345
330
326
100
AcDbEntity
  8
0
  6
ByBlock
 62
     0
440
 16777216
100
AcDbLine
 10
10.246896
 20
7.954275999999999
 30
0.0
 11
9.349396
 21
7.954275999999999
 31
0.0
  0
SOLID
  5
346
330
326
100
AcDbEntity
  8
0
  6
ByBlock
 62
     0
440
 16777216
100
AcDbTrace
 10
7.671896
 20
7.979275999999999
 30
0.0
 11
7.671896
 21
7.929275999999999
 31
0.0
 12
7.521896
 22
7.954275999999999
 32
0.0
 13
7.521896
 23
7.954275999999999
 33
0.0
  0
SOLID
  5
347
330
326
100
AcDbEntity
  8
0
  6
ByBlock
 62
     0
440
 16777216
100
AcDbTrace
 10
10.246896
 20
7.979275999999999
 30
0.0
 11
10.246896
 21
7.929275999999999
 31
0.0
 12
10.396896
 22
7.954275999999999
 32
0.0
 13
10.396896
 23
7.954275999999999
 33
0.0
  0
MTEXT
  5
348
330
326
100
AcDbEntity
  8
0
  6
ByBlock
 62
     0
440
 16777216
100
AcDbMText
 10
8.959395999999999
 20
7.954275999999999
 30
0.0
 40
0.15
 41
0.0
 46
0.0
 71
     5
 72
     1
  1
\A1;2.875\PTYP.
 73
     1
 44
1.0
  0
POINT
  5
349
330
326
100
AcDbEntity
  8
DEFPOINTS
  6
ByBlock
 62
     0
440
 16777216
100
AcDbPoint
 10
7.521896
 20
7.183696
 30
0.0
  0
POINT
  5
34A
330
326
100
AcDbEntity
  8
DEFPOINTS
  6
ByBlock
 62
     0
440
 16777216
100
AcDbPoint
 10
10.396896
 20
7.333294
 30
0.0
  0
POINT
  5
34B
330
326
100
AcDbEntity
  8
DEFPOINTS
  6
ByBlock
 62
     0
440
 16777216
100
AcDbPoint
 10
10.396896
 20
7.954275999999999
 30
0.0
  0
ENDBLK
  5
34C
330
326
100
AcDbEntity
  8
0
100
AcDbBlockEnd
  0
BLOCK
  5
34D
330
334
100
AcDbEntity
  8
0
100
AcDbBlockBegin
  2
*D8
 70
     1
 10
0.0
 20
0.0
 30
0.0
  3
*D8
  1

  0
LINE
  5
34E
330
334
100
AcDbEntity
  8
0
  6
ByBlock
 62
     0
440
 16777216
100
AcDbLine
 10
11.771896
 20
6.979133
 30
0.0
 11
11.771896
 21
8.134275999999999
 31
0.0
  0
LINE
  5
34F
330
334
100
AcDbEntity
  8
0
  6
ByBlock
 62
     0
440
 16777216
100
AcDbLine
 10
10.246896
 20
7.954275999999999
 30
0.0
 11
10.096896
 21
7.954275999999999
 31
0.0
  0
LINE
  5
350
330
334
100
AcDbEntity
  8
0
  6
ByBlock
 62
     0
440
 16777216
100
AcDbLine
 10
11.921896
 20
7.954275999999999
 30
0.0
 11
12.071896
 21
7.954275999999999
 31
0.0
  0
SOLID
  5
351
330
334
100
AcDbEntity
  8
0
  6
ByBlock
 62
     0
440
 16777216
100
AcDbTrace
 10
10.246896
 20
7.979275999999999
 30
0.0
 11
10.246896
 21
7.929275999999999
 31
0.0
 12
10.396896
 22
7.954275999999999
 32
0.0
 13
10.396896
 23
7.954275999999999
 33
0.0
  0
SOLID
  5
352
330
334
100
AcDbEntity
  8
0
  6
ByBlock
 62
     0
440
 16777216
100
AcDbTrace
 10
11.921896
 20
7.979275999999999
 30
0.0
 11
11.921896
 21
7.929275999999999
 31
0.0
 12
11.771896
 22
7.954275999999999
 32
0.0
 13
11.771896
 23
7.954275999999999
 33
0.0
  0
MTEXT
  5
353
330
334
100
AcDbEntity
  8
0
  6
ByBlock
 62
     0
440
 16777216
100
AcDbMText
 10
11.084396
 20
7.954275999999999
 30
0.0
 40
0.15
 41
0.0
 46
0.0
 71
     5
 72
     1
  1
\A1;1.375TYP.
 73
     1
 44
1.0
  0
POINT
  5
354
330
334
100
AcDbEntity
  8
DEFPOINTS
  6
ByBlock
 62
     0
440
 16777216
100
AcDbPoint
 10
10.396896
 20
7.333294
 30
0.0
  0
POINT
  5
355
330
334
100
AcDbEntity
  8
DEFPOINTS
  6
ByBlock
 62
     0
440
 16777216
100
AcDbPoint
 10
11.771896
 20
6.916633
 30
0.0
  0
POINT
  5
356
330
334
100
AcDbEntity
  8
DEFPOINTS
  6
ByBlock
 62
     0
440
 16777216
100
AcDbPoint
 10
11.771896
 20
7.954275999999999
 30
0.0
  0
ENDBLK
  5
357
330
334
100
AcDbEntity
  8
0
100
AcDbBlockEnd
  0
BLOCK
  5
359
330
358
100
AcDbEntity
  8
0
100
AcDbBlockBegin
  2
*D9
 70
     1
 10
0.0
 20
0.0
 30
0.0
  3
*D9
  1

  0
LINE
  5
35A
330
358
100
AcDbEntity
  8
0
  6
ByBlock
 62
     0
440
 16777216
100
AcDbLine
 10
5.771895999999999
 20
5.716196
 30
0.0
 11
5.771895999999999
 21
8.946764999999999
 31
0.0
  0
LINE
  5
35B
330
358
100
AcDbEntity
  8
0
  6
ByBlock
 62
     0
440
 16777216
100
AcDbLine
 10
15.021896
 20
5.716196
 30
0.0
 11
15.021896
 21
8.946764999999999
 31
0.0
  0
LINE
  5
35C
330
358
100
AcDbEntity
  8
0
  6
ByBlock
 62
     0
440
 16777216
100
AcDbLine
 10
5.921896
 20
8.766764999999999
 30
0.0
 11
10.019396
 21
8.766764999999999
 31
0.0
  0
LINE
  5
35D
330
358
100
AcDbEntity
  8
0
  6
ByBlock
 62
     0
440
 16777216
100
AcDbLine
 10
14.871896
 20
8.766764999999999
 30
0.0
 11
10.774396
 21
8.766764999999999
 31
0.0
  0
SOLID
  5
35E
330
358
100
AcDbEntity
  8
0
  6
ByBlock
 62
     0
440
 16777216
100
AcDbTrace
 10
5.921896
 20
8.791764999999999
 30
0.0
 11
5.921896
 21
8.741764999999999
 31
0.0
 12
5.771895999999999
 22
8.766764999999999
 32
0.0
 13
5.771895999999999
 23
8.766764999999999
 33
0.0
  0
SOLID
  5
35F
330
358
100
AcDbEntity
  8
0
  6
ByBlock
 62
     0
440
 16777216
100
AcDbTrace
 10
14.871896
 20
8.791764999999999
 30
0.0
 11
14.871896
 21
8.741764999999999
 31
0.0
 12
15.021896
 22
8.766764999999999
 32
0.0
 13
15.021896
 23
8.766764999999999
 33
0.0
  0
MTEXT
  5
360
330
358
100
AcDbEntity
  8
0
  6
ByBlock
 62
     0
440
 16777216
100
AcDbMText
 10
10.396896
 20
8.766764999999999
 30
0.0
 40
0.15
 41
0.0
 46
0.0
 71
     5
 72
     1
  1
\A1;9.250
 73
     1
 44
1.0
  0
POINT
  5
361
330
358
100
AcDbEntity
  8
DEFPOINTS
  6
ByBlock
 62
     0
440
 16777216
100
AcDbPoint
 10
5.771895999999999
 20
5.653696
 30
0.0
  0
POINT
  5
362
330
358
100
AcDbEntity
  8
DEFPOINTS
  6
ByBlock
 62
     0
440
 16777216
100
AcDbPoint
 10
15.021896
 20
5.653696
 30
0.0
  0
POINT
  5
363
330
358
100
AcDbEntity
  8
DEFPOINTS
  6
ByBlock
 62
     0
440
 16777216
100
AcDbPoint
 10
15.021896
 20
8.766764999999999
 30
0.0
  0
ENDBLK
  5
364
330
358
100
AcDbEntity
  8
0
100
AcDbBlockEnd
  0
BLOCK
  5
382
330
374
100
AcDbEntity
  8
0
100
AcDbBlockBegin
  2
*D10
 70
     1
 10
0.0
 20
0.0
 30
0.0
  3
*D10
  1

  0
LINE
  5
383
330
374
100
AcDbEntity
  8
0
  6
ByBlock
 62
     0
440
 16777216
100
AcDbLine
 10
5.579329
 20
5.308696
 30
0.0
 11
4.809464
 21
5.308696
 31
0.0
  0
LINE
  5
384
330
374
100
AcDbEntity
  8
0
  6
ByBlock
 62
     0
440
 16777216
100
AcDbLine
 10
7.239075999999999
 20
6.683696
 30
0.0
 11
4.809464
 21
6.683696
 31
0.0
  0
LINE
  5
385
330
374
100
AcDbEntity
  8
0
  6
ByBlock
 62
     0
440
 16777216
100
AcDbLine
 10
4.989463999999999
 20
5.458695999999999
 30
0.0
 11
4.989463999999999
 21
5.706196
 31
0.0
  0
LINE
  5
386
330
374
100
AcDbEntity
  8
0
  6
ByBlock
 62
     0
440
 16777216
100
AcDbLine
 10
4.989463999999999
 20
6.533695999999999
 30
0.0
 11
4.989463999999999
 21
6.286196
 31
0.0
  0
SOLID
  5
387
330
374
100
AcDbEntity
  8
0
  6
ByBlock
 62
     0
440
 16777216
100
AcDbTrace
 10
4.964463999999999
 20
5.458695999999999
 30
0.0
 11
5.014464
 21
5.458695999999999
 31
0.0
 12
4.989463999999999
 22
5.308696
 32
0.0
 13
4.989463999999999
 23
5.308696
 33
0.0
  0
SOLID
  5
388
330
374
100
AcDbEntity
  8
0
  6
ByBlock
 62
     0
440
 16777216
100
AcDbTrace
 10
4.964463999999999
 20
6.533695999999999
 30
0.0
 11
5.014464
 21
6.533695999999999
 31
0.0
 12
4.989463999999999
 22
6.683696
 32
0.0
 13
4.989463999999999
 23
6.683696
 33
0.0
  0
MTEXT
  5
389
330
374
100
AcDbEntity
  8
0
  6
ByBlock
 62
     0
440
 16777216
100
AcDbMText
 10
4.989463999999999
 20
5.996196
 30
0.0
 40
0.15
 41
0.0
 46
0.0
 71
     5
 72
     1
  1
\A1;1.375\PTYP.
 73
     1
 44
1.0
  0
POINT
  5
38A
330
374
100
AcDbEntity
  8
DEFPOINTS
  6
ByBlock
 62
     0
440
 16777216
100
AcDbPoint
 10
5.641829
 20
5.308696
 30
0.0
  0
POINT
  5
38B
330
374
100
AcDbEntity
  8
DEFPOINTS
  6
ByBlock
 62
     0
440
 16777216
100
AcDbPoint
 10
7.301575999999999
 20
6.683696
 30
0.0
  0
POINT
  5
38C
330
374
100
AcDbEntity
  8
DEFPOINTS
  6
ByBlock
 62
     0
440
 16777216
100
AcDbPoint
 10
4.989463999999999
 20
6.683696
 30
0.0
  0
ENDBLK
  5
38D
330
374
100
AcDbEntity
  8
0
100
AcDbBlockEnd
  0
BLOCK
  5
3AA
330
38E
100
AcDbEntity
  8
0
100
AcDbBlockBegin
  2
*D11
 70
     1
 10
0.0
 20
0.0
 30
0.0
  3
*D11
  1

  0
LINE
  5
3AB
330
38E
100
AcDbEntity
  8
0
  6
ByBlock
 62
     0
440
 16777216
100
AcDbLine
 10
12.209396
 20
1.433695999999999
 30
0.0
 11
13.071573
 21
1.433695999999999
 31
0.0
  0
LINE
  5
3AC
330
38E
100
AcDbEntity
  8
0
  6
ByBlock
 62
     0
440
 16777216
100
AcDbLine
 10
12.334396
 20
0.9336959999999997
 30
0.0
 11
13.071573
 21
0.9336959999999997
 31
0.0
  0
LINE
  5
3AD
330
38E
100
AcDbEntity
  8
0
  6
ByBlock
 62
     0
440
 16777216
100
AcDbLine
 10
12.891573
 20
1.283695999999999
 30
0.0
 11
12.891573
 21
1.083695999999999
 31
0.0
  0
LINE
  5
3AE
330
38E
100
AcDbEntity
  8
0
  6
ByBlock
 62
     0
440
 16777216
100
AcDbLine
 10
12.891573
 20
0.9336959999999997
 30
0.0
 11
12.891573
 21
0.2518829999999999
 31
0.0
  0
LINE
  5
3AF
330
38E
100
AcDbEntity
  8
0
  6
ByBlock
 62
     0
440
 16777216
100
AcDbLine
 10
12.891573
 20
0.2518829999999999
 30
0.0
 11
12.741573
 21
0.2518829999999999
 31
0.0
  0
SOLID
  5
3B0
330
38E
100
AcDbEntity
  8
0
  6
ByBlock
 62
     0
440
 16777216
100
AcDbTrace
 10
12.866573
 20
1.283695999999999
 30
0.0
 11
12.916573
 21
1.283695999999999
 31
0.0
 12
12.891573
 22
1.433695999999999
 32
0.0
 13
12.891573
 23
1.433695999999999
 33
0.0
  0
SOLID
  5
3B1
330
38E
100
AcDbEntity
  8
0
  6
ByBlock
 62
     0
440
 16777216
100
AcDbTrace
 10
12.866573
 20
1.083695999999999
 30
0.0
 11
12.916573
 21
1.083695999999999
 31
0.0
 12
12.891573
 22
0.9336959999999997
 32
0.0
 13
12.891573
 23
0.9336959999999997
 33
0.0
  0
MTEXT
  5
3B2
330
38E
100
AcDbEntity
  8
0
  6
ByBlock
 62
     0
440
 16777216
100
AcDbMText
 10
12.426573
 20
0.2518829999999999
 30
0.0
 40
0.15
 41
0.0
 46
0.0
 71
     5
 72
     1
  1
\A1;.50\PTYP.
 73
     1
 44
1.0
  0
POINT
  5
3B3
330
38E
100
AcDbEntity
  8
DEFPOINTS
  6
ByBlock
 62
     0
440
 16777216
100
AcDbPoint
 10
12.146896
 20
1.433695999999999
 30
0.0
  0
POINT
  5
3B4
330
38E
100
AcDbEntity
  8
DEFPOINTS
  6
ByBlock
 62
     0
440
 16777216
100
AcDbPoint
 10
12.271896
 20
0.9336959999999997
 30
0.0
  0
POINT
  5
3B5
330
38E
100
AcDbEntity
  8
DEFPOINTS
  6
ByBlock
 62
     0
440
 16777216
100
AcDbPoint
 10
12.891573
 20
0.9336959999999997
 30
0.0
  0
ENDBLK
  5
3B6
330
38E
100
AcDbEntity
  8
0
100
AcDbBlockEnd
  0
BLOCK
  5
3C5
330
3B7
100
AcDbEntity
  8
0
100
AcDbBlockBegin
  2
*D12
 70
     1
 10
0.0
 20
0.0
 30
0.0
  3
*D12
  1

  0
LINE
  5
3C6
330
3B7
100
AcDbEntity
  8
0
  6
ByBlock
 62
     0
440
 16777216
100
AcDbLine
 10
9.989396000000001
 20
-0.816304
 30
0.0
 11
7.966817999999999
 21
-0.816304
 31
0.0
  0
LINE
  5
3C7
330
3B7
100
AcDbEntity
  8
0
  6
ByBlock
 62
     0
440
 16777216
100
AcDbLine
 10
8.459395999999999
 20
0.9336959999999997
 30
0.0
 11
7.966817999999999
 21
0.9336959999999997
 31
0.0
  0
LINE
  5
3C8
330
3B7
100
AcDbEntity
  8
0
  6
ByBlock
 62
     0
440
 16777216
100
AcDbLine
 10
8.146817999999999
 20
-0.6663040000000001
 30
0.0
 11
8.146817999999999
 21
-0.231304
 31
0.0
  0
LINE
  5
3C9
330
3B7
100
AcDbEntity
  8
0
  6
ByBlock
 62
     0
440
 16777216
100
AcDbLine
 10
8.146817999999999
 20
0.783696
 30
0.0
 11
8.146817999999999
 21
0.348696
 31
0.0
  0
SOLID
  5
3CA
330
3B7
100
AcDbEntity
  8
0
  6
ByBlock
 62
     0
440
 16777216
100
AcDbTrace
 10
8.121817999999999
 20
-0.6663040000000001
 30
0.0
 11
8.171818
 21
-0.6663040000000001
 31
0.0
 12
8.146817999999999
 22
-0.816304
 32
0.0
 13
8.146817999999999
 23
-0.816304
 33
0.0
  0
SOLID
  5
3CB
330
3B7
100
AcDbEntity
  8
0
  6
ByBlock
 62
     0
440
 16777216
100
AcDbTrace
 10
8.121817999999999
 20
0.783696
 30
0.0
 11
8.171818
 21
0.783696
 31
0.0
 12
8.146817999999999
 22
0.9336959999999997
 32
0.0
 13
8.146817999999999
 23
0.9336959999999997
 33
0.0
  0
MTEXT
  5
3CC
330
3B7
100
AcDbEntity
  8
0
  6
ByBlock
 62
     0
440
 16777216
100
AcDbMText
 10
8.146817999999999
 20
0.058696
 30
0.0
 40
0.15
 41
0.0
 46
0.0
 71
     5
 72
     1
  1
\A1;1.750\PTYP.
 73
     1
 44
1.0
  0
POINT
  5
3CD
330
3B7
100
AcDbEntity
  8
DEFPOINTS
  6
ByBlock
 62
     0
440
 16777216
100
AcDbPoint
 10
10.051896
 20
-0.816304
 30
0.0
  0
POINT
  5
3CE
330
3B7
100
AcDbEntity
  8
DEFPOINTS
  6
ByBlock
 62
     0
440
 16777216
100
AcDbPoint
 10
8.521895999999999
 20
0.9336959999999997
 30
0.0
  0
POINT
  5
3CF
330
3B7
100
AcDbEntity
  8
DEFPOINTS
  6
ByBlock
 62
     0
440
 16777216
100
AcDbPoint
 10
8.146817999999999
 20
0.9336959999999997
 30
0.0
  0
ENDBLK
  5
3D0
330
3B7
100
AcDbEntity
  8
0
100
AcDbBlockEnd
  0
BLOCK
  5
3EF
330
3D1
100
AcDbEntity
  8
0
100
AcDbBlockBegin
  2
*D13
 70
     1
 10
0.0
 20
0.0
 30
0.0
  3
*D13
  1

  0
LINE
  5
3F0
330
3D1
100
AcDbEntity
  8
0
  6
ByBlock
 62
     0
440
 16777216
100
AcDbLine
 10
3.225213999999999
 20
5.308696
 30
0.0
 11
3.607062
 21
5.308696
 31
0.0
  0
LINE
  5
3F1
330
3D1
100
AcDbEntity
  8
0
  6
ByBlock
 62
     0
440
 16777216
100
AcDbLine
 10
3.225213999999999
 20
6.683696
 30
0.0
 11
3.607062
 21
6.683696
 31
0.0
  0
LINE
  5
3F2
330
3D1
100
AcDbEntity
  8
0
  6
ByBlock
 62
     0
440
 16777216
100
AcDbLine
 10
3.427062
 20
5.458695999999999
 30
0.0
 11
3.427062
 21
5.706196
 31
0.0
  0
LINE
  5
3F3
330
3D1
100
AcDbEntity
  8
0
  6
ByBlock
 62
     0
440
 16777216
100
AcDbLine
 10
3.427062
 20
6.533695999999999
 30
0.0
 11
3.427062
 21
6.286196
 31
0.0
  0
SOLID
  5
3F4
330
3D1
100
AcDbEntity
  8
0
  6
ByBlock
 62
     0
440
 16777216
100
AcDbTrace
 10
3.402062
 20
5.458695999999999
 30
0.0
 11
3.452062
 21
5.458695999999999
 31
0.0
 12
3.427062
 22
5.308696
 32
0.0
 13
3.427062
 23
5.308696
 33
0.0
  0
SOLID
  5
3F5
330
3D1
100
AcDbEntity
  8
0
  6
ByBlock
 62
     0
440
 16777216
100
AcDbTrace
 10
3.402062
 20
6.533695999999999
 30
0.0
 11
3.452062
 21
6.533695999999999
 31
0.0
 12
3.427062
 22
6.683696
 32
0.0
 13
3.427062
 23
6.683696
 33
0.0
  0
MTEXT
  5
3F6
330
3D1
100
AcDbEntity
  8
0
  6
ByBlock
 62
     0
440
 16777216
100
AcDbMText
 10
3.427062
 20
5.996196
 30
0.0
 40
0.15
 41
0.0
 46
0.0
 71
     5
 72
     1
  1
\A1;1.375\PTYP.
 73
     1
 44
1.0
  0
POINT
  5
3F7
330
3D1
100
AcDbEntity
  8
DEFPOINTS
  6
ByBlock
 62
     0
440
 16777216
100
AcDbPoint
 10
3.162713999999999
 20
5.308696
 30
0.0
  0
POINT
  5
3F8
330
3D1
100
AcDbEntity
  8
DEFPOINTS
  6
ByBlock
 62
     0
440
 16777216
100
AcDbPoint
 10
3.162713999999999
 20
6.683696
 30
0.0
  0
POINT
  5
3F9
330
3D1
100
AcDbEntity
  8
DEFPOINTS
  6
ByBlock
 62
     0
440
 16777216
100
AcDbPoint
 10
3.427062
 20
6.683696
 30
0.0
  0
ENDBLK
  5
3FA
330
3D1
100
AcDbEntity
  8
0
100
AcDbBlockEnd
  0
BLOCK
  5
409
330
3FB
100
AcDbEntity
  8
0
100
AcDbBlockBegin
  2
*D14
 70
     1
 10
0.0
 20
0.0
 30
0.0
  3
*D14
  1

  0
LINE
  5
40A
330
3FB
100
AcDbEntity
  8
0
  6
ByBlock
 62
     0
440
 16777216
100
AcDbLine
 10
2.36459
 20
7.626885999999999
 30
0.0
 11
2.36459
 21
8.166775999999998
 31
0.0
  0
LINE
  5
40B
330
3FB
100
AcDbEntity
  8
0
  6
ByBlock
 62
     0
440
 16777216
100
AcDbLine
 10
1.552589999999999
 20
7.705728999999998
 30
0.0
 11
1.552589999999999
 21
8.166775999999998
 31
0.0
  0
LINE
  5
40C
330
3FB
100
AcDbEntity
  8
0
  6
ByBlock
 62
     0
440
 16777216
100
AcDbLine
 10
2.51459
 20
7.986775999999999
 30
0.0
 11
2.66459
 21
7.986775999999999
 31
0.0
  0
LINE
  5
40D
330
3FB
100
AcDbEntity
  8
0
  6
ByBlock
 62
     0
440
 16777216
100
AcDbLine
 10
1.40259
 20
7.986775999999999
 30
0.0
 11
1.252589999999999
 21
7.986775999999999
 31
0.0
  0
SOLID
  5
40E
330
3FB
100
AcDbEntity
  8
0
  6
ByBlock
 62
     0
440
 16777216
100
AcDbTrace
 10
2.51459
 20
8.011775999999999
 30
0.0
 11
2.51459
 21
7.961775999999999
 31
0.0
 12
2.36459
 22
7.986775999999999
 32
0.0
 13
2.36459
 23
7.986775999999999
 33
0.0
  0
SOLID
  5
40F
330
3FB
100
AcDbEntity
  8
0
  6
ByBlock
 62
     0
440
 16777216
100
AcDbTrace
 10
1.40259
 20
8.011775999999999
 30
0.0
 11
1.40259
 21
7.961775999999999
 31
0.0
 12
1.552589999999999
 22
7.986775999999999
 32
0.0
 13
1.552589999999999
 23
7.986775999999999
 33
0.0
  0
MTEXT
  5
410
330
3FB
100
AcDbEntity
  8
0
  6
ByBlock
 62
     0
440
 16777216
100
AcDbMText
 10
1.95859
 20
7.986775999999999
 30
0.0
 40
0.15
 41
0.0
 46
0.0
 71
     5
 72
     1
  1
\A1;.812\PTYP.
 73
     1
 44
1.0
  0
POINT
  5
411
330
3FB
100
AcDbEntity
  8
DEFPOINTS
  6
ByBlock
 62
     0
440
 16777216
100
AcDbPoint
 10
2.36459
 20
7.564385999999999
 30
0.0
  0
POINT
  5
412
330
3FB
100
AcDbEntity
  8
DEFPOINTS
  6
ByBlock
 62
     0
440
 16777216
100
AcDbPoint
 10
1.552589999999999
 20
7.643228999999998
 30
0.0
  0
POINT
  5
413
330
3FB
100
AcDbEntity
  8
DEFPOINTS
  6
ByBlock
 62
     0
440
 16777216
100
AcDbPoint
 10
1.552589999999999
 20
7.986775999999999
 30
0.0
  0
ENDBLK
  5
414
330
3FB
100
AcDbEntity
  8
0
100
AcDbBlockEnd
  0
BLOCK
  5
424
330
423
100
AcDbEntity
  8
0
100
AcDbBlockBegin
  2
*D15
 70
     1
 10
0.0
 20
0.0
 30
0.0
  3
*D15
  1

  0
LINE
  5
425
330
423
100
AcDbEntity
  8
0
  6
ByBlock
 62
     0
440
 16777216
100
AcDbLine
 10
0.22859
 20
0.9336959999999997
 30
0.0
 11
-0.6589420000000001
 21
0.9336959999999997
 31
0.0
  0
LINE
  5
426
330
423
100
AcDbEntity
  8
0
  6
ByBlock
 62
     0
440
 16777216
100
AcDbLine
 10
-0.189939
 20
5.308696
 30
0.0
 11
-0.6589420000000001
 21
5.308696
 31
0.0
  0
LINE
  5
427
330
423
100
AcDbEntity
  8
0
  6
ByBlock
 62
     0
440
 16777216
100
AcDbLine
 10
-0.4789420000000001
 20
1.083695999999999
 30
0.0
 11
-0.4789420000000001
 21
2.956195999999999
 31
0.0
  0
LINE
  5
428
330
423
100
AcDbEntity
  8
0
  6
ByBlock
 62
     0
440
 16777216
100
AcDbLine
 10
-0.4789420000000001
 20
5.158695999999999
 30
0.0
 11
-0.4789420000000001
 21
3.286195999999999
 31
0.0
  0
SOLID
  5
429
330
423
100
AcDbEntity
  8
0
  6
ByBlock
 62
     0
440
 16777216
100
AcDbTrace
 10
-0.503942
 20
1.083695999999999
 30
0.0
 11
-0.453942
 21
1.083695999999999
 31
0.0
 12
-0.4789420000000001
 22
0.9336959999999997
 32
0.0
 13
-0.4789420000000001
 23
0.9336959999999997
 33
0.0
  0
SOLID
  5
42A
330
423
100
AcDbEntity
  8
0
  6
ByBlock
 62
     0
440
 16777216
100
AcDbTrace
 10
-0.503942
 20
5.158695999999999
 30
0.0
 11
-0.453942
 21
5.158695999999999
 31
0.0
 12
-0.4789420000000001
 22
5.308696
 32
0.0
 13
-0.4789420000000001
 23
5.308696
 33
0.0
  0
MTEXT
  5
42B
330
423
100
AcDbEntity
  8
0
  6
ByBlock
 62
     0
440
 16777216
100
AcDbMText
 10
-0.4789420000000001
 20
3.121195999999999
 30
0.0
 40
0.15
 41
0.0
 46
0.0
 71
     5
 72
     1
  1
\A1;4.375
 73
     1
 44
1.0
  0
POINT
  5
42C
330
423
100
AcDbEntity
  8
DEFPOINTS
  6
ByBlock
 62
     0
440
 16777216
100
AcDbPoint
 10
0.29109
 20
0.9336959999999997
 30
0.0
  0
POINT
  5
42D
330
423
100
AcDbEntity
  8
DEFPOINTS
  6
ByBlock
 62
     0
440
 16777216
100
AcDbPoint
 10
-0.127439
 20
5.308696
 30
0.0
  0
POINT
  5
42E
330
423
100
AcDbEntity
  8
DEFPOINTS
  6
ByBlock
 62
     0
440
 16777216
100
AcDbPoint
 10
-0.4789420000000001
 20
5.308696
 30
0.0
  0
ENDBLK
  5
42F
330
423
100
AcDbEntity
  8
0
100
AcDbBlockEnd
  0
BLOCK
  5
432
330
431
100
AcDbEntity
  8
0
100
AcDbBlockBegin
  2
*D16
 70
     1
 10
0.0
 20
0.0
 30
0.0
  3
*D16
  1

  0
LINE
  5
60C
330
431
100
AcDbEntity
  8
DIMS_TEXT
 62
     0
440
 16777216
370
    -2
100
AcDbLine
 10
1.145089999999999
 20
-0.816304
 30
0.0
 11
-1.505243000000002
 21
-0.8163039999999993
 31
0.0
  0
LINE
  5
60D
330
431
100
AcDbEntity
  8
DIMS_TEXT
 62
     0
440
 16777216
370
    -2
100
AcDbLine
 10
0.41559
 20
7.183696
 30
0.0
 11
-1.505242999999999
 21
7.183696
 31
0.0
  0
LINE
  5
60E
330
431
100
AcDbEntity
  8
DIMS_TEXT
 62
     0
440
 16777216
370
    -2
100
AcDbLine
 10
-1.325243000000001
 20
-0.6663039999999994
 30
0.0
 11
-1.325243
 21
3.018696
 31
0.0
  0
LINE
  5
60F
330
431
100
AcDbEntity
  8
DIMS_TEXT
 62
     0
440
 16777216
370
    -2
100
AcDbLine
 10
-1.325242999999999
 20
7.033695999999999
 30
0.0
 11
-1.325243
 21
3.348696
 31
0.0
  0
SOLID
  5
610
330
431
100
AcDbEntity
  8
DIMS_TEXT
 62
     0
440
 16777216
100
AcDbTrace
 10
-1.350243000000001
 20
-0.6663039999999994
 30
0.0
 11
-1.300243000000001
 21
-0.6663039999999994
 31
0.0
 12
-1.325243000000001
 22
-0.8163039999999993
 32
0.0
 13
-1.325243000000001
 23
-0.8163039999999993
 33
0.0
  0
SOLID
  5
611
330
431
100
AcDbEntity
  8
DIMS_TEXT
 62
     0
440
 16777216
100
AcDbTrace
 10
-1.350242999999999
 20
7.033695999999999
 30
0.0
 11
-1.300243
 21
7.033695999999999
 31
0.0
 12
-1.325242999999999
 22
7.183696
 32
0.0
 13
-1.325242999999999
 23
7.183696
 33
0.0
  0
MTEXT
  5
612
330
431
100
AcDbEntity
  8
DIMS_TEXT
 62
     0
440
 16777216
100
AcDbMText
 10
-1.325243000000001
 20
3.183696
 30
0.0
 40
0.15
 41
0.0
 46
0.0
 71
     5
 72
     1
  1
\A1;7.937
 73
     1
 44
1.0
  0
POINT
  5
613
330
431
100
AcDbEntity
  8
DEFPOINTS
 62
     0
440
 16777216
100
AcDbPoint
 10
1.207589999999999
 20
-0.816304
 30
0.0
  0
POINT
  5
614
330
431
100
AcDbEntity
  8
DEFPOINTS
 62
     0
440
 16777216
100
AcDbPoint
 10
0.47809
 20
7.183696
 30
0.0
  0
POINT
  5
615
330
431
100
AcDbEntity
  8
DEFPOINTS
 62
     0
440
 16777216
100
AcDbPoint
 10
-1.325242999999999
 20
7.183696
 30
0.0
  0
ENDBLK
  5
43D
330
431
100
AcDbEntity
  8
0
100
AcDbBlockEnd
  0
BLOCK
  5
459
330
43F
100
AcDbEntity
  8
0
100
AcDbBlockBegin
  2
*D17
 70
     1
 10
0.0
 20
0.0
 30
0.0
  3
*D17
  1

  0
LINE
  5
45A
330
43F
100
AcDbEntity
  8
0
  6
ByBlock
 62
     0
440
 16777216
100
AcDbLine
 10
1.92759
 20
-0.8488040000000001
 30
0.0
 11
1.92759
 21
-1.636745
 31
0.0
  0
LINE
  5
45B
330
43F
100
AcDbEntity
  8
0
  6
ByBlock
 62
     0
440
 16777216
100
AcDbLine
 10
1.177589999999999
 20
-0.8488040000000001
 30
0.0
 11
1.177589999999999
 21
-1.636745
 31
0.0
  0
LINE
  5
45C
330
43F
100
AcDbEntity
  8
0
  6
ByBlock
 62
     0
440
 16777216
100
AcDbLine
 10
1.77759
 20
-1.456745
 30
0.0
 11
1.32759
 21
-1.456745
 31
0.0
  0
LINE
  5
45D
330
43F
100
AcDbEntity
  8
0
  6
ByBlock
 62
     0
440
 16777216
100
AcDbLine
 10
1.177589999999999
 20
-1.456745
 30
0.0
 11
0.9528959999999999
 21
-1.456745
 31
0.0
  0
SOLID
  5
45E
330
43F
100
AcDbEntity
  8
0
  6
ByBlock
 62
     0
440
 16777216
100
AcDbTrace
 10
1.77759
 20
-1.431745
 30
0.0
 11
1.77759
 21
-1.481745
 31
0.0
 12
1.92759
 22
-1.456745
 32
0.0
 13
1.92759
 23
-1.456745
 33
0.0
  0
SOLID
  5
45F
330
43F
100
AcDbEntity
  8
0
  6
ByBlock
 62
     0
440
 16777216
100
AcDbTrace
 10
1.32759
 20
-1.431745
 30
0.0
 11
1.32759
 21
-1.481745
 31
0.0
 12
1.177589999999999
 22
-1.456745
 32
0.0
 13
1.177589999999999
 23
-1.456745
 33
0.0
  0
MTEXT
  5
460
330
43F
100
AcDbEntity
  8
0
  6
ByBlock
 62
     0
440
 16777216
100
AcDbMText
 10
0.5753960000000001
 20
-1.456745
 30
0.0
 40
0.15
 41
0.0
 46
0.0
 71
     5
 72
     1
  1
\A1;∅.750\PTYP.
 73
     1
 44
1.0
  0
POINT
  5
461
330
43F
100
AcDbEntity
  8
DEFPOINTS
  6
ByBlock
 62
     0
440
 16777216
100
AcDbPoint
 10
1.92759
 20
-0.786304
 30
0.0
  0
POINT
  5
462
330
43F
100
AcDbEntity
  8
DEFPOINTS
  6
ByBlock
 62
     0
440
 16777216
100
AcDbPoint
 10
1.177589999999999
 20
-0.786304
 30
0.0
  0
POINT
  5
463
330
43F
100
AcDbEntity
  8
DEFPOINTS
  6
ByBlock
 62
     0
440
 16777216
100
AcDbPoint
 10
1.177589999999999
 20
-1.456745
 30
0.0
  0
ENDBLK
  5
464
330
43F
100
AcDbEntity
  8
0
100
AcDbBlockEnd
  0
BLOCK
  5
473
330
465
100
AcDbEntity
  8
0
100
AcDbBlockBegin
  2
*D18
 70
     1
 10
0.0
 20
0.0
 30
0.0
  3
*D18
  1

  0
LINE
  5
474
330
465
100
AcDbEntity
  8
0
  6
ByBlock
 62
     0
440
 16777216
100
AcDbLine
 10
10.303896
 20
-0.8788040000000002
 30
0.0
 11
10.303896
 21
-1.447679
 31
0.0
  0
LINE
  5
475
330
465
100
AcDbEntity
  8
0
  6
ByBlock
 62
     0
440
 16777216
100
AcDbLine
 10
10.489896
 20
-0.8788040000000002
 30
0.0
 11
10.489896
 21
-1.447679
 31
0.0
  0
LINE
  5
476
330
465
100
AcDbEntity
  8
0
  6
ByBlock
 62
     0
440
 16777216
100
AcDbLine
 10
10.153896
 20
-1.267679
 30
0.0
 11
10.003896
 21
-1.267679
 31
0.0
  0
LINE
  5
477
330
465
100
AcDbEntity
  8
0
  6
ByBlock
 62
     0
440
 16777216
100
AcDbLine
 10
10.639896
 20
-1.267679
 30
0.0
 11
10.789896
 21
-1.267679
 31
0.0
  0
SOLID
  5
478
330
465
100
AcDbEntity
  8
0
  6
ByBlock
 62
     0
440
 16777216
100
AcDbTrace
 10
10.153896
 20
-1.242679
 30
0.0
 11
10.153896
 21
-1.292679
 31
0.0
 12
10.303896
 22
-1.267679
 32
0.0
 13
10.303896
 23
-1.267679
 33
0.0
  0
SOLID
  5
479
330
465
100
AcDbEntity
  8
0
  6
ByBlock
 62
     0
440
 16777216
100
AcDbTrace
 10
10.639896
 20
-1.242679
 30
0.0
 11
10.639896
 21
-1.292679
 31
0.0
 12
10.489896
 22
-1.267679
 32
0.0
 13
10.489896
 23
-1.267679
 33
0.0
  0
MTEXT
  5
47A
330
465
100
AcDbEntity
  8
0
  6
ByBlock
 62
     0
440
 16777216
100
AcDbMText
 10
11.542396
 20
-1.267679
 30
0.0
 40
0.15
 41
0.0
 46
0.0
 71
     5
 72
     1
  1
\A1;.187 X .093\PKEYWAY\PTYP.
 73
     1
 44
1.0
  0
POINT
  5
47B
330
465
100
AcDbEntity
  8
DEFPOINTS
  6
ByBlock
 62
     0
440
 16777216
100
AcDbPoint
 10
10.303896
 20
-0.816304
 30
0.0
  0
POINT
  5
47C
330
465
100
AcDbEntity
  8
DEFPOINTS
  6
ByBlock
 62
     0
440
 16777216
100
AcDbPoint
 10
10.489896
 20
-0.816304
 30
0.0
  0
POINT
  5
47D
330
465
100
AcDbEntity
  8
DEFPOINTS
  6
ByBlock
 62
     0
440
 16777216
100
AcDbPoint
 10
10.489896
 20
-1.267679
 30
0.0
  0
ENDBLK
  5
47E
330
465
100
AcDbEntity
  8
0
100
AcDbBlockEnd
  0
BLOCK
  5
48B
330
47F
100
AcDbEntity
  8
0
100
AcDbBlockBegin
  2
*D19
 70
     1
 10
0.0
 20
0.0
 30
0.0
  3
*D19
  1

  0
LINE
  5
48C
330
47F
100
AcDbEntity
  8
0
  6
ByBlock
 62
     0
440
 16777216
100
AcDbLine
 10
13.246702
 20
2.560814
 30
0.0
 11
13.096702
 21
2.560814
 31
0.0
  0
LINE
  5
48D
330
47F
100
AcDbEntity
  8
0
  6
ByBlock
 62
     0
440
 16777216
100
AcDbLine
 10
13.096702
 20
2.560814
 30
0.0
 11
11.989936
 21
3.707743
 31
0.0
  0
MTEXT
  5
48E
330
47F
100
AcDbEntity
  8
0
  6
ByBlock
 62
     0
440
 16777216
100
AcDbMText
 10
14.011702
 20
2.560814
 30
0.0
 40
0.15
 41
0.0
 46
0.0
 71
     5
 72
     1
  1
\A1;∅.328 THRU\PX 3
 73
     1
 44
1.0
  0
SOLID
  5
48F
330
47F
100
AcDbEntity
  8
0
  6
ByBlock
 62
     0
440
 16777216
100
AcDbTrace
 10
12.007926
 20
3.725102999999999
 30
0.0
 11
11.971947
 21
3.690383
 31
0.0
 12
11.885777
 22
3.815681999999999
 32
0.0
 13
11.885777
 23
3.815681999999999
 33
0.0
  0
LINE
  5
490
330
47F
100
AcDbEntity
  8
0
  6
ByBlock
 62
     0
440
 16777216
100
AcDbLine
 10
11.681896
 20
3.933695999999999
 30
0.0
 11
11.861896
 21
3.933695999999999
 31
0.0
  0
LINE
  5
491
330
47F
100
AcDbEntity
  8
0
  6
ByBlock
 62
     0
440
 16777216
100
AcDbLine
 10
11.771896
 20
3.843695999999999
 30
0.0
 11
11.771896
 21
4.023696
 31
0.0
  0
POINT
  5
492
330
47F
100
AcDbEntity
  8
DEFPOINTS
  6
ByBlock
 62
     0
440
 16777216
100
AcDbPoint
 10
11.885777
 20
3.815681999999999
 30
0.0
  0
POINT
  5
493
330
47F
100
AcDbEntity
  8
DEFPOINTS
  6
ByBlock
 62
     0
440
 16777216
100
AcDbPoint
 10
11.658016
 20
4.051708999999999
 30
0.0
  0
ENDBLK
  5
494
330
47F
100
AcDbEntity
  8
0
100
AcDbBlockEnd
  0
BLOCK
  5
4B4
330
4B3
100
AcDbEntity
  8
0
100
AcDbBlockBegin
  2
*D20
 70
     1
 10
0.0
 20
0.0
 30
0.0
  3
*D20
  1

  0
LINE
  5
4B5
330
4B3
100
AcDbEntity
  8
0
  6
ByBlock
 62
     0
440
 16777216
100
AcDbLine
 10
0.22909
 20
7.183196
 30
0.0
 11
0.22909
 21
8.646198
 31
0.0
  0
LINE
  5
4B6
330
4B3
100
AcDbEntity
  8
0
  6
ByBlock
 62
     0
440
 16777216
100
AcDbLine
 10
1.540589999999999
 20
7.705728999999998
 30
0.0
 11
1.540589999999999
 21
8.646198
 31
0.0
  0
LINE
  5
4B7
330
4B3
100
AcDbEntity
  8
0
  6
ByBlock
 62
     0
440
 16777216
100
AcDbLine
 10
0.37909
 20
8.466198
 30
0.0
 11
0.54484
 21
8.466198
 31
0.0
  0
LINE
  5
4B8
330
4B3
100
AcDbEntity
  8
0
  6
ByBlock
 62
     0
440
 16777216
100
AcDbLine
 10
1.390589999999999
 20
8.466198
 30
0.0
 11
1.224839999999999
 21
8.466198
 31
0.0
  0
SOLID
  5
4B9
330
4B3
100
AcDbEntity
  8
0
  6
ByBlock
 62
     0
440
 16777216
100
AcDbTrace
 10
0.37909
 20
8.491197999999998
 30
0.0
 11
0.37909
 21
8.441197999999999
 31
0.0
 12
0.22909
 22
8.466198
 32
0.0
 13
0.22909
 23
8.466198
 33
0.0
  0
SOLID
  5
4BA
330
4B3
100
AcDbEntity
  8
0
  6
ByBlock
 62
     0
440
 16777216
100
AcDbTrace
 10
1.390589999999999
 20
8.491197999999998
 30
0.0
 11
1.390589999999999
 21
8.441197999999999
 31
0.0
 12
1.540589999999999
 22
8.466198
 32
0.0
 13
1.540589999999999
 23
8.466198
 33
0.0
  0
MTEXT
  5
4BB
330
4B3
100
AcDbEntity
  8
0
  6
ByBlock
 62
     0
440
 16777216
100
AcDbMText
 10
0.8848399999999999
 20
8.466198
 30
0.0
 40
0.15
 41
0.0
 46
0.0
 71
     5
 72
     1
  1
\A1;1.312
 73
     1
 44
1.0
  0
POINT
  5
4BC
330
4B3
100
AcDbEntity
  8
DEFPOINTS
  6
ByBlock
 62
     0
440
 16777216
100
AcDbPoint
 10
0.22909
 20
7.120696
 30
0.0
  0
POINT
  5
4BD
330
4B3
100
AcDbEntity
  8
DEFPOINTS
  6
ByBlock
 62
     0
440
 16777216
100
AcDbPoint
 10
1.540589999999999
 20
7.643228999999998
 30
0.0
  0
POINT
  5
4BE
330
4B3
100
AcDbEntity
  8
DEFPOINTS
  6
ByBlock
 62
     0
440
 16777216
100
AcDbPoint
 10
1.540589999999999
 20
8.466198
 30
0.0
  0
ENDBLK
  5
4BF
330
4B3
100
AcDbEntity
  8
0
100
AcDbBlockEnd
  0
BLOCK
  5
4C2
330
4C1
100
AcDbEntity
  8
0
100
AcDbBlockBegin
  2
*D21
 70
     1
 10
0.0
 20
0.0
 30
0.0
  3
*D21
  1

  0
LINE
  5
4C3
330
4C1
100
AcDbEntity
  8
0
  6
ByBlock
 62
     0
440
 16777216
100
AcDbLine
 10
0.22909
 20
7.183196
 30
0.0
 11
0.22909
 21
9.265260000000001
 31
0.0
  0
LINE
  5
4C4
330
4C1
100
AcDbEntity
  8
0
  6
ByBlock
 62
     0
440
 16777216
100
AcDbLine
 10
2.85409
 20
7.183196
 30
0.0
 11
2.85409
 21
9.265260000000001
 31
0.0
  0
LINE
  5
4C5
330
4C1
100
AcDbEntity
  8
0
  6
ByBlock
 62
     0
440
 16777216
100
AcDbLine
 10
0.37909
 20
9.085259999999999
 30
0.0
 11
1.151589999999999
 21
9.085259999999999
 31
0.0
  0
LINE
  5
4C6
330
4C1
100
AcDbEntity
  8
0
  6
ByBlock
 62
     0
440
 16777216
100
AcDbLine
 10
2.70409
 20
9.085259999999999
 30
0.0
 11
1.93159
 21
9.085259999999999
 31
0.0
  0
SOLID
  5
4C7
330
4C1
100
AcDbEntity
  8
0
  6
ByBlock
 62
     0
440
 16777216
100
AcDbTrace
 10
0.37909
 20
9.11026
 30
0.0
 11
0.37909
 21
9.060260000000001
 31
0.0
 12
0.22909
 22
9.085259999999999
 32
0.0
 13
0.22909
 23
9.085259999999999
 33
0.0
  0
SOLID
  5
4C8
330
4C1
100
AcDbEntity
  8
0
  6
ByBlock
 62
     0
440
 16777216
100
AcDbTrace
 10
2.70409
 20
9.11026
 30
0.0
 11
2.70409
 21
9.060260000000001
 31
0.0
 12
2.85409
 22
9.085259999999999
 32
0.0
 13
2.85409
 23
9.085259999999999
 33
0.0
  0
MTEXT
  5
4C9
330
4C1
100
AcDbEntity
  8
0
  6
ByBlock
 62
     0
440
 16777216
100
AcDbMText
 10
1.54159
 20
9.085259999999999
 30
0.0
 40
0.15
 41
0.0
 46
0.0
 71
     5
 72
     1
  1
\A1;2.625
 73
     1
 44
1.0
  0
POINT
  5
4CA
330
4C1
100
AcDbEntity
  8
DEFPOINTS
  6
ByBlock
 62
     0
440
 16777216
100
AcDbPoint
 10
0.22909
 20
7.120696
 30
0.0
  0
POINT
  5
4CB
330
4C1
100
AcDbEntity
  8
DEFPOINTS
  6
ByBlock
 62
     0
440
 16777216
100
AcDbPoint
 10
2.85409
 20
7.120696
 30
0.0
  0
POINT
  5
4CC
330
4C1
100
AcDbEntity
  8
DEFPOINTS
  6
ByBlock
 62
     0
440
 16777216
100
AcDbPoint
 10
2.85409
 20
9.085259999999999
 30
0.0
  0
ENDBLK
  5
4CD
330
4C1
100
AcDbEntity
  8
0
100
AcDbBlockEnd
  0
BLOCK
  5
589
330
57A
100
AcDbEntity
  8
0
100
AcDbBlockBegin
  2
TITLE_BLOCK
 70
     0
 10
0.0
 20
0.0
 30
0.0
  3
TITLE_BLOCK
  1

  0
TEXT
  5
57B
330
57A
100
AcDbEntity
  8
DIMS_TEXT
100
AcDbText
 10
-2.625251
 20
-1.013129
 30
0.0
 40
0.2
  1
HAR121   135818(C1)/135817(C2)   1:1
 41
0.7
100
AcDbText
  0
TEXT
  5
57C
330
57A
100
AcDbEntity
  8
DIMS_TEXT
100
AcDbText
 10
-2.687755
 20
-0.107889
 30
0.0
 40
0.15
  1
Tel. (508) 278-2422     Fax (508) 278-7863
 41
0.9
100
AcDbText
  0
TEXT
  5
57D
330
57A
100
AcDbEntity
  8
DIMS_TEXT
100
AcDbText
 10
-2.413383
 20
0.5243790000000001
 30
0.0
 40
0.2
  1
Two Way Right Angle Gear Drive
 41
0.9
100
AcDbText
  0
TEXT
  5
57E
330
57A
100
AcDbEntity
  8
DIMS_TEXT
100
AcDbText
 10
-1.826670999999999
 20
0.987066
 30
0.0
 40
0.3
  1
 MITRPAK
 41
1.5
100
AcDbText
  0
LINE
  5
57F
330
57A
100
AcDbEntity
  8
DIMS_TEXT
100
AcDbLine
 10
-2.723036999999999
 20
-0.5330960000000001
 30
0.0
 11
2.500333
 21
-0.5330960000000001
 31
0.0
  0
LINE
  5
580
330
57A
100
AcDbEntity
  8
DIMS_TEXT
100
AcDbLine
 10
-2.723036999999999
 20
-0.199514
 30
0.0
 11
2.500333
 21
-0.199514
 31
0.0
  0
LINE
  5
581
330
57A
100
AcDbEntity
  8
DIMS_TEXT
100
AcDbLine
 10
-2.723036999999999
 20
0.125931
 30
0.0
 11
2.500333
 21
0.125931
 31
0.0
  0
LINE
  5
582
330
57A
100
AcDbEntity
  8
DIMS_TEXT
100
AcDbLine
 10
-2.723036999999999
 20
0.451377
 30
0.0
 11
2.500333
 21
0.451377
 31
0.0
  0
LINE
  5
583
330
57A
100
AcDbEntity
  8
DIMS_TEXT
100
AcDbLine
 10
-2.723036999999999
 20
0.8744569999999999
 30
0.0
 11
2.500333
 21
0.8744569999999999
 31
0.0
  0
TEXT
  5
584
330
57A
100
AcDbEntity
  8
DIMS_TEXT
100
AcDbText
 10
-2.633399999999999
 20
-0.468007
 30
0.0
 40
0.2
  1
MODEL   PART NUMBER  RATIO
100
AcDbText
  0
LWPOLYLINE
  5
585
330
57A
100
AcDbEntity
  8
DIMS_TEXT
100
AcDbPolyline
 90
        4
 70
     1
 43
0.0
 10
-2.723036999999999
 20
1.39517
 10
2.500333
 20
1.39517
 10
2.500333
 20
-1.143307
 10
-2.723036999999999
 20
-1.143307
  0
TEXT
  5
586
330
57A
100
AcDbEntity
  8
DIMS_TEXT
100
AcDbText
 10
-2.687755
 20
0.215921
 30
0.0
 40
0.15
  1
Uxbridge, MA 01569              U.S.A.
100
AcDbText
  0
LINE
  5
587
330
57A
100
AcDbEntity
  8
DIMS_TEXT
100
AcDbLine
 10
-1.394784999999999
 20
-0.199514
 30
0.0
 11
-1.394784999999999
 21
-1.143307
 31
0.0
  0
LINE
  5
588
330
57A
100
AcDbEntity
  8
DIMS_TEXT
100
AcDbLine
 10
1.294312999999999
 20
-0.199514
 30
0.0
 11
1.294312999999999
 21
-1.143307
 31
0.0
  0
ENDBLK
  5
58A
330
57A
100
AcDbEntity
  8
0
100
AcDbBlockEnd
  0
ENDSEC
  0
SECTION
  2
ENTITIES
  0
LINE
  5
133
330
18
100
AcDbEntity
  8
CTR_LINES
100
AcDbLine
 10
2.028774999999999
 20
6.683696
 30
0.0
 11
3.162713999999999
 21
6.683696
 31
0.0
  0
ARC
  5
135
330
18
100
AcDbEntity
  8
0
100
AcDbCircle
 10
12.393311
 20
3.871696
 30
0.0
 40
0.187
100
AcDbArc
 50
90.0
 51
174.302322
  0
ARC
  5
136
330
18
100
AcDbEntity
  8
0
100
AcDbCircle
 10
12.396396
 20
4.496696
 30
0.0
 40
0.187
100
AcDbArc
 50
90.0
 51
180.0
  0
LINE
  5
137
330
18
100
AcDbEntity
  8
0
100
AcDbLine
 10
11.021396
 20
5.933696
 30
0.0
 11
12.584896
 21
5.933696
 31
0.0
  0
LINE
  5
138
330
18
100
AcDbEntity
  8
0
100
AcDbLine
 10
11.018311
 20
6.558696
 30
0.0
 11
12.584896
 21
6.558696
 31
0.0
  0
LINE
  5
13A
330
18
100
AcDbEntity
  8
CTR_LINES
100
AcDbLine
 10
11.305535
 20
3.933695999999999
 30
0.0
 11
12.378323
 21
3.933695999999999
 31
0.0
  0
LINE
  5
13B
330
18
100
AcDbEntity
  8
CTR_LINES
100
AcDbLine
 10
7.301575999999999
 20
6.683696
 30
0.0
 11
11.045135
 21
6.683696
 31
0.0
  0
LINE
  5
13C
330
18
100
AcDbEntity
  8
CTR_LINES
100
AcDbLine
 10
-0.127439
 20
5.308696
 30
0.0
 11
3.162713999999999
 21
5.308696
 31
0.0
  0
LINE
  5
140
330
18
100
AcDbEntity
  8
CTR_LINES
100
AcDbLine
 10
2.35259
 20
7.564385999999999
 30
0.0
 11
2.35259
 21
6.199205999999999
 31
0.0
  0
CIRCLE
  5
142
330
18
100
AcDbEntity
  8
0
  6
Continuous
100
AcDbCircle
 10
1.540589999999999
 20
5.308696
 30
0.0
 40
0.9252499999999999
  0
LINE
  5
143
330
18
100
AcDbEntity
  8
0
100
AcDbLine
 10
0.29109
 20
6.185696
 30
0.0
 11
0.29109
 21
4.431195999999999
 31
0.0
  0
LINE
  5
145
330
18
100
AcDbEntity
  8
0
100
AcDbLine
 10
2.792089999999999
 20
6.996696
 30
0.0
 11
2.792089999999999
 21
3.620695999999999
 31
0.0
  0
LINE
  5
146
330
18
100
AcDbEntity
  8
0
100
AcDbLine
 10
0.29109
 20
5.861526999999999
 30
0.0
 11
0.29109
 21
4.755863999999999
 31
0.0
  0
LINE
  5
149
330
18
100
AcDbEntity
  8
CTR_LINES
100
AcDbLine
 10
11.771896
 20
6.916633
 30
0.0
 11
11.771896
 21
3.209248
 31
0.0
  0
LINE
  5
14A
330
18
100
AcDbEntity
  8
0
100
AcDbLine
 10
7.521896
 20
7.183696
 30
0.0
 11
7.521896
 21
3.433695999999999
 31
0.0
  0
DIMENSION
  5
14C
330
18
100
AcDbEntity
  8
DIMS_TEXT
100
AcDbDimension
280
     0
  2
*D6
 10
2.252475
 20
4.063591
 30
0.0
 11
4.302331999999999
 21
2.630085999999999
 31
0.0
 12
-0.012
 22
0.0
 32
0.0
 70
   163
  1
<> THRU\PX 4\PTYP.
 71
     5
 42
-1.0
 73
     0
 74
     0
 75
     0
  3
STANDARD
100
AcDbDiametricDimension
 15
2.452706
 25
3.803799999999999
 35
0.0
 40
0.0
1001
ACAD
1000
DSTYLE
1002
{
1070
    78
1070
     4
1070
   288
1070
     1
1070
   284
1070
     4
1070
   140
1040
0.15
1070
   272
1070
     1
1070
   271
1070
     3
1002
}
  0
LINE
  5
151
330
18
100
AcDbEntity
  8
0
100
AcDbLine
 10
0.29109
 20
3.496195999999999
 30
0.0
 11
0.29109
 21
0.9336959999999997
 31
0.0
  0
LINE
  5
152
330
18
100
AcDbEntity
  8
0
100
AcDbLine
 10
2.792088
 20
3.496195999999999
 30
0.0
 11
2.794575999999999
 21
0.9336959999999997
 31
0.0
  0
ARC
  5
153
330
18
100
AcDbEntity
  8
0
100
AcDbCircle
 10
1.97759
 20
1.620695999999999
 30
0.0
 40
0.187
100
AcDbArc
 50
180.0
 51
270.0
  0
ARC
  5
154
330
18
100
AcDbEntity
  8
0
100
AcDbCircle
 10
1.10359
 20
1.620695999999999
 30
0.0
 40
0.187
100
AcDbArc
 50
270.0
 51
360.0
  0
ARC
  5
155
330
18
100
AcDbEntity
  8
0
100
AcDbCircle
 10
2.73209
 20
1.373695999999999
 30
0.0
 40
0.06
100
AcDbArc
 50
360.0
 51
90.0
  0
ARC
  5
156
330
18
100
AcDbEntity
  8
0
100
AcDbCircle
 10
0.35109
 20
1.373695999999999
 30
0.0
 40
0.06
100
AcDbArc
 50
90.0
 51
180.0
  0
LINE
  5
158
330
18
100
AcDbEntity
  8
0
100
AcDbLine
 10
0.29109
 20
0.9336959999999997
 30
0.0
 11
2.794575999999999
 21
0.9336959999999997
 31
0.0
  0
LINE
  5
15A
330
18
100
AcDbEntity
  8
0
100
AcDbLine
 10
0.29109
 20
1.373695999999999
 30
0.0
 11
0.29109
 21
0.9336959999999997
 31
0.0
  0
LINE
  5
15B
330
18
100
AcDbEntity
  8
0
100
AcDbLine
 10
2.792089999999999
 20
1.373695999999999
 30
0.0
 11
2.794156
 21
1.365836
 31
0.0
  0
LINE
  5
15C
330
18
100
AcDbEntity
  8
0
100
AcDbLine
 10
1.290589999999999
 20
3.371195999999999
 30
0.0
 11
1.290589999999999
 21
1.620695999999999
 31
0.0
  0
LINE
  5
15D
330
18
100
AcDbEntity
  8
0
100
AcDbLine
 10
1.79059
 20
3.371195999999999
 30
0.0
 11
1.79059
 21
1.620695999999999
 31
0.0
  0
LINE
  5
15E
330
18
100
AcDbEntity
  8
0
100
AcDbLine
 10
0.35109
 20
1.433695999999999
 30
0.0
 11
1.10359
 21
1.433695999999999
 31
0.0
  0
LINE
  5
15F
330
18
100
AcDbEntity
  8
0
100
AcDbLine
 10
1.97759
 20
1.433695999999999
 30
0.0
 11
2.73209
 21
1.433695999999999
 31
0.0
  0
LINE
  5
161
330
18
100
AcDbEntity
  8
0
100
AcDbLine
 10
0.47809
 20
3.433695999999999
 30
0.0
 11
2.60509
 21
3.433695999999999
 31
0.0
  0
LINE
  5
162
330
18
100
AcDbEntity
  8
0
100
AcDbLine
 10
0.29109
 20
3.620695999999999
 30
0.0
 11
0.29109
 21
4.431195999999999
 31
0.0
  0
LINE
  5
164
330
18
100
AcDbEntity
  8
0
100
AcDbLine
 10
0.22909
 20
5.000627999999999
 30
0.0
 11
0.22909
 21
3.496195999999999
 31
0.0
  0
CIRCLE
  5
165
330
18
100
AcDbEntity
  8
0
  6
Continuous
100
AcDbCircle
 10
0.72859
 20
3.933695999999999
 30
0.0
 40
0.164
  0
ARC
  5
167
330
18
100
AcDbEntity
  8
0
100
AcDbCircle
 10
0.47809
 20
3.620695999999999
 30
0.0
 40
0.187
100
AcDbArc
 50
180.0
 51
270.0
  0
LINE
  5
168
330
18
100
AcDbEntity
  8
0
100
AcDbLine
 10
0.29109
 20
3.496195999999999
 30
0.0
 11
0.33856
 21
3.496195999999999
 31
0.0
  0
LINE
  5
169
330
18
100
AcDbEntity
  8
0
  6
DASHED2
100
AcDbLine
 10
0.22909
 20
3.496195999999999
 30
0.0
 11
0.29109
 21
3.496195999999999
 31
0.0
  0
LINE
  5
16A
330
18
100
AcDbEntity
  8
0
100
AcDbLine
 10
0.29109
 20
3.496195999999999
 30
0.0
 11
0.22909
 21
3.496195999999999
 31
0.0
  0
LINE
  5
172
330
18
100
AcDbEntity
  8
0
100
AcDbLine
 10
2.792089999999999
 20
4.755863999999999
 30
0.0
 11
2.792089999999999
 21
4.78676
 31
0.0
  0
ARC
  5
175
330
18
100
AcDbEntity
  8
0
100
AcDbCircle
 10
2.60509
 20
3.620695999999999
 30
0.0
 40
0.187
100
AcDbArc
 50
270.0
 51
360.0
  0
CIRCLE
  5
179
330
18
100
AcDbEntity
  8
0
  6
Continuous
100
AcDbCircle
 10
2.35259
 20
3.933695999999999
 30
0.0
 40
0.164
  0
LINE
  5
17A
330
18
100
AcDbEntity
  8
0
100
AcDbLine
 10
2.744620999999999
 20
3.496195999999999
 30
0.0
 11
2.792088
 21
3.496195999999999
 31
0.0
  0
LINE
  5
17B
330
18
100
AcDbEntity
  8
HIDDEN_LINE
  6
HIDDEN2
100
AcDbLine
 10
2.792088
 20
3.496195999999999
 30
0.0
 11
2.792089999999999
 21
3.496195999999999
 31
0.0
  0
LINE
  5
17C
330
18
100
AcDbEntity
  8
0
100
AcDbLine
 10
2.85409
 20
3.496195999999999
 30
0.0
 11
2.792089999999999
 21
3.496195999999999
 31
0.0
  0
ARC
  5
184
330
18
100
AcDbEntity
  8
0
100
AcDbCircle
 10
12.146896
 20
1.308695999999999
 30
0.0
 40
0.125
100
AcDbArc
 50
360.0
 51
90.0
  0
ARC
  5
185
330
18
100
AcDbEntity
  8
0
100
AcDbCircle
 10
11.208896
 20
1.620695999999999
 30
0.0
 40
0.187
100
AcDbArc
 50
180.0
 51
270.0
  0
ARC
  5
186
330
18
100
AcDbEntity
  8
0
100
AcDbCircle
 10
9.584896
 20
1.620695999999999
 30
0.0
 40
0.187
100
AcDbArc
 50
270.0
 51
0.0
  0
ARC
  5
187
330
18
100
AcDbEntity
  8
0
100
AcDbCircle
 10
11.833896
 20
1.620695999999999
 30
0.0
 40
0.187
100
AcDbArc
 50
180.0
 51
270.0
  0
ARC
  5
188
330
18
100
AcDbEntity
  8
0
100
AcDbCircle
 10
8.959896
 20
1.620695999999999
 30
0.0
 40
0.187
100
AcDbArc
 50
270.0
 51
0.0
  0
ARC
  5
189
330
18
100
AcDbEntity
  8
0
100
AcDbCircle
 10
8.646895999999999
 20
1.308695999999999
 30
0.0
 40
0.125
100
AcDbArc
 50
90.0
 51
180.0
  0
LINE
  5
18A
330
18
100
AcDbEntity
  8
0
100
AcDbLine
 10
8.521895999999999
 20
0.9336959999999997
 30
0.0
 11
12.271896
 21
0.9336959999999997
 31
0.0
  0
LINE
  5
18B
330
18
100
AcDbEntity
  8
0
100
AcDbLine
 10
8.521895999999999
 20
1.308695999999999
 30
0.0
 11
8.521895999999999
 21
0.9336959999999997
 31
0.0
  0
LINE
  5
18C
330
18
100
AcDbEntity
  8
0
100
AcDbLine
 10
12.271896
 20
1.308695999999999
 30
0.0
 11
12.271896
 21
0.9336959999999997
 31
0.0
  0
ARC
  5
18D
330
18
100
AcDbEntity
  8
0
100
AcDbCircle
 10
8.400482
 20
3.871696
 30
0.0
 40
0.187
100
AcDbArc
 50
5.697677999999999
 51
90.0
  0
ARC
  5
18E
330
18
100
AcDbEntity
  8
0
100
AcDbCircle
 10
8.397396
 20
4.496696
 30
0.0
 40
0.187
100
AcDbArc
 50
0.0
 51
90.0
  0
LINE
  5
18F
330
18
100
AcDbEntity
  8
0
100
AcDbLine
 10
8.021895999999999
 20
4.496696
 30
0.0
 11
8.021895999999999
 21
3.933695999999999
 31
0.0
  0
LINE
  5
190
330
18
100
AcDbEntity
  8
0
  6
Continuous
100
AcDbLine
 10
8.021895999999999
 20
4.496696
 30
0.0
 11
8.021895999999999
 21
3.558695999999999
 31
0.0
  0
LINE
  5
193
330
18
100
AcDbEntity
  8
0
  6
Continuous
100
AcDbLine
 10
7.896896
 20
3.433695999999999
 30
0.0
 11
7.521896
 21
3.433695999999999
 31
0.0
  0
ARC
  5
194
330
18
100
AcDbEntity
  8
0
100
AcDbCircle
 10
7.896896
 20
3.558695999999999
 30
0.0
 40
0.125
100
AcDbArc
 50
270.0
 51
0.0
  0
ARC
  5
195
330
18
100
AcDbEntity
  8
0
  6
DASHED2
100
AcDbCircle
 10
8.208896000000001
 20
3.871696
 30
0.0
 40
0.187
100
AcDbArc
 50
90.0
 51
180.0
  0
LINE
  5
196
330
18
100
AcDbEntity
  8
0
100
AcDbLine
 10
8.021895999999999
 20
3.871696
 30
0.0
 11
8.021895999999999
 21
4.097696
 31
0.0
  0
LINE
  5
197
330
18
100
AcDbEntity
  8
0
100
AcDbLine
 10
8.021895999999999
 20
3.933695999999999
 30
0.0
 11
8.021895999999999
 21
4.097696
 31
0.0
  0
LINE
  5
198
330
18
100
AcDbEntity
  8
0
100
AcDbLine
 10
8.208896000000001
 20
4.058696
 30
0.0
 11
8.400482
 21
4.058696
 31
0.0
  0
ARC
  5
199
330
18
100
AcDbEntity
  8
0
100
AcDbCircle
 10
8.208896000000001
 20
4.496696
 30
0.0
 40
0.187
100
AcDbArc
 50
90.0
 51
180.0
  0
LINE
  5
19A
330
18
100
AcDbEntity
  8
0
100
AcDbLine
 10
8.208896000000001
 20
4.683696
 30
0.0
 11
8.397396
 21
4.683696
 31
0.0
  0
LINE
  5
19B
330
18
100
AcDbEntity
  8
0
100
AcDbLine
 10
9.771895999999999
 20
3.309196
 30
0.0
 11
9.771895999999999
 21
1.620695999999999
 31
0.0
  0
LINE
  5
19C
330
18
100
AcDbEntity
  8
0
100
AcDbLine
 10
11.021896
 20
3.309196
 30
0.0
 11
11.021896
 21
1.620695999999999
 31
0.0
  0
LINE
  5
19D
330
18
100
AcDbEntity
  8
0
100
AcDbLine
 10
9.146895999999999
 20
3.312280999999999
 30
0.0
 11
9.146895999999999
 21
1.620695999999999
 31
0.0
  0
LINE
  5
19E
330
18
100
AcDbEntity
  8
0
100
AcDbLine
 10
11.646896
 20
3.312280999999999
 30
0.0
 11
11.646896
 21
1.620695999999999
 31
0.0
  0
LINE
  5
19F
330
18
100
AcDbEntity
  8
0
100
AcDbLine
 10
8.646895999999999
 20
1.433695999999999
 30
0.0
 11
9.584896
 21
1.433695999999999
 31
0.0
  0
LINE
  5
1A0
330
18
100
AcDbEntity
  8
0
100
AcDbLine
 10
11.208896
 20
1.433695999999999
 30
0.0
 11
11.841119
 21
1.433695999999999
 31
0.0
  0
LINE
  5
1A1
330
18
100
AcDbEntity
  8
0
100
AcDbLine
 10
12.146896
 20
1.433695999999999
 30
0.0
 11
11.841119
 21
1.433695999999999
 31
0.0
  0
LINE
  5
1A2
330
18
100
AcDbEntity
  8
0
100
AcDbLine
 10
8.584395999999999
 20
3.933695999999999
 30
0.0
 11
8.584395999999999
 21
4.496696
 31
0.0
  0
CIRCLE
  5
1A3
330
18
100
AcDbEntity
  8
0
100
AcDbCircle
 10
9.021895999999999
 20
3.933695999999999
 30
0.0
 40
0.4375
  0
LINE
  5
1A4
330
18
100
AcDbEntity
  8
0
100
AcDbLine
 10
8.983772
 20
3.496195999999999
 30
0.0
 11
9.584896
 21
3.496195999999999
 31
0.0
  0
ARC
  5
1A5
330
18
100
AcDbEntity
  8
0
100
AcDbCircle
 10
8.959896
 20
3.312280999999999
 30
0.0
 40
0.187
100
AcDbArc
 50
0.0
 51
84.302322
  0
LINE
  5
1A6
330
18
100
AcDbEntity
  8
0
100
AcDbLine
 10
8.978462
 20
3.498356999999999
 30
0.0
 11
8.942899
 21
3.512831999999999
 31
0.0
  0
LINE
  5
1A7
330
18
100
AcDbEntity
  8
0
100
AcDbLine
 10
8.978462
 20
3.498356999999999
 30
0.0
 11
8.978462
 21
3.498356999999999
 31
0.0
  0
LINE
  5
1A8
330
18
100
AcDbEntity
  8
0
100
AcDbLine
 10
9.021895999999999
 20
3.496195999999999
 30
0.0
 11
8.993724999999999
 21
3.496195999999999
 31
0.0
  0
CIRCLE
  5
1A9
330
18
100
AcDbEntity
  8
0
100
AcDbCircle
 10
9.021895999999999
 20
3.933695999999999
 30
0.0
 40
0.164
  0
ARC
  5
1AA
330
18
100
AcDbEntity
  8
0
100
AcDbCircle
 10
9.584896
 20
3.309196
 30
0.0
 40
0.187
100
AcDbArc
 50
0.0
 51
90.0
  0
LINE
  5
1AC
330
18
100
AcDbEntity
  8
0
100
AcDbLine
 10
12.209396
 20
3.933695999999999
 30
0.0
 11
12.209396
 21
4.496696
 31
0.0
  0
LINE
  5
1AF
330
18
100
AcDbEntity
  8
0
100
AcDbLine
 10
11.208896
 20
3.496195999999999
 30
0.0
 11
11.771896
 21
3.496195999999999
 31
0.0
  0
ARC
  5
1B0
330
18
100
AcDbEntity
  8
0
100
AcDbCircle
 10
11.208896
 20
3.309196
 30
0.0
 40
0.187
100
AcDbArc
 50
90.0
 51
180.0
  0
ARC
  5
1B1
330
18
100
AcDbEntity
  8
0
100
AcDbCircle
 10
11.833896
 20
3.312280999999999
 30
0.0
 40
0.187
100
AcDbArc
 50
95.69767799999999
 51
180.0
  0
CIRCLE
  5
1B2
330
18
100
AcDbEntity
  8
0
100
AcDbCircle
 10
11.771896
 20
3.933695999999999
 30
0.0
 40
0.164
  0
LINE
  5
1B7
330
18
100
AcDbEntity
  8
0
100
AcDbLine
 10
0.29109
 20
6.185696
 30
0.0
 11
0.29109
 21
6.996696
 31
0.0
  0
LINE
  5
1B9
330
18
100
AcDbEntity
  8
0
100
AcDbLine
 10
2.85409
 20
7.120696
 30
0.0
 11
2.85409
 21
6.245695999999999
 31
0.0
  0
LINE
  5
1BA
330
18
100
AcDbEntity
  8
0
100
AcDbLine
 10
0.22909
 20
7.120696
 30
0.0
 11
0.22909
 21
6.245695999999999
 31
0.0
  0
CIRCLE
  5
1BF
330
18
100
AcDbEntity
  8
0
  6
Continuous
100
AcDbCircle
 10
0.72859
 20
6.683696
 30
0.0
 40
0.164
  0
ARC
  5
1C0
330
18
100
AcDbEntity
  8
0
100
AcDbCircle
 10
0.23109
 20
6.185696
 30
0.0
 40
0.06
100
AcDbArc
 50
0.0
 51
90.0
  0
LINE
  5
1C1
330
18
100
AcDbEntity
  8
0
100
AcDbLine
 10
0.22909
 20
6.245695999999999
 30
0.0
 11
0.23109
 21
6.245695999999999
 31
0.0
  0
CIRCLE
  5
1C6
330
18
100
AcDbEntity
  8
0
  6
Continuous
100
AcDbCircle
 10
2.35259
 20
6.683696
 30
0.0
 40
0.164
  0
ARC
  5
1C7
330
18
100
AcDbEntity
  8
0
100
AcDbCircle
 10
2.849477
 20
6.185696
 30
0.0
 40
0.06
100
AcDbArc
 50
90.0
 51
180.055627
  0
LINE
  5
1C8
330
18
100
AcDbEntity
  8
0
100
AcDbLine
 10
2.849477
 20
6.245695999999999
 30
0.0
 11
2.85409
 21
6.245695999999999
 31
0.0
  0
LINE
  5
1CA
330
18
100
AcDbEntity
  8
0
100
AcDbLine
 10
0.47809
 20
7.183696
 30
0.0
 11
2.60509
 21
7.183696
 31
0.0
  0
ARC
  5
1CB
330
18
100
AcDbEntity
  8
0
100
AcDbCircle
 10
0.47809
 20
6.996696
 30
0.0
 40
0.187
100
AcDbArc
 50
90.0
 51
180.0
  0
LINE
  5
1CC
330
18
100
AcDbEntity
  8
0
100
AcDbLine
 10
0.22909
 20
7.120696
 30
0.0
 11
0.338115
 21
7.120696
 31
0.0
  0
ARC
  5
1CD
330
18
100
AcDbEntity
  8
0
100
AcDbCircle
 10
2.60509
 20
6.996696
 30
0.0
 40
0.187
100
AcDbArc
 50
360.0
 51
90.0
  0
LINE
  5
1CE
330
18
100
AcDbEntity
  8
0
100
AcDbLine
 10
2.745065
 20
7.120696
 30
0.0
 11
2.85409
 21
7.120696
 31
0.0
  0
LINE
  5
1CF
330
18
100
AcDbEntity
  8
0
100
AcDbLine
 10
8.208896000000001
 20
5.933696
 30
0.0
 11
9.772396
 21
5.933696
 31
0.0
  0
LINE
  5
1D0
330
18
100
AcDbEntity
  8
0
100
AcDbLine
 10
8.208896000000001
 20
6.558696
 30
0.0
 11
9.775482
 21
6.558696
 31
0.0
  0
LINE
  5
1D1
330
18
100
AcDbEntity
  8
0
100
AcDbLine
 10
8.021895999999999
 20
6.120695999999999
 30
0.0
 11
8.021895999999999
 21
7.058696
 31
0.0
  0
ARC
  5
1D2
330
18
100
AcDbEntity
  8
0
100
AcDbCircle
 10
8.208896000000001
 20
6.120695999999999
 30
0.0
 40
0.187
100
AcDbArc
 50
180.0
 51
270.0
  0
ARC
  5
1D5
330
18
100
AcDbEntity
  8
0
  6
DASHED2
100
AcDbCircle
 10
8.208896000000001
 20
6.745696
 30
0.0
 40
0.187
100
AcDbArc
 50
180.0
 51
270.0
  0
LINE
  5
1D6
330
18
100
AcDbEntity
  8
0
100
AcDbLine
 10
7.521896
 20
7.183696
 30
0.0
 11
7.896896
 21
7.183696
 31
0.0
  0
ARC
  5
1D7
330
18
100
AcDbEntity
  8
0
100
AcDbCircle
 10
7.896896
 20
7.058696
 30
0.0
 40
0.125
100
AcDbArc
 50
0.0
 51
90.0
  0
CIRCLE
  5
1D8
330
18
100
AcDbEntity
  8
0
100
AcDbCircle
 10
10.396896
 20
6.683696
 30
0.0
 40
0.4375
  0
CIRCLE
  5
1D9
330
18
100
AcDbEntity
  8
0
100
AcDbCircle
 10
10.396896
 20
6.683696
 30
0.0
 40
0.164
  0
ARC
  5
1DA
330
18
100
AcDbEntity
  8
0
100
AcDbCircle
 10
9.772396
 20
6.120695999999999
 30
0.0
 40
0.187
100
AcDbArc
 50
270.0
 51
0.0
  0
LINE
  5
1DB
330
18
100
AcDbEntity
  8
0
100
AcDbLine
 10
9.959395999999999
 20
6.683696
 30
0.0
 11
9.959395999999999
 21
6.120695999999999
 31
0.0
  0
ARC
  5
1DC
330
18
100
AcDbEntity
  8
0
100
AcDbCircle
 10
9.775482
 20
6.745696
 30
0.0
 40
0.187
100
AcDbArc
 50
270.0
 51
354.302322
  0
ARC
  5
1DD
330
18
100
AcDbEntity
  8
0
100
AcDbCircle
 10
11.021396
 20
6.120695999999999
 30
0.0
 40
0.187
100
AcDbArc
 50
180.0
 51
270.0
  0
LINE
  5
1DE
330
18
100
AcDbEntity
  8
0
100
AcDbLine
 10
10.834396
 20
6.683696
 30
0.0
 11
10.834396
 21
6.120695999999999
 31
0.0
  0
ARC
  5
1DF
330
18
100
AcDbEntity
  8
0
100
AcDbCircle
 10
11.018311
 20
6.745696
 30
0.0
 40
0.187
100
AcDbArc
 50
185.697678
 51
270.0
  0
LINE
  5
1E0
330
18
100
AcDbEntity
  8
0
100
AcDbLine
 10
13.271896
 20
7.183696
 30
0.0
 11
13.271896
 21
3.433695999999999
 31
0.0
  0
LINE
  5
1E1
330
18
100
AcDbEntity
  8
0
100
AcDbLine
 10
12.771896
 20
4.496696
 30
0.0
 11
12.771896
 21
3.558695999999999
 31
0.0
  0
ARC
  5
1E2
330
18
100
AcDbEntity
  8
0
100
AcDbCircle
 10
12.896896
 20
3.558695999999999
 30
0.0
 40
0.125
100
AcDbArc
 50
180.0
 51
270.0
  0
LINE
  5
1E3
330
18
100
AcDbEntity
  8
0
100
AcDbLine
 10
12.896896
 20
3.433695999999999
 30
0.0
 11
13.271896
 21
3.433695999999999
 31
0.0
  0
ARC
  5
1E6
330
18
100
AcDbEntity
  8
0
100
AcDbCircle
 10
12.584896
 20
3.871696
 30
0.0
 40
0.187
100
AcDbArc
 50
0.0
 51
90.0
  0
LINE
  5
1E7
330
18
100
AcDbEntity
  8
0
100
AcDbLine
 10
12.393311
 20
4.058696
 30
0.0
 11
12.584896
 21
4.058696
 31
0.0
  0
ARC
  5
1E8
330
18
100
AcDbEntity
  8
0
100
AcDbCircle
 10
12.584896
 20
4.496696
 30
0.0
 40
0.187
100
AcDbArc
 50
0.0
 51
90.0
  0
LINE
  5
1E9
330
18
100
AcDbEntity
  8
0
100
AcDbLine
 10
12.396396
 20
4.683696
 30
0.0
 11
12.584896
 21
4.683696
 31
0.0
  0
LINE
  5
1EA
330
18
100
AcDbEntity
  8
0
100
AcDbLine
 10
12.771896
 20
6.120695999999999
 30
0.0
 11
12.771896
 21
7.058696
 31
0.0
  0
ARC
  5
1EB
330
18
100
AcDbEntity
  8
0
100
AcDbCircle
 10
12.584896
 20
6.120695999999999
 30
0.0
 40
0.187
100
AcDbArc
 50
270.0
 51
0.0
  0
ARC
  5
1EE
330
18
100
AcDbEntity
  8
0
100
AcDbCircle
 10
12.584896
 20
6.745696
 30
0.0
 40
0.187
100
AcDbArc
 50
270.0
 51
0.0
  0
ARC
  5
1EF
330
18
100
AcDbEntity
  8
0
100
AcDbCircle
 10
12.896896
 20
7.058696
 30
0.0
 40
0.125
100
AcDbArc
 50
90.0
 51
180.0
  0
LINE
  5
1F0
330
18
100
AcDbEntity
  8
0
100
AcDbLine
 10
12.771896
 20
7.058696
 30
0.0
 11
12.771896
 21
7.058696
 31
0.0
  0
LINE
  5
1F1
330
18
100
AcDbEntity
  8
0
100
AcDbLine
 10
12.896896
 20
7.183696
 30
0.0
 11
13.271896
 21
7.183696
 31
0.0
  0
LINE
  5
1F2
330
18
100
AcDbEntity
  8
CTR_LINES
100
AcDbLine
 10
1.540589999999999
 20
7.643228999999998
 30
0.0
 11
1.540589999999999
 21
-1.083255999999999
 31
0.0
  0
LINE
  5
26B
330
18
100
AcDbEntity
  8
CTR_LINES
100
AcDbLine
 10
10.396896
 20
7.333294
 30
0.0
 11
10.396896
 21
-1.374918
 31
0.0
  0
LINE
  5
270
330
18
100
AcDbEntity
  8
CTR_LINES
100
AcDbLine
 10
7.301575999999999
 20
6.683696
 30
0.0
 11
11.045135
 21
6.683696
 31
0.0
  0
LINE
  5
271
330
18
100
AcDbEntity
  8
CTR_LINES
100
AcDbLine
 10
5.641829
 20
5.308696
 30
0.0
 11
15.276639
 21
5.308696
 31
0.0
  0
LINE
  5
272
330
18
100
AcDbEntity
  8
CTR_LINES
100
AcDbLine
 10
11.305535
 20
3.933695999999999
 30
0.0
 11
12.378323
 21
3.933695999999999
 31
0.0
  0
LINE
  5
27F
330
18
100
AcDbEntity
  8
0
100
AcDbLine
 10
1.91559
 20
0.9336959999999997
 30
0.0
 11
1.91559
 21
-0.786304
 31
0.0
  0
LINE
  5
280
330
18
100
AcDbEntity
  8
0
100
AcDbLine
 10
1.165589999999999
 20
0.9336959999999997
 30
0.0
 11
1.165589999999999
 21
-0.786304
 31
0.0
  0
LINE
  5
281
330
18
100
AcDbEntity
  8
0
100
AcDbLine
 10
10.771896
 20
0.9336959999999997
 30
0.0
 11
10.771896
 21
-0.786304
 31
0.0
  0
LINE
  5
282
330
18
100
AcDbEntity
  8
0
100
AcDbLine
 10
10.021896
 20
0.9336959999999997
 30
0.0
 11
10.021896
 21
-0.786304
 31
0.0
  0
LINE
  5
283
330
18
100
AcDbEntity
  8
0
100
AcDbLine
 10
5.801896
 20
5.683696
 30
0.0
 11
7.521896
 21
5.683696
 31
0.0
  0
LINE
  5
284
330
18
100
AcDbEntity
  8
0
100
AcDbLine
 10
5.801896
 20
4.933696
 30
0.0
 11
7.521896
 21
4.933696
 31
0.0
  0
LINE
  5
287
330
18
100
AcDbEntity
  8
0
100
AcDbLine
 10
1.195589999999999
 20
-0.816304
 30
0.0
 11
1.88559
 21
-0.816304
 31
0.0
  0
LINE
  5
288
330
18
100
AcDbEntity
  8
0
100
AcDbLine
 10
10.051896
 20
-0.816304
 30
0.0
 11
10.741896
 21
-0.816304
 31
0.0
  0
LINE
  5
289
330
18
100
AcDbEntity
  8
0
100
AcDbLine
 10
5.771895999999999
 20
5.653696
 30
0.0
 11
5.771895999999999
 21
4.963695999999999
 31
0.0
  0
LINE
  5
28A
330
18
100
AcDbEntity
  8
0
100
AcDbLine
 10
15.021896
 20
5.653696
 30
0.0
 11
15.021896
 21
4.963695999999999
 31
0.0
  0
LINE
  5
28B
330
18
100
AcDbEntity
  8
0
100
AcDbLine
 10
5.801896
 20
5.683696
 30
0.0
 11
5.771895999999999
 21
5.653696
 31
0.0
  0
LINE
  5
28C
330
18
100
AcDbEntity
  8
0
100
AcDbLine
 10
5.801896
 20
4.933696
 30
0.0
 11
5.771895999999999
 21
4.963695999999999
 31
0.0
  0
LINE
  5
28D
330
18
100
AcDbEntity
  8
0
100
AcDbLine
 10
10.021896
 20
-0.786304
 30
0.0
 11
10.051896
 21
-0.816304
 31
0.0
  0
LINE
  5
28E
330
18
100
AcDbEntity
  8
0
100
AcDbLine
 10
10.771896
 20
-0.786304
 30
0.0
 11
10.741896
 21
-0.816304
 31
0.0
  0
LINE
  5
28F
330
18
100
AcDbEntity
  8
0
100
AcDbLine
 10
14.991896
 20
4.933696
 30
0.0
 11
15.021896
 21
4.963695999999999
 31
0.0
  0
LINE
  5
290
330
18
100
AcDbEntity
  8
0
100
AcDbLine
 10
15.021896
 20
5.653696
 30
0.0
 11
14.991896
 21
5.683696
 31
0.0
  0
LINE
  5
291
330
18
100
AcDbEntity
  8
0
100
AcDbLine
 10
1.88559
 20
-0.816304
 30
0.0
 11
1.91559
 21
-0.786304
 31
0.0
  0
LINE
  5
292
330
18
100
AcDbEntity
  8
0
100
AcDbLine
 10
1.195589999999999
 20
-0.816304
 30
0.0
 11
1.165589999999999
 21
-0.786304
 31
0.0
  0
LINE
  5
293
330
18
100
AcDbEntity
  8
0
100
AcDbLine
 10
13.271896
 20
5.683696
 30
0.0
 11
14.991896
 21
5.683696
 31
0.0
  0
LINE
  5
294
330
18
100
AcDbEntity
  8
0
100
AcDbLine
 10
13.271896
 20
4.933696
 30
0.0
 11
14.991896
 21
4.933696
 31
0.0
  0
LINE
  5
295
330
18
100
AcDbEntity
  8
0
100
AcDbLine
 10
1.165589999999999
 20
-0.786304
 30
0.0
 11
1.91559
 21
-0.786304
 31
0.0
  0
LINE
  5
296
330
18
100
AcDbEntity
  8
0
100
AcDbLine
 10
5.801896
 20
4.933696
 30
0.0
 11
5.801896
 21
5.215696
 31
0.0
  0
LINE
  5
297
330
18
100
AcDbEntity
  8
0
100
AcDbLine
 10
14.991896
 20
4.933696
 30
0.0
 11
14.991896
 21
5.215696
 31
0.0
  0
LINE
  5
298
330
18
100
AcDbEntity
  8
0
100
AcDbLine
 10
10.021896
 20
-0.786304
 30
0.0
 11
10.303896
 21
-0.786304
 31
0.0
  0
LINE
  5
29B
330
18
100
AcDbEntity
  8
0
100
AcDbLine
 10
5.771895999999999
 20
5.401696
 30
0.0
 11
7.521896
 21
5.401696
 31
0.0
  0
LINE
  5
29C
330
18
100
AcDbEntity
  8
0
100
AcDbLine
 10
5.771895999999999
 20
5.215696
 30
0.0
 11
7.521896
 21
5.215696
 31
0.0
  0
LINE
  5
29F
330
18
100
AcDbEntity
  8
0
100
AcDbLine
 10
1.80559
 20
5.401696
 30
0.0
 11
1.903875
 21
5.401696
 31
0.0
  0
LINE
  5
2A0
330
18
100
AcDbEntity
  8
0
100
AcDbLine
 10
1.80559
 20
5.215696
 30
0.0
 11
1.903875
 21
5.215696
 31
0.0
  0
LINE
  5
2A1
330
18
100
AcDbEntity
  8
HIDDEN_LINE
100
AcDbLine
 10
1.80559
 20
0.683696
 30
0.0
 11
1.80559
 21
-0.816304
 31
0.0
  0
ARC
  5
2A4
330
18
100
AcDbEntity
  8
HIDDEN_LINE
100
AcDbCircle
 10
2.18059
 20
0.683696
 30
0.0
 40
0.375
100
AcDbArc
 50
138.189685
 51
180.0
  0
LINE
  5
2A5
330
18
100
AcDbEntity
  8
0
100
AcDbLine
 10
10.489896
 20
-0.786304
 30
0.0
 11
10.771896
 21
-0.786304
 31
0.0
  0
LINE
  5
2A6
330
18
100
AcDbEntity
  8
0
100
AcDbLine
 10
10.303896
 20
0.9336959999999997
 30
0.0
 11
10.303896
 21
-0.816304
 31
0.0
  0
LINE
  5
2A7
330
18
100
AcDbEntity
  8
0
100
AcDbLine
 10
10.489896
 20
0.9336959999999997
 30
0.0
 11
10.489896
 21
-0.816304
 31
0.0
  0
LINE
  5
2A8
330
18
100
AcDbEntity
  8
0
100
AcDbLine
 10
13.271896
 20
5.401696
 30
0.0
 11
15.021896
 21
5.401696
 31
0.0
  0
LINE
  5
2A9
330
18
100
AcDbEntity
  8
0
100
AcDbLine
 10
13.271896
 20
5.215696
 30
0.0
 11
15.021896
 21
5.215696
 31
0.0
  0
LINE
  5
2AC
330
18
100
AcDbEntity
  8
0
100
AcDbLine
 10
14.991896
 20
5.401696
 30
0.0
 11
14.991896
 21
5.683696
 31
0.0
  0
LINE
  5
2AD
330
18
100
AcDbEntity
  8
0
100
AcDbLine
 10
5.801896
 20
5.401696
 30
0.0
 11
5.801896
 21
5.683696
 31
0.0
  0
CIRCLE
  5
2AE
330
18
100
AcDbEntity
  8
0
100
AcDbCircle
 10
1.540589999999999
 20
5.308696
 30
0.0
 40
0.375
  0
ARC
  5
2B0
330
18
100
AcDbEntity
  8
0
100
AcDbCircle
 10
1.540589999999999
 20
5.308696
 30
0.0
 40
0.345
100
AcDbArc
 50
15.63839599999999
 51
344.361604
  0
LINE
  5
2B1
330
18
100
AcDbEntity
  8
0
100
AcDbLine
 10
1.80559
 20
5.401696
 30
0.0
 11
1.80559
 21
5.215696
 31
0.0
  0
CIRCLE
  5
2B2
330
18
100
AcDbEntity
  8
0
100
AcDbCircle
 10
2.015410999999999
 20
5.776805999999999
 30
0.0
 40
0.0935
  0
CIRCLE
  5
2B3
330
18
100
AcDbEntity
  8
0
100
AcDbCircle
 10
1.06577
 20
4.840584999999999
 30
0.0
 40
0.0935
  0
LINE
  5
2B4
330
18
100
AcDbEntity
  8
0
100
AcDbLine
 10
2.85409
 20
4.376332999999999
 30
0.0
 11
2.837053
 21
4.376346999999999
 31
0.0
  0
ARC
  5
2B5
330
18
100
AcDbEntity
  8
0
100
AcDbCircle
 10
2.83709
 20
4.421346999999999
 30
0.0
 40
0.045
100
AcDbArc
 50
180.0
 51
269.952279
  0
DIMENSION
  5
333
330
18
100
AcDbEntity
  8
DIMS_TEXT
100
AcDbDimension
280
     0
  2
*D7
 10
10.396896
 20
7.954275999999999
 30
0.0
 11
8.959395999999999
 21
7.954275999999999
 31
0.0
 70
    32
  1
<>\PTYP.
 71
     5
 42
-1.0
 73
     0
 74
     0
 75
     0
  3
STANDARD
100
AcDbAlignedDimension
 13
7.521896
 23
7.183696
 33
0.0
 14
10.396896
 24
7.333294
 34
0.0
100
AcDbRotatedDimension
1001
ACAD
1000
DSTYLE
1002
{
1070
    78
1070
     4
1070
   140
1040
0.15
1070
   271
1070
     3
1070
    41
1040
0.15
1002
}
  0
DIMENSION
  5
340
330
18
100
AcDbEntity
  8
DIMS_TEXT
100
AcDbDimension
280
     0
  2
*D8
 10
11.771896
 20
7.954275999999999
 30
0.0
 11
11.084396
 21
7.954275999999999
 31
0.0
 70
    32
  1
<>TYP.
 71
     5
 42
-1.0
 73
     0
 74
     0
 75
     0
  3
STANDARD
100
AcDbAlignedDimension
 13
10.396896
 23
7.333294
 33
0.0
 14
11.771896
 24
6.916633
 34
0.0
100
AcDbRotatedDimension
1001
ACAD
1000
DSTYLE
1002
{
1070
    78
1070
     4
1070
   140
1040
0.15
1070
    75
1070
     1
1070
   287
1070
     4
1070
   271
1070
     3
1070
    41
1040
0.15
1002
}
  0
DIMENSION
  5
365
330
18
100
AcDbEntity
  8
DIMS_TEXT
100
AcDbDimension
280
     0
  2
*D9
 10
15.021896
 20
8.766764999999999
 30
0.0
 11
10.396896
 21
8.766764999999999
 31
0.0
 70
    32
 71
     5
 42
-1.0
 73
     0
 74
     0
 75
     0
  3
STANDARD
100
AcDbAlignedDimension
 13
5.771895999999999
 23
5.653696
 33
0.0
 14
15.021896
 24
5.653696
 34
0.0
100
AcDbRotatedDimension
1001
ACAD
1000
DSTYLE
1002
{
1070
    78
1070
     4
1070
   140
1040
0.15
1070
   271
1070
     3
1070
    41
1040
0.15
1002
}
  0
CIRCLE
  5
372
330
18
100
AcDbEntity
  8
0
100
AcDbCircle
 10
11.771896
 20
3.933695999999999
 30
0.0
 40
0.4375
  0
DIMENSION
  5
381
330
18
100
AcDbEntity
  8
DIMS_TEXT
100
AcDbDimension
280
     0
  2
*D10
 10
4.989463999999999
 20
6.683696
 30
0.0
 11
4.989463999999999
 21
5.996196
 31
0.0
 70
    32
  1
<>\PTYP.
 71
     5
 42
-1.0
 73
     0
 74
     0
 75
     0
  3
STANDARD
100
AcDbAlignedDimension
 13
5.641829
 23
5.308696
 33
0.0
 14
7.301575999999999
 24
6.683696
 34
0.0
 50
90.0
100
AcDbRotatedDimension
1001
ACAD
1000
DSTYLE
1002
{
1070
    78
1070
     4
1070
   140
1040
0.15
1070
   271
1070
     3
1070
    41
1040
0.15
1002
}
  0
DIMENSION
  5
39C
330
18
100
AcDbEntity
  8
DIMS_TEXT
100
AcDbDimension
280
     0
  2
*D11
 10
12.891573
 20
0.9336959999999997
 30
0.0
 11
12.426573
 21
0.2518829999999999
 31
0.0
 70
   160
  1
.50\PTYP.
 71
     5
 42
-1.0
 73
     0
 74
     0
 75
     0
  3
STANDARD
100
AcDbAlignedDimension
 13
12.146896
 23
1.433695999999999
 33
0.0
 14
12.271896
 24
0.9336959999999997
 34
0.0
 50
90.0
100
AcDbRotatedDimension
1001
ACAD
1000
DSTYLE
1002
{
1070
    78
1070
     4
1070
   140
1040
0.15
1070
   271
1070
     3
1070
    41
1040
0.15
1002
}
  0
DIMENSION
  5
3C4
330
18
100
AcDbEntity
  8
DIMS_TEXT
100
AcDbDimension
280
     0
  2
*D12
 10
8.146817999999999
 20
0.9336959999999997
 30
0.0
 11
8.146817999999999
 21
0.058696
 31
0.0
 70
    32
  1
<>\PTYP.
 71
     5
 42
-1.0
 73
     0
 74
     0
 75
     0
  3
STANDARD
100
AcDbAlignedDimension
 13
10.051896
 23
-0.816304
 33
0.0
 14
8.521895999999999
 24
0.9336959999999997
 34
0.0
 50
90.0
100
AcDbRotatedDimension
1001
ACAD
1000
DSTYLE
1002
{
1070
    78
1070
     4
1070
   140
1040
0.15
1070
   271
1070
     3
1070
    41
1040
0.15
1002
}
  0
DIMENSION
  5
3DE
330
18
100
AcDbEntity
  8
DIMS_TEXT
100
AcDbDimension
280
     0
  2
*D13
 10
3.427062
 20
6.683696
 30
0.0
 11
3.427062
 21
5.996196
 31
0.0
 70
   160
  1
<>\PTYP.
 71
     5
 42
-1.0
 73
     0
 74
     0
 75
     0
  3
STANDARD
100
AcDbAlignedDimension
 13
3.162713999999999
 23
5.308696
 33
0.0
 14
3.162713999999999
 24
6.683696
 34
0.0
 50
90.0
100
AcDbRotatedDimension
1001
ACAD
1000
DSTYLE
1002
{
1070
    78
1070
     4
1070
   140
1040
0.15
1070
   271
1070
     3
1070
    41
1040
0.15
1002
}
  0
DIMENSION
  5
408
330
18
100
AcDbEntity
  8
DIMS_TEXT
100
AcDbDimension
280
     0
  2
*D14
 10
1.540589999999999
 20
7.986775999999999
 30
0.0
 11
1.94659
 21
7.986775999999999
 31
0.0
 12
-0.012
 22
0.0
 32
0.0
 70
    32
  1
<>\PTYP.
 71
     5
 42
-1.0
 73
     0
 74
     0
 75
     0
  3
STANDARD
100
AcDbAlignedDimension
 13
2.35259
 23
7.564385999999999
 33
0.0
 14
1.540589999999999
 24
7.643228999999998
 34
0.0
100
AcDbRotatedDimension
1001
ACAD
1000
DSTYLE
1002
{
1070
    78
1070
     4
1070
   140
1040
0.15
1070
   271
1070
     3
1070
    41
1040
0.15
1002
}
  0
DIMENSION
  5
430
330
18
100
AcDbEntity
  8
DIMS_TEXT
100
AcDbDimension
280
     0
  2
*D15
 10
-0.4789420000000001
 20
5.308696
 30
0.0
 11
-0.4789420000000001
 21
3.121195999999999
 31
0.0
 70
    32
 71
     5
 42
-1.0
 73
     0
 74
     0
 75
     0
  3
STANDARD
100
AcDbAlignedDimension
 13
0.29109
 23
0.9336959999999997
 33
0.0
 14
-0.127439
 24
5.308696
 34
0.0
 50
90.0
100
AcDbRotatedDimension
1001
ACAD
1000
DSTYLE
1002
{
1070
    78
1070
     4
1070
   140
1040
0.15
1070
   271
1070
     3
1070
    41
1040
0.15
1002
}
  0
DIMENSION
  5
43E
330
18
100
AcDbEntity
  8
DIMS_TEXT
100
AcDbDimension
280
     0
  2
*D16
 10
-1.325242999999999
 20
7.183696
 30
0.0
 11
-1.325243000000001
 21
3.183696
 31
0.0
 70
    32
  1
7.937
 71
     5
 42
8.0
 73
     0
 74
     0
 75
     0
  3
STANDARD
100
AcDbAlignedDimension
 13
1.207589999999999
 23
-0.816304
 33
0.0
 14
0.47809
 24
7.183696
 34
0.0
 50
90.0
100
AcDbRotatedDimension
1001
ACAD
1000
DSTYLE
1002
{
1070
    78
1070
     4
1070
   140
1040
0.15
1070
   271
1070
     3
1070
    41
1040
0.15
1002
}
  0
DIMENSION
  5
44C
330
18
100
AcDbEntity
  8
DIMS_TEXT
100
AcDbDimension
280
     0
  2
*D17
 10
1.165589999999999
 20
-1.456745
 30
0.0
 11
0.563396
 21
-1.456745
 31
0.0
 12
-0.012
 22
0.0
 32
0.0
 70
   160
  1
%%C<>\PTYP.
 71
     5
 42
-1.0
 73
     0
 74
     0
 75
     0
  3
STANDARD
100
AcDbAlignedDimension
 13
1.91559
 23
-0.786304
 33
0.0
 14
1.165589999999999
 24
-0.786304
 34
0.0
100
AcDbRotatedDimension
1001
ACAD
1000
DSTYLE
1002
{
1070
    78
1070
     4
1070
   140
1040
0.15
1070
   271
1070
     3
1070
    41
1040
0.15
1002
}
  0
DIMENSION
  5
472
330
18
100
AcDbEntity
  8
DIMS_TEXT
100
AcDbDimension
280
     0
  2
*D18
 10
10.489896
 20
-1.267679
 30
0.0
 11
11.542396
 21
-1.267679
 31
0.0
 70
    32
  1
.187 X .093\PKEYWAY\PTYP.
 71
     5
 42
-1.0
 73
     0
 74
     0
 75
     0
  3
STANDARD
100
AcDbAlignedDimension
 13
10.303896
 23
-0.816304
 33
0.0
 14
10.489896
 24
-0.816304
 34
0.0
100
AcDbRotatedDimension
1001
ACAD
1000
DSTYLE
1002
{
1070
    78
1070
     4
1070
   140
1040
0.15
1070
   271
1070
     3
1070
    41
1040
0.15
1002
}
  0
DIMENSION
  5
48A
330
18
100
AcDbEntity
  8
DIMS_TEXT
100
AcDbDimension
280
     0
  2
*D19
 10
11.658016
 20
4.051708999999999
 30
0.0
 11
14.011702
 21
2.560814
 31
0.0
 70
   163
  1
<> THRU\PX 3
 71
     5
 42
-1.0
 73
     0
 74
     0
 75
     0
  3
STANDARD
100
AcDbDiametricDimension
 15
11.885777
 25
3.815681999999999
 35
0.0
 40
0.0
1001
ACAD
1000
DSTYLE
1002
{
1070
    78
1070
     4
1070
   288
1070
     1
1070
   140
1040
0.15
1070
   271
1070
     3
1070
    41
1040
0.15
1002
}
  0
DIMENSION
  5
4C0
330
18
100
AcDbEntity
  8
DIMS_TEXT
100
AcDbDimension
280
     0
  2
*D20
 10
1.540589999999999
 20
8.466198
 30
0.0
 11
0.8848399999999999
 21
8.466198
 31
0.0
 70
    32
 71
     5
 42
-1.0
 73
     0
 74
     0
 75
     0
  3
STANDARD
100
AcDbAlignedDimension
 13
0.22909
 23
7.120696
 33
0.0
 14
1.540589999999999
 24
7.643228999999998
 34
0.0
100
AcDbRotatedDimension
1001
ACAD
1000
DSTYLE
1002
{
1070
    78
1070
     4
1070
   140
1040
0.15
1070
   271
1070
     3
1070
    41
1040
0.15
1002
}
  0
DIMENSION
  5
4CE
330
18
100
AcDbEntity
  8
DIMS_TEXT
100
AcDbDimension
280
     0
  2
*D21
 10
2.85409
 20
9.085259999999999
 30
0.0
 11
1.54159
 21
9.085259999999999
 31
0.0
 70
    32
 71
     5
 42
-1.0
 73
     0
 74
     0
 75
     0
  3
STANDARD
100
AcDbAlignedDimension
 13
0.22909
 23
7.120696
 33
0.0
 14
2.85409
 24
7.120696
 34
0.0
100
AcDbRotatedDimension
1001
ACAD
1000
DSTYLE
1002
{
1070
    78
1070
     4
1070
   140
1040
0.15
1070
   271
1070
     3
1070
    41
1040
0.15
1002
}
  0
ARC
  5
520
330
18
100
AcDbEntity
  8
HIDDEN_LINE
100
AcDbCircle
 10
9.646895999999999
 20
4.558696
 30
0.0
 40
0.4375
100
AcDbArc
 50
315.0
 51
135.0
  0
CIRCLE
  5
521
330
18
100
AcDbEntity
  8
HIDDEN_LINE
100
AcDbCircle
 10
9.646895999999999
 20
4.558696
 30
0.0
 40
0.1685
  0
CIRCLE
  5
522
330
18
100
AcDbEntity
  8
HIDDEN_LINE
100
AcDbCircle
 10
9.646895999999999
 20
4.558696
 30
0.0
 40
0.2
  0
LINE
  5
523
330
18
100
AcDbEntity
  8
HIDDEN_LINE
100
AcDbLine
 10
8.712536999999999
 20
4.243055
 30
0.0
 11
9.337536999999999
 21
4.868055
 31
0.0
  0
LINE
  5
524
330
18
100
AcDbEntity
  8
HIDDEN_LINE
100
AcDbLine
 10
9.331255999999999
 20
3.624336
 30
0.0
 11
9.956255999999999
 21
4.249336
 31
0.0
  0
LINE
  5
525
330
18
100
AcDbEntity
  8
0
100
AcDbLine
 10
0.246014
 20
5.000599
 30
0.0
 11
0.22909
 21
5.000627999999999
 31
0.0
  0
LINE
  5
526
330
18
100
AcDbEntity
  8
0
100
AcDbLine
 10
2.85409
 20
3.496195999999999
 30
0.0
 11
2.85409
 21
4.376332999999999
 31
0.0
  0
ARC
  5
527
330
18
100
AcDbEntity
  8
0
100
AcDbCircle
 10
0.24609
 20
5.045599
 30
0.0
 40
0.045
100
AcDbArc
 50
269.903258
 51
0.0
  0
LINE
  5
52C
330
18
100
AcDbEntity
  8
HIDDEN_LINE
100
AcDbLine
 10
1.738565
 20
4.075441999999999
 30
0.0
 11
2.729589999999999
 21
4.647611
 31
0.0
  0
LINE
  5
52D
330
18
100
AcDbEntity
  8
HIDDEN_LINE
100
AcDbLine
 10
0.35359
 20
5.96978
 30
0.0
 11
1.344616
 21
6.541948999999999
 31
0.0
  0
LINE
  5
52E
330
18
100
AcDbEntity
  8
HIDDEN_LINE
100
AcDbLine
 10
2.729589999999999
 20
5.968411999999999
 30
0.0
 11
1.736195999999999
 21
6.541948999999999
 31
0.0
  0
LINE
  5
52F
330
18
100
AcDbEntity
  8
HIDDEN_LINE
100
AcDbLine
 10
1.344616
 20
4.075441999999999
 30
0.0
 11
0.35359
 21
4.647611
 31
0.0
  0
LINE
  5
530
330
18
100
AcDbEntity
  8
HIDDEN_LINE
100
AcDbLine
 10
1.407116
 20
6.558696
 30
0.0
 11
1.673695999999999
 21
6.558696
 31
0.0
  0
LINE
  5
531
330
18
100
AcDbEntity
  8
HIDDEN_LINE
100
AcDbLine
 10
1.407116
 20
4.058696
 30
0.0
 11
1.676065
 21
4.058696
 31
0.0
  0
ARC
  5
532
330
18
100
AcDbEntity
  8
HIDDEN_LINE
100
AcDbCircle
 10
2.667089999999999
 20
5.860158999999999
 30
0.0
 40
0.125
100
AcDbArc
 50
360.0
 51
60.0
  0
ARC
  5
533
330
18
100
AcDbEntity
  8
HIDDEN_LINE
100
AcDbCircle
 10
1.673695999999999
 20
6.433696
 30
0.0
 40
0.125
100
AcDbArc
 50
60.0
 51
90.0
  0
ARC
  5
534
330
18
100
AcDbEntity
  8
HIDDEN_LINE
100
AcDbCircle
 10
1.407116
 20
6.433696
 30
0.0
 40
0.125
100
AcDbArc
 50
90.0
 51
120.0
  0
ARC
  5
535
330
18
100
AcDbEntity
  8
HIDDEN_LINE
100
AcDbCircle
 10
0.41609
 20
5.861526999999999
 30
0.0
 40
0.125
100
AcDbArc
 50
120.0
 51
180.0
  0
ARC
  5
536
330
18
100
AcDbEntity
  8
HIDDEN_LINE
100
AcDbCircle
 10
0.41609
 20
4.755863999999999
 30
0.0
 40
0.125
100
AcDbArc
 50
180.0
 51
240.0
  0
ARC
  5
537
330
18
100
AcDbEntity
  8
HIDDEN_LINE
100
AcDbCircle
 10
1.407116
 20
4.183696
 30
0.0
 40
0.125
100
AcDbArc
 50
240.0
 51
270.0
  0
ARC
  5
538
330
18
100
AcDbEntity
  8
HIDDEN_LINE
100
AcDbCircle
 10
1.676065
 20
4.183696
 30
0.0
 40
0.125
100
AcDbArc
 50
270.0
 51
300.0
  0
ARC
  5
539
330
18
100
AcDbEntity
  8
HIDDEN_LINE
100
AcDbCircle
 10
2.667089999999999
 20
4.755863999999999
 30
0.0
 40
0.125
100
AcDbArc
 50
300.0
 51
0.0
  0
LEADER
  5
53A
330
18
100
AcDbEntity
  8
DIMS_TEXT
100
AcDbLeader
  3
STANDARD
 73
     0
 40
0.65
 41
1.0
 76
     3
 10
1.063115999999999
 20
4.838382
 30
0.0
 10
-0.086714
 20
7.851902
 30
0.0
 10
-0.233677
 20
7.851902
 30
0.0
340
53B
1001
ACAD
1000
DSTYLE
1002
{
1070
    78
1070
     4
1070
   140
1040
0.15
1070
   271
1070
     3
1070
    41
1040
0.15
1002
}
  0
MTEXT
  5
53B
102
{ACAD_REACTORS
330
53A
102
}
330
18
100
AcDbEntity
  8
DIMS_TEXT
100
AcDbMText
 10
-0.323677
 20
7.851902
 30
0.0
 40
0.15
 41
0.0
 46
0.0
 71
     6
 72
     1
  1
\A1;SPANNER\PWRENCH\PHOLES
 73
     1
 44
1.0
  0
MTEXT
  5
53D
330
18
100
AcDbEntity
  8
DIMS_TEXT
100
AcDbMText
 10
6.120903
 20
4.488198999999999
 30
0.0
 40
0.15
 41
0.0
 46
0.0
 71
     4
 72
     1
  1
\A1;PIPE\PPLUG
 73
     1
 44
1.0
  0
LINE
  5
549
330
18
100
AcDbEntity
  8
HIDDEN_LINE
100
AcDbLine
 10
7.521896
 20
6.847696
 30
0.0
 11
8.021895999999999
 21
6.847696
 31
0.0
  0
LINE
  5
54A
330
18
100
AcDbEntity
  8
HIDDEN_LINE
100
AcDbLine
 10
7.521896
 20
6.519695999999999
 30
0.0
 11
8.021895999999999
 21
6.519695999999999
 31
0.0
  0
LINE
  5
54B
330
18
100
AcDbEntity
  8
HIDDEN_LINE
100
AcDbLine
 10
7.521896
 20
4.097696
 30
0.0
 11
8.021895999999999
 21
4.097696
 31
0.0
  0
LINE
  5
54C
330
18
100
AcDbEntity
  8
HIDDEN_LINE
100
AcDbLine
 10
7.521896
 20
3.769695999999999
 30
0.0
 11
8.021895999999999
 21
3.769695999999999
 31
0.0
  0
LINE
  5
54D
330
18
100
AcDbEntity
  8
HIDDEN_LINE
100
AcDbLine
 10
11.935896
 20
1.433695999999999
 30
0.0
 11
11.935896
 21
0.9336959999999997
 31
0.0
  0
LINE
  5
54E
330
18
100
AcDbEntity
  8
HIDDEN_LINE
100
AcDbLine
 10
11.607896
 20
1.433695999999999
 30
0.0
 11
11.607896
 21
0.9336959999999997
 31
0.0
  0
LINE
  5
54F
330
18
100
AcDbEntity
  8
HIDDEN_LINE
100
AcDbLine
 10
9.185896000000001
 20
1.433695999999999
 30
0.0
 11
9.185896000000001
 21
0.9336959999999997
 31
0.0
  0
LINE
  5
550
330
18
100
AcDbEntity
  8
HIDDEN_LINE
100
AcDbLine
 10
8.857896
 20
1.433695999999999
 30
0.0
 11
8.857896
 21
0.9336959999999997
 31
0.0
  0
LINE
  5
551
330
18
100
AcDbEntity
  8
HIDDEN_LINE
100
AcDbLine
 10
2.51659
 20
1.433695999999999
 30
0.0
 11
2.51659
 21
0.9336959999999997
 31
0.0
  0
LINE
  5
552
330
18
100
AcDbEntity
  8
HIDDEN_LINE
100
AcDbLine
 10
2.18859
 20
1.433695999999999
 30
0.0
 11
2.18859
 21
0.9336959999999997
 31
0.0
  0
LINE
  5
553
330
18
100
AcDbEntity
  8
HIDDEN_LINE
100
AcDbLine
 10
0.89259
 20
1.433695999999999
 30
0.0
 11
0.89259
 21
0.9336959999999997
 31
0.0
  0
LINE
  5
554
330
18
100
AcDbEntity
  8
HIDDEN_LINE
100
AcDbLine
 10
0.56459
 20
1.433695999999999
 30
0.0
 11
0.56459
 21
0.9336959999999997
 31
0.0
  0
LINE
  5
555
330
18
100
AcDbEntity
  8
HIDDEN_LINE
100
AcDbLine
 10
12.771896
 20
6.847696
 30
0.0
 11
13.271896
 21
6.847696
 31
0.0
  0
LINE
  5
556
330
18
100
AcDbEntity
  8
HIDDEN_LINE
100
AcDbLine
 10
12.771896
 20
6.519695999999999
 30
0.0
 11
13.271896
 21
6.519695999999999
 31
0.0
  0
LINE
  5
557
330
18
100
AcDbEntity
  8
HIDDEN_LINE
100
AcDbLine
 10
12.771896
 20
4.097696
 30
0.0
 11
13.271896
 21
4.097696
 31
0.0
  0
LINE
  5
558
330
18
100
AcDbEntity
  8
HIDDEN_LINE
100
AcDbLine
 10
12.771896
 20
3.769695999999999
 30
0.0
 11
13.271896
 21
3.769695999999999
 31
0.0
  0
LINE
  5
55A
330
18
100
AcDbEntity
  8
HIDDEN_LINE
100
AcDbLine
 10
2.85409
 20
3.769695999999999
 30
0.0
 11
0.22909
 21
3.769695999999999
 31
0.0
  0
LINE
  5
55B
330
18
100
AcDbEntity
  8
HIDDEN_LINE
100
AcDbLine
 10
2.85409
 20
4.097696
 30
0.0
 11
0.22909
 21
4.097696
 31
0.0
  0
LINE
  5
55C
330
18
100
AcDbEntity
  8
HIDDEN_LINE
100
AcDbLine
 10
2.85409
 20
6.519695999999999
 30
0.0
 11
0.22909
 21
6.519695999999999
 31
0.0
  0
LINE
  5
55D
330
18
100
AcDbEntity
  8
HIDDEN_LINE
100
AcDbLine
 10
2.85409
 20
6.847696
 30
0.0
 11
0.22909
 21
6.847696
 31
0.0
  0
LINE
  5
55E
330
18
100
AcDbEntity
  8
HIDDEN_LINE
100
AcDbLine
 10
0.33856
 20
3.496195999999999
 30
0.0
 11
1.165589999999999
 21
3.496195999999999
 31
0.0
  0
LINE
  5
55F
330
18
100
AcDbEntity
  8
HIDDEN_LINE
100
AcDbLine
 10
2.744620999999999
 20
3.496195999999999
 30
0.0
 11
1.91559
 21
3.496195999999999
 31
0.0
  0
ARC
  5
561
330
18
100
AcDbEntity
  8
HIDDEN_LINE
100
AcDbCircle
 10
1.91559
 20
3.371195999999999
 30
0.0
 40
0.125
100
AcDbArc
 50
90.0
 51
150.0
  0
ARC
  5
562
330
18
100
AcDbEntity
  8
HIDDEN_LINE
100
AcDbCircle
 10
1.165589999999999
 20
3.371195999999999
 30
0.0
 40
0.125
100
AcDbArc
 50
30.0
 51
90.0
  0
ARC
  5
568
330
18
100
AcDbEntity
  8
0
100
AcDbCircle
 10
1.165589999999999
 20
3.371195999999999
 30
0.0
 40
0.125
100
AcDbArc
 50
0.0
 51
30.0
  0
ARC
  5
569
330
18
100
AcDbEntity
  8
0
100
AcDbCircle
 10
1.91559
 20
3.371195999999999
 30
0.0
 40
0.125
100
AcDbArc
 50
150.0
 51
180.0
  0
LINE
  5
56A
330
18
100
AcDbEntity
  8
HIDDEN_LINE
100
AcDbLine
 10
0.338115
 20
7.120696
 30
0.0
 11
2.745065
 21
7.120696
 31
0.0
  0
LEADER
  5
574
330
18
100
AcDbEntity
  8
DIMS_TEXT
100
AcDbLeader
  3
STANDARD
 76
     2
 10
9.545980999999999
 20
4.598048
 30
0.0
 10
6.725846
 20
4.504449
 30
0.0
1001
ACAD
1000
DSTYLE
1002
{
1070
    78
1070
     4
1070
   140
1040
0.15
1070
   271
1070
     3
1070
    41
1040
0.15
1002
}
  0
TEXT
  5
58C
330
18
100
AcDbEntity
  8
DIMS_TEXT
100
AcDbText
 10
12.807966
 20
-3.311579
 30
0.0
 40
0.2
  1
  T122          135615           2:1
 41
0.7
100
AcDbText
  0
TEXT
  5
58D
330
18
100
AcDbEntity
  8
DIMS_TEXT
100
AcDbText
 10
12.745462
 20
-2.406339
 30
0.0
 40
0.14
  1
Tel. (508) 278-2422      Fax (508) 278-7863
 41
0.9
100
AcDbText
  0
TEXT
  5
58E
330
18
100
AcDbEntity
  8
DIMS_TEXT
100
AcDbText
 10
13.29908
 20
-1.770782
 30
0.0
 40
0.15
  1
Three Way Right Angle Gear Drive
 41
0.9
100
AcDbText
  0
TEXT
  5
58F
330
18
100
AcDbEntity
  8
DIMS_TEXT
100
AcDbText
 10
13.606547
 20
-1.311384
 30
0.0
 40
0.3
  1
 MITRPAK
 41
1.5
100
AcDbText
  0
LINE
  5
590
330
18
100
AcDbEntity
  8
DIMS_TEXT
100
AcDbLine
 10
12.710181
 20
-2.831545999999999
 30
0.0
 11
17.933551
 21
-2.831545999999999
 31
0.0
  0
LINE
  5
591
330
18
100
AcDbEntity
  8
DIMS_TEXT
100
AcDbLine
 10
12.710181
 20
-2.497964
 30
0.0
 11
17.933551
 21
-2.497964
 31
0.0
  0
LINE
  5
592
330
18
100
AcDbEntity
  8
DIMS_TEXT
100
AcDbLine
 10
12.710181
 20
-2.172518999999999
 30
0.0
 11
17.933551
 21
-2.172518999999999
 31
0.0
  0
LINE
  5
593
330
18
100
AcDbEntity
  8
DIMS_TEXT
100
AcDbLine
 10
12.710181
 20
-1.847072999999999
 30
0.0
 11
17.933551
 21
-1.847072999999999
 31
0.0
  0
LINE
  5
594
330
18
100
AcDbEntity
  8
DIMS_TEXT
100
AcDbLine
 10
12.710181
 20
-1.423993
 30
0.0
 11
17.933551
 21
-1.423993
 31
0.0
  0
TEXT
  5
595
330
18
100
AcDbEntity
  8
DIMS_TEXT
100
AcDbText
 10
12.799817
 20
-2.766456999999999
 30
0.0
 40
0.19
  1
MODEL   PART NUMBER   RATIO
100
AcDbText
  0
LWPOLYLINE
  5
596
330
18
100
AcDbEntity
  8
DIMS_TEXT
100
AcDbPolyline
 90
        4
 70
     1
 43
0.0
 10
12.710181
 20
-0.9032799999999999
 10
17.933551
 20
-0.9032799999999999
 10
17.933551
 20
-3.441756999999999
 10
12.710181
 20
-3.441756999999999
  0
TEXT
  5
597
330
18
100
AcDbEntity
  8
DIMS_TEXT
100
AcDbText
 10
12.745462
 20
-2.082529
 30
0.0
 40
0.15
  1
Uxbridge, MA 01569              U.S.A.
100
AcDbText
  0
LINE
  5
598
330
18
100
AcDbEntity
  8
DIMS_TEXT
100
AcDbLine
 10
14.038432
 20
-2.497964
 30
0.0
 11
14.038432
 21
-3.441756999999999
 31
0.0
  0
LINE
  5
599
330
18
100
AcDbEntity
  8
DIMS_TEXT
100
AcDbLine
 10
16.727531
 20
-2.497964
 30
0.0
 11
16.727531
 21
-3.441756999999999
 31
0.0
  0
VIEWPORT
  5
3E2
330
15
100
AcDbEntity
 67
     1
  8
0
100
AcDbViewport
 10
9.680232999999999
 20
4.5
 30
0.0
 40
19.36046499999999
 41
9.0
 68
    -1
 69
     1
 12
9.680232999999999
 22
4.5
 13
0.0
 23
0.0
 14
0.5
 24
0.5
 15
0.5
 25
0.5
 16
0.0
 26
0.0
 36
1.0
 17
0.0
 27
0.0
 37
0.0
 42
50.0
 43
0.0
 44
0.0
 45
9.0
 50
0.0
 51
0.0
 72
   100
 90
    32800
  1

281
     0
 71
     1
 74
     0
110
0.0
120
0.0
130
0.0
111
1.0
121
0.0
131
0.0
112
0.0
122
1.0
132
0.0
 79
     0
146
0.0
170
     0
 61
     5
348
5CB
292
     1
282
     1
141
0.0
142
0.0
 63
   250
421
  3355443
  0
ENDSEC
  0
SECTION
  2
OBJECTS
  0
DICTIONARY
  5
C
330
0
100
AcDbDictionary
281
     1
  3
ACAD_CIP_PREVIOUS_PRODUCT_INFO
350
5FE
  3
ACAD_COLOR
350
5DE
  3
ACAD_DETAILVIEWSTYLE
350
5F7
  3
ACAD_GROUP
350
D
  3
ACAD_LAYOUT
350
5F9
  3
ACAD_MATERIAL
350
5AC
  3
ACAD_MLEADERSTYLE
350
5F3
  3
ACAD_MLINESTYLE
350
1B
  3
ACAD_PLOTSETTINGS
350
5FA
  3
ACAD_PLOTSTYLENAME
350
5AA
  3
ACAD_SCALELIST
350
5E1
  3
ACAD_SECTIONVIEWSTYLE
350
5F5
  3
ACAD_TABLESTYLE
350
5DF
  3
ACAD_VISUALSTYLE
350
5C5
  3
ACDB_RECOMPOSE_DATA
350
631
  3
AcDbVariableDictionary
350
620
  0
DICTIONARY
  5
616
330
E
100
AcDbDictionary
280
     1
281
     1
  3
ADSK_XREC_LAYER_RECONCILED
360
617
  0
DICTIONARY
  5
618
330
62
100
AcDbDictionary
280
     1
281
     1
  3
ADSK_XREC_LAYER_RECONCILED
360
619
  0
DICTIONARY
  5
61A
330
63
100
AcDbDictionary
280
     1
281
     1
  3
ADSK_XREC_LAYER_RECONCILED
360
61B
  0
DICTIONARY
  5
61C
330
64
100
AcDbDictionary
280
     1
281
     1
  3
ADSK_XREC_LAYER_RECONCILED
360
61D
  0
DICTIONARY
  5
61E
330
66
100
AcDbDictionary
280
     1
281
     1
  3
ADSK_XREC_LAYER_RECONCILED
360
61F
  0
XRECORD
  5
5FE
102
{ACAD_REACTORS
330
C
102
}
330
C
100
AcDbXrecord
280
     1
300
ACDLT
300
2014
300
ACDLT_F_S
  0
DICTIONARY
  5
5DE
102
{ACAD_REACTORS
330
C
102
}
330
C
100
AcDbDictionary
281
     1
  0
DICTIONARY
  5
5F7
102
{ACAD_REACTORS
330
C
102
}
330
C
100
AcDbDictionary
281
     1
  3
Imperial24
350
5F8
  0
DICTIONARY
  5
D
102
{ACAD_REACTORS
330
C
102
}
330
C
100
AcDbDictionary
281
     1
  0
DICTIONARY
  5
5F9
102
{ACAD_REACTORS
330
C
102
}
330
C
100
AcDbDictionary
281
     1
  3
Layout1
350
5FC
  3
Model
350
5FB
  0
DICTIONARY
  5
5AC
102
{ACAD_REACTORS
330
C
102
}
330
C
100
AcDbDictionary
281
     1
  3
ByBlock
350
5B5
  3
ByLayer
350
5AD
  3
Global
350
5BD
  0
DICTIONARY
  5
5F3
102
{ACAD_REACTORS
330
C
102
}
330
C
100
AcDbDictionary
281
     1
  3
Standard
350
5F4
  0
DICTIONARY
  5
1B
102
{ACAD_REACTORS
330
C
102
}
330
C
100
AcDbDictionary
281
     1
  3
STANDARD
350
1C
  0
DICTIONARY
  5
5FA
102
{ACAD_REACTORS
330
C
102
}
330
C
100
AcDbDictionary
281
     1
  0
ACDBDICTIONARYWDFLT
  5
5AA
102
{ACAD_REACTORS
330
C
102
}
330
C
100
AcDbDictionary
281
     1
  3
Normal
350
5AB
100
AcDbDictionaryWithDefault
340
5AB
  0
DICTIONARY
  5
5E1
102
{ACAD_REACTORS
330
C
102
}
330
C
100
AcDbDictionary
281
     1
  3
A0
350
5E2
  3
A1
350
5E3
  3
A2
350
5E4
  3
A3
350
5E5
  3
A4
350
5E6
  3
A5
350
5E7
  3
A6
350
5E8
  3
A7
350
5E9
  3
A8
350
5EA
  3
A9
350
5EB
  3
B0
350
5EC
  3
B1
350
5ED
  3
B2
350
5EE
  3
B3
350
5EF
  3
B4
350
5F0
  3
B5
350
5F1
  3
B6
350
5F2
  0
DICTIONARY
  5
5F5
102
{ACAD_REACTORS
330
C
102
}
330
C
100
AcDbDictionary
281
     1
  3
Imperial24
350
5F6
  0
DICTIONARY
  5
5DF
102
{ACAD_REACTORS
330
C
102
}
330
C
100
AcDbDictionary
281
     1
  3
Standard
350
5E0
  0
DICTIONARY
  5
5C5
102
{ACAD_REACTORS
330
C
102
}
330
C
100
AcDbDictionary
281
     1
  3
2dWireframe
350
5CB
  3
Basic
350
5CA
  3
Brighten
350
5D1
  3
ColorChange
350
5D5
  3
Conceptual
350
5CE
  3
Dim
350
5D0
  3
EdgeColorOff
350
5DD
  3
Facepattern
350
5D4
  3
Flat
350
5C6
  3
FlatWithEdges
350
5C7
  3
Gouraud
350
5C8
  3
GouraudWithEdges
350
5C9
  3
Hidden
350
5CD
  3
JitterOff
350
5DB
  3
Linepattern
350
5D3
  3
OverhangOff
350
5DC
  3
Realistic
350
5CF
  3
Shaded
350
5DA
  3
Shaded with edges
350
5D9
  3
Shades of Gray
350
5D6
  3
Sketchy
350
5D7
  3
Thicken
350
5D2
  3
Wireframe
350
5CC
  3
X-Ray
350
5D8
  0
XRECORD
  5
631
102
{ACAD_REACTORS
330
C
102
}
330
C
100
AcDbXrecord
280
     1
 90
        1
330
5E0
330
5F6
330
5F8
  0
DICTIONARY
  5
620
102
{ACAD_REACTORS
330
C
102
}
330
C
100
AcDbDictionary
281
     1
  3
CANNOSCALE
350
626
  3
CMLEADERSTYLE
350
622
  3
CTABLESTYLE
350
621
  3
CVIEWDETAILSTYLE
350
623
  3
CVIEWSECTIONSTYLE
350
624
  3
LAYEREVAL
350
628
  3
LAYERNOTIFY
350
629
  3
LIGHTINGUNITS
350
627
  3
MSLTSCALE
350
625
  0
XRECORD
  5
617
102
{ACAD_REACTORS
330
616
102
}
330
616
100
AcDbXrecord
280
     1
290
     1
  0
XRECORD
  5
619
102
{ACAD_REACTORS
330
618
102
}
330
618
100
AcDbXrecord
280
     1
290
     1
  0
XRECORD
  5
61B
102
{ACAD_REACTORS
330
61A
102
}
330
61A
100
AcDbXrecord
280
     1
290
     1
  0
XRECORD
  5
61D
102
{ACAD_REACTORS
330
61C
102
}
330
61C
100
AcDbXrecord
280
     1
290
     1
  0
XRECORD
  5
61F
102
{ACAD_REACTORS
330
61E
102
}
330
61E
100
AcDbXrecord
280
     1
290
     1
  0
ACDBDETAILVIEWSTYLE
  5
5F8
102
{ACAD_XDICTIONARY
360
62F
102
}
102
{ACAD_REACTORS
330
5F7
102
}
330
5F7
100
AcDbModelDocViewStyle
 70
     0
  3
Imperial24
290
     0
100
AcDbDetailViewStyle
 70
     0
 71
     0
 90
        3
 71
     1
340
F
 62
   256
 40
0.24
340
0
 62
   256
 40
0.24
300

 40
0.36
280
     3
 71
     2
340
14
 90
       25
 62
   256
 71
     3
340
F
 62
   256
 40
0.24
 90
        1
 40
0.75
 90
        1
300
%<\AcVar ViewType \f "%tc1">% %<\AcVar ViewDetailId>%\PSCALE %<\AcVar ViewScale \f "%sn">%
 71
     4
340
14
 90
       25
 62
   256
340
14
 90
       25
 62
   256
280
     0
  0
LAYOUT
  5
5FC
102
{ACAD_REACTORS
330
5F9
102
}
330
5F9
100
AcDbPlotSettings
  1

  2
HP OfficeJet Pro 9010 series
  4

  6

 40
0.0
 41
0.0
 42
0.0
 43
0.0
 44
0.0
 45
0.0
 46
0.0
 47
0.0
 48
0.0
 49
0.0
140
0.0
141
0.0
142
1.0
143
1.0
 70
   688
 72
     0
 73
     0
 74
     5
  7

 75
    16
147
1.0
 76
     0
 77
     2
 78
   300
148
0.0
149
0.0
100
AcDbLayout
  1
Layout1
 70
     1
 71
     1
 10
0.0
 20
0.0
 11
12.0
 21
9.0
 12
0.0
 22
0.0
 32
0.0
 14
1.000000000000000E+20
 24
1.000000000000000E+20
 34
1.000000000000000E+20
 15
-1.000000000000000E+20
 25
-1.000000000000000E+20
 35
-1.000000000000000E+20
146
0.0
 13
0.0
 23
0.0
 33
0.0
 16
1.0
 26
0.0
 36
0.0
 17
0.0
 27
1.0
 37
0.0
 76
     0
330
15
  0
LAYOUT
  5
5FB
102
{ACAD_REACTORS
330
5F9
102
}
330
5F9
100
AcDbPlotSettings
  1

  2
HP OfficeJet Pro 9010 series
  4

  6

 40
0.0
 41
0.0
 42
0.0
 43
0.0
 44
0.0
 45
0.0
 46
0.0
 47
0.0
 48
0.0
 49
0.0
140
0.0
141
0.0
142
1.0
143
1.0
 70
  1712
 72
     0
 73
     0
 74
     0
  7

 75
     0
147
1.0
 76
     0
 77
     2
 78
   300
148
0.0
149
0.0
100
AcDbLayout
  1
Model
 70
     1
 71
     0
 10
0.0
 20
0.0
 11
12.0
 21
9.0
 12
0.0
 22
0.0
 32
0.0
 14
0.0
 24
0.0
 34
0.0
 15
0.0
 25
0.0
 35
0.0
146
0.0
 13
0.0
 23
0.0
 33
0.0
 16
1.0
 26
0.0
 36
0.0
 17
0.0
 27
1.0
 37
0.0
 76
     0
330
18
331
5A1
  0
MATERIAL
  5
5B5
102
{ACAD_XDICTIONARY
360
5B6
102
}
102
{ACAD_REACTORS
330
5AC
102
}
330
5AC
100
AcDbMaterial
  1
ByBlock
 72
     0
 43
0.0208333333333333
 43
0.0
 43
0.0
 43
0.0
 43
0.0
 43
0.0208333333333333
 43
0.0
 43
0.0
 43
0.0
 43
0.0
 43
1.0
 43
0.0
 43
0.0
 43
0.0
 43
0.0
 43
1.0
 77
     0
 47
0.0208333333333333
 47
0.0
 47
0.0
 47
0.0
 47
0.0
 47
0.0208333333333333
 47
0.0
 47
0.0
 47
0.0
 47
0.0
 47
1.0
 47
0.0
 47
0.0
 47
0.0
 47
0.0
 47
1.0
171
     0
 49
0.0208333333333333
 49
0.0
 49
0.0
 49
0.0
 49
0.0
 49
0.0208333333333333
 49
0.0
 49
0.0
 49
0.0
 49
0.0
 49
1.0
 49
0.0
 49
0.0
 49
0.0
 49
0.0
 49
1.0
175
     0
142
0.0208333333333333
142
0.0
142
0.0
142
0.0
142
0.0
142
0.0208333333333333
142
0.0
142
0.0
142
0.0
142
0.0
142
1.0
142
0.0
142
0.0
142
0.0
142
0.0
142
1.0
179
     0
144
0.0208333333333333
144
0.0
144
0.0
144
0.0
144
0.0
144
0.0208333333333333
144
0.0
144
0.0
144
0.0
144
0.0
144
1.0
144
0.0
144
0.0
144
0.0
144
0.0
144
1.0
147
0.0208333333333333
147
0.0
147
0.0
147
0.0
147
0.0
147
0.0208333333333333
147
0.0
147
0.0
147
0.0
147
0.0
147
1.0
147
0.0
147
0.0
147
0.0
147
0.0
147
1.0
  0
MATERIAL
  5
5AD
102
{ACAD_XDICTIONARY
360
5AE
102
}
102
{ACAD_REACTORS
330
5AC
102
}
330
5AC
100
AcDbMaterial
  1
ByLayer
 72
     0
 43
0.0208333333333333
 43
0.0
 43
0.0
 43
0.0
 43
0.0
 43
0.0208333333333333
 43
0.0
 43
0.0
 43
0.0
 43
0.0
 43
1.0
 43
0.0
 43
0.0
 43
0.0
 43
0.0
 43
1.0
 77
     0
 47
0.0208333333333333
 47
0.0
 47
0.0
 47
0.0
 47
0.0
 47
0.0208333333333333
 47
0.0
 47
0.0
 47
0.0
 47
0.0
 47
1.0
 47
0.0
 47
0.0
 47
0.0
 47
0.0
 47
1.0
171
     0
 49
0.0208333333333333
 49
0.0
 49
0.0
 49
0.0
 49
0.0
 49
0.0208333333333333
 49
0.0
 49
0.0
 49
0.0
 49
0.0
 49
1.0
 49
0.0
 49
0.0
 49
0.0
 49
0.0
 49
1.0
175
     0
142
0.0208333333333333
142
0.0
142
0.0
142
0.0
142
0.0
142
0.0208333333333333
142
0.0
142
0.0
142
0.0
142
0.0
142
1.0
142
0.0
142
0.0
142
0.0
142
0.0
142
1.0
179
     0
144
0.0208333333333333
144
0.0
144
0.0
144
0.0
144
0.0
144
0.0208333333333333
144
0.0
144
0.0
144
0.0
144
0.0
144
1.0
144
0.0
144
0.0
144
0.0
144
0.0
144
1.0
147
0.0208333333333333
147
0.0
147
0.0
147
0.0
147
0.0
147
0.0208333333333333
147
0.0
147
0.0
147
0.0
147
0.0
147
1.0
147
0.0
147
0.0
147
0.0
147
0.0
147
1.0
  0
MATERIAL
  5
5BD
102
{ACAD_XDICTIONARY
360
5BE
102
}
102
{ACAD_REACTORS
330
5AC
102
}
330
5AC
100
AcDbMaterial
  1
Global
 72
     0
 43
0.0208333333333333
 43
0.0
 43
0.0
 43
0.0
 43
0.0
 43
0.0208333333333333
 43
0.0
 43
0.0
 43
0.0
 43
0.0
 43
1.0
 43
0.0
 43
0.0
 43
0.0
 43
0.0
 43
1.0
 77
     0
 47
0.0208333333333333
 47
0.0
 47
0.0
 47
0.0
 47
0.0
 47
0.0208333333333333
 47
0.0
 47
0.0
 47
0.0
 47
0.0
 47
1.0
 47
0.0
 47
0.0
 47
0.0
 47
0.0
 47
1.0
171
     0
 49
0.0208333333333333
 49
0.0
 49
0.0
 49
0.0
 49
0.0
 49
0.0208333333333333
 49
0.0
 49
0.0
 49
0.0
 49
0.0
 49
1.0
 49
0.0
 49
0.0
 49
0.0
 49
0.0
 49
1.0
175
     0
142
0.0208333333333333
142
0.0
142
0.0
142
0.0
142
0.0
142
0.0208333333333333
142
0.0
142
0.0
142
0.0
142
0.0
142
1.0
142
0.0
142
0.0
142
0.0
142
0.0
142
1.0
179
     0
144
0.0208333333333333
144
0.0
144
0.0
144
0.0
144
0.0
144
0.0208333333333333
144
0.0
144
0.0
144
0.0
144
0.0
144
1.0
144
0.0
144
0.0
144
0.0
144
0.0
144
1.0
147
0.0208333333333333
147
0.0
147
0.0
147
0.0
147
0.0
147
0.0208333333333333
147
0.0
147
0.0
147
0.0
147
0.0
147
1.0
147
0.0
147
0.0
147
0.0
147
0.0
147
1.0
  0
MLEADERSTYLE
  5
5F4
102
{ACAD_REACTORS
330
5F3
102
}
330
5F3
100
AcDbMLeaderStyle
179
     2
170
     2
171
     1
172
     0
 90
        2
 40
0.0
 41
0.0
173
     1
 91
-1056964608
340
12
 92
       -2
290
     1
 42
0.09
291
     1
 43
0.36
  3
Standard
 44
0.18
300

342
F
174
     1
178
     6
175
     1
176
     0
 93
-1056964608
 45
0.18
292
     0
297
     0
 46
0.18
 94
-1056964608
 47
1.0
 49
1.0
140
1.0
293
     1
141
0.0
294
     1
177
     0
142
1.0
295
     0
296
     0
143
0.125
271
     0
272
     9
273
     9
298
     0
  0
MLINESTYLE
  5
1C
102
{ACAD_REACTORS
330
1B
102
}
330
1B
100
AcDbMlineStyle
  2
STANDARD
 70
     0
  3

 62
   256
 51
90.0
 52
90.0
 71
     2
 49
0.5
 62
   256
  6
BYLAYER
 49
-0.5
 62
   256
  6
BYLAYER
  0
ACDBPLACEHOLDER
  5
5AB
102
{ACAD_REACTORS
330
5AA
102
}
330
5AA
  0
SCALE
  5
5E2
102
{ACAD_REACTORS
330
5E1
102
}
330
5E1
100
AcDbScale
 70
     0
300
1:1
140
1.0
141
1.0
290
     1
  0
SCALE
  5
5E3
102
{ACAD_REACTORS
330
5E1
102
}
330
5E1
100
AcDbScale
 70
     0
300
1/128" = 1'-0"
140
0.0078125
141
12.0
290
     0
  0
SCALE
  5
5E4
102
{ACAD_REACTORS
330
5E1
102
}
330
5E1
100
AcDbScale
 70
     0
300
1/64" = 1'-0"
140
0.015625
141
12.0
290
     0
  0
SCALE
  5
5E5
102
{ACAD_REACTORS
330
5E1
102
}
330
5E1
100
AcDbScale
 70
     0
300
1/32" = 1'-0"
140
0.03125
141
12.0
290
     0
  0
SCALE
  5
5E6
102
{ACAD_REACTORS
330
5E1
102
}
330
5E1
100
AcDbScale
 70
     0
300
1/16" = 1'-0"
140
0.0625
141
12.0
290
     0
  0
SCALE
  5
5E7
102
{ACAD_REACTORS
330
5E1
102
}
330
5E1
100
AcDbScale
 70
     0
300
3/32" = 1'-0"
140
0.09375
141
12.0
290
     0
  0
SCALE
  5
5E8
102
{ACAD_REACTORS
330
5E1
102
}
330
5E1
100
AcDbScale
 70
     0
300
1/8" = 1'-0"
140
0.125
141
12.0
290
     0
  0
SCALE
  5
5E9
102
{ACAD_REACTORS
330
5E1
102
}
330
5E1
100
AcDbScale
 70
     0
300
3/16" = 1'-0"
140
0.1875
141
12.0
290
     0
  0
SCALE
  5
5EA
102
{ACAD_REACTORS
330
5E1
102
}
330
5E1
100
AcDbScale
 70
     0
300
1/4" = 1'-0"
140
0.25
141
12.0
290
     0
  0
SCALE
  5
5EB
102
{ACAD_REACTORS
330
5E1
102
}
330
5E1
100
AcDbScale
 70
     0
300
3/8" = 1'-0"
140
0.375
141
12.0
290
     0
  0
SCALE
  5
5EC
102
{ACAD_REACTORS
330
5E1
102
}
330
5E1
100
AcDbScale
 70
     0
300
1/2" = 1'-0"
140
0.5
141
12.0
290
     0
  0
SCALE
  5
5ED
102
{ACAD_REACTORS
330
5E1
102
}
330
5E1
100
AcDbScale
 70
     0
300
3/4" = 1'-0"
140
0.75
141
12.0
290
     0
  0
SCALE
  5
5EE
102
{ACAD_REACTORS
330
5E1
102
}
330
5E1
100
AcDbScale
 70
     0
300
1" = 1'-0"
140
1.0
141
12.0
290
     0
  0
SCALE
  5
5EF
102
{ACAD_REACTORS
330
5E1
102
}
330
5E1
100
AcDbScale
 70
     0
300
1-1/2" = 1'-0"
140
1.5
141
12.0
290
     0
  0
SCALE
  5
5F0
102
{ACAD_REACTORS
330
5E1
102
}
330
5E1
100
AcDbScale
 70
     0
300
3" = 1'-0"
140
3.0
141
12.0
290
     0
  0
SCALE
  5
5F1
102
{ACAD_REACTORS
330
5E1
102
}
330
5E1
100
AcDbScale
 70
     0
300
6" = 1'-0"
140
6.0
141
12.0
290
     0
  0
SCALE
  5
5F2
102
{ACAD_REACTORS
330
5E1
102
}
330
5E1
100
AcDbScale
 70
     0
300
1'-0" = 1'-0"
140
12.0
141
12.0
290
     0
  0
ACDBSECTIONVIEWSTYLE
  5
5F6
102
{ACAD_XDICTIONARY
360
62D
102
}
102
{ACAD_REACTORS
330
5F5
102
}
330
5F5
100
AcDbModelDocViewStyle
 70
     0
  3
Imperial24
290
     0
100
AcDbSectionViewStyle
 70
     0
 71
     0
 90
       78
 71
     1
340
F
 62
   256
 40
0.24
340
0
340
0
 62
   256
 40
0.24
300
I, O, Q, S, X, Z
 40
0.48
 90
        3
 40
0.18
 90
        1
 71
     2
340
14
 90
       25
 62
   256
340
14
 90
       50
 62
   256
 40
0.24
 40
0.0
 40
0.24
 71
     3
340
F
 62
   256
 40
0.24
 90
        1
 40
0.75
 90
        1
300
%<\AcVar ViewType \f "%tc1">% %<\AcVar ViewSectionStartId>%-%<\AcVar ViewSectionEndId>%\PSCALE %<\AcVar ViewScale \f "%sn">%
 71
     4
 62
   256
 62
   257
300
ANSI31
 40
1.0
 90
        0
290
     0
290
     0
 90
        6
 40
0.0
 40
1.570796326794896
 40
0.2617993877991494
 40
1.308996938995747
 40
-0.2617993877991494
 40
1.832595714594046
  0
TABLESTYLE
  5
5E0
102
{ACAD_XDICTIONARY
360
62B
102
}
102
{ACAD_REACTORS
330
5DF
102
}
330
5DF
100
AcDbTableStyle
280
     0
  3
Standard
 70
     0
 71
     0
 40
0.06
 41
0.06
280
     0
281
     0
  7
STANDARD
140
0.18
170
     2
 62
     0
 63
     7
283
     0
 90
      512
 91
        0
  1

274
    -2
284
     1
 64
     0
275
    -2
285
     1
 65
     0
276
    -2
286
     1
 66
     0
277
    -2
287
     1
 67
     0
278
    -2
288
     1
 68
     0
279
    -2
289
     1
 69
     0
  7
STANDARD
140
0.25
170
     5
 62
     0
 63
     7
283
     0
 90
      512
 91
        0
  1

274
    -2
284
     1
 64
     0
275
    -2
285
     1
 65
     0
276
    -2
286
     1
 66
     0
277
    -2
287
     1
 67
     0
278
    -2
288
     1
 68
     0
279
    -2
289
     1
 69
     0
  7
STANDARD
140
0.18
170
     5
 62
     0
 63
     7
283
     0
 90
      512
 91
        0
  1

274
    -2
284
     1
 64
     0
275
    -2
285
     1
 65
     0
276
    -2
286
     1
 66
     0
277
    -2
287
     1
 67
     0
278
    -2
288
     1
 68
     0
279
    -2
289
     1
 69
     0
  0
VISUALSTYLE
  5
5CB
102
{ACAD_REACTORS
330
5C5
102
}
330
5C5
100
AcDbVisualStyle
  2
2dWireframe
 70
     4
177
     3
291
     0
 70
    58
 90
        0
176
     1
 90
        2
176
     1
 90
        0
176
     1
 90
        0
176
     1
 40
0.6
176
     1
 40
30.0
176
     1
 62
     7
420
 16777215
176
     1
 90
        1
176
     1
 90
        4
176
     1
 62
     7
176
     1
 62
   257
176
     1
 90
        1
176
     1
 90
        1
176
     1
 40
1.0
176
     1
 90
        0
176
     1
 62
   257
176
     1
 40
1.0
176
     1
 90
        1
176
     1
 90
        6
176
     1
 90
        2
176
     1
 62
     7
176
     1
 90
        5
176
     1
 90
        0
176
     1
 90
        0
176
     1
290
     0
176
     1
 90
        1
176
     1
 40
0.0
176
     1
 90
        0
176
     1
290
     1
176
     1
290
     1
176
     1
290
     0
176
     1
290
     0
176
     1
290
     0
176
     1
290
     0
176
     1
290
     0
176
     1
290
     0
176
     1
290
     0
176
     1
 90
       50
176
     1
 40
0.0
176
     1
 40
1.0
176
     1
 90
        0
176
     1
 62
    18
420
        0
176
     1
 90
       50
176
     1
 90
        3
176
     1
 62
     5
420
      255
176
     1
290
     0
176
     1
 90
       50
176
     1
 90
       50
176
     1
 90
       50
176
     1
290
     0
176
     1
 90
       50
176
     1
 62
   256
176
     0
 40
1.0
176
     0
 90
        2
176
     1
  1
strokes_ogs.tif
176
     1
290
     0
176
     1
 40
1.0
176
     1
 40
1.0
176
     1
  0
VISUALSTYLE
  5
5CA
102
{ACAD_REACTORS
330
5C5
102
}
330
5C5
100
AcDbVisualStyle
  2
Basic
 70
     7
177
     3
291
     1
 70
    58
 90
        1
176
     1
 90
        0
176
     1
 90
        1
176
     1
 90
        0
176
     1
 40
0.6
176
     1
 40
30.0
176
     1
 62
     7
420
 16777215
176
     1
 90
        0
176
     1
 90
        4
176
     1
 62
     7
176
     1
 62
   257
176
     1
 90
        1
176
     1
 90
        1
176
     1
 40
1.0
176
     1
 90
        8
176
     1
 62
     7
176
     1
 40
1.0
176
     1
 90
        1
176
     1
 90
        6
176
     1
 90
        2
176
     1
 62
     7
176
     1
 90
        5
176
     1
 90
        0
176
     1
 90
        0
176
     1
290
     0
176
     1
 90
        1
176
     1
 40
0.0
176
     1
 90
        0
176
     1
290
     0
176
     1
290
     1
176
     1
290
     1
176
     1
290
     0
176
     1
290
     0
176
     1
290
     0
176
     1
290
     0
176
     1
290
     0
176
     1
290
     0
176
     1
 90
       50
176
     1
 40
0.0
176
     1
 40
1.0
176
     1
 90
        0
176
     1
 62
    18
420
        0
176
     1
 90
       50
176
     1
 90
        3
176
     1
 62
     5
420
      255
176
     1
290
     0
176
     1
 90
       50
176
     1
 90
       50
176
     1
 90
       50
176
     1
290
     0
176
     1
 90
       50
176
     1
 62
   256
176
     0
 40
1.0
176
     0
 90
        2
176
     1
  1
strokes_ogs.tif
176
     1
290
     0
176
     1
 40
1.0
176
     1
 40
1.0
176
     1
  0
VISUALSTYLE
  5
5D1
102
{ACAD_REACTORS
330
5C5
102
}
330
5C5
100
AcDbVisualStyle
  2
Brighten
 70
    12
177
     3
291
     1
 70
    58
 90
        2
176
     1
 90
        2
176
     1
 90
        0
176
     1
 90
        0
176
     1
 40
0.6
176
     1
 40
30.0
176
     1
 62
     7
420
 16777215
176
     1
 90
        1
176
     1
 90
        4
176
     1
 62
     7
176
     1
 62
   257
176
     1
 90
        1
176
     1
 90
        1
176
     1
 40
1.0
176
     1
 90
        8
176
     1
 62
     7
176
     1
 40
1.0
176
     1
 90
        1
176
     1
 90
        6
176
     1
 90
        2
176
     1
 62
     7
176
     1
 90
        5
176
     1
 90
        0
176
     1
 90
        0
176
     1
290
     0
176
     1
 90
        1
176
     1
 40
50.0
176
     1
 90
        0
176
     1
290
     0
176
     1
290
     1
176
     1
290
     1
176
     1
290
     0
176
     1
290
     0
176
     1
290
     0
176
     1
290
     0
176
     1
290
     0
176
     1
290
     0
176
     1
 90
       50
176
     1
 40
0.0
176
     1
 40
1.0
176
     1
 90
        0
176
     1
 62
    18
420
        0
176
     1
 90
       50
176
     1
 90
        3
176
     1
 62
     5
420
      255
176
     1
290
     0
176
     1
 90
       50
176
     1
 90
       50
176
     1
 90
       50
176
     1
290
     0
176
     1
 90
       50
176
     1
 62
   256
176
     0
 40
1.0
176
     0
 90
        2
176
     1
  1
strokes_ogs.tif
176
     1
290
     0
176
     1
 40
1.0
176
     1
 40
1.0
176
     1
  0
VISUALSTYLE
  5
5D5
102
{ACAD_REACTORS
330
5C5
102
}
330
5C5
100
AcDbVisualStyle
  2
ColorChange
 70
    16
177
     3
291
     1
 70
    58
 90
        2
176
     1
 90
        2
176
     1
 90
        3
176
     1
 90
        0
176
     1
 40
0.6
176
     1
 40
30.0
176
     1
 62
     8
420
  8421504
176
     1
 90
        1
176
     1
 90
        4
176
     1
 62
     7
176
     1
 62
   257
176
     1
 90
        1
176
     1
 90
        1
176
     1
 40
1.0
176
     1
 90
        8
176
     1
 62
     8
420
  8421504
176
     1
 40
1.0
176
     1
 90
        1
176
     1
 90
        6
176
     1
 90
        2
176
     1
 62
     7
176
     1
 90
        5
176
     1
 90
        0
176
     1
 90
        0
176
     1
290
     0
176
     1
 90
        1
176
     1
 40
0.0
176
     1
 90
        0
176
     1
290
     0
176
     1
290
     1
176
     1
290
     1
176
     1
290
     0
176
     1
290
     0
176
     1
290
     0
176
     1
290
     0
176
     1
290
     0
176
     1
290
     0
176
     1
 90
       50
176
     1
 40
0.0
176
     1
 40
1.0
176
     1
 90
        0
176
     1
 62
    18
420
        0
176
     1
 90
       50
176
     1
 90
        3
176
     1
 62
     5
420
      255
176
     1
290
     0
176
     1
 90
       50
176
     1
 90
       50
176
     1
 90
       50
176
     1
290
     0
176
     1
 90
       50
176
     1
 62
   256
176
     0
 40
1.0
176
     0
 90
        2
176
     1
  1
strokes_ogs.tif
176
     1
290
     0
176
     1
 40
1.0
176
     1
 40
1.0
176
     1
  0
VISUALSTYLE
  5
5CE
102
{ACAD_REACTORS
330
5C5
102
}
330
5C5
100
AcDbVisualStyle
  2
Conceptual
 70
     9
177
     3
291
     0
 70
    58
 90
        3
176
     1
 90
        2
176
     1
 90
        0
176
     1
 90
        0
176
     1
 40
0.6
176
     1
 40
30.0
176
     1
 62
     7
420
 16777215
176
     1
 90
        2
176
     1
 90
        2
176
     1
 62
     7
176
     1
 62
   257
176
     1
 90
        1
176
     1
 90
        1
176
     1
 40
179.0
176
     1
 90
        8
176
     1
 62
     7
176
     1
 40
1.0
176
     1
 90
        1
176
     1
 90
        6
176
     1
 90
        2
176
     1
 62
     7
176
     1
 90
        3
176
     1
 90
        0
176
     1
 90
        0
176
     1
290
     0
176
     1
 90
        1
176
     1
 40
0.0
176
     1
 90
        0
176
     1
290
     0
176
     1
290
     1
176
     1
290
     1
176
     1
290
     0
176
     1
290
     0
176
     1
290
     0
176
     1
290
     0
176
     1
290
     0
176
     1
290
     0
176
     1
 90
       50
176
     1
 40
0.0
176
     1
 40
1.0
176
     1
 90
        0
176
     1
 62
    18
420
        0
176
     1
 90
       50
176
     1
 90
        3
176
     1
 62
     5
420
      255
176
     1
290
     0
176
     1
 90
       50
176
     1
 90
       50
176
     1
 90
       50
176
     1
290
     0
176
     1
 90
       50
176
     1
 62
   256
176
     0
 40
1.0
176
     0
 90
        2
176
     1
  1
strokes_ogs.tif
176
     1
290
     0
176
     1
 40
1.0
176
     1
 40
1.0
176
     1
  0
VISUALSTYLE
  5
5D0
102
{ACAD_REACTORS
330
5C5
102
}
330
5C5
100
AcDbVisualStyle
  2
Dim
 70
    11
177
     3
291
     1
 70
    58
 90
        2
176
     1
 90
        2
176
     1
 90
        0
176
     1
 90
        0
176
     1
 40
0.6
176
     1
 40
30.0
176
     1
 62
     7
420
 16777215
176
     1
 90
        1
176
     1
 90
        4
176
     1
 62
     7
176
     1
 62
   257
176
     1
 90
        1
176
     1
 90
        1
176
     1
 40
1.0
176
     1
 90
        8
176
     1
 62
     7
176
     1
 40
1.0
176
     1
 90
        1
176
     1
 90
        6
176
     1
 90
        2
176
     1
 62
     7
176
     1
 90
        5
176
     1
 90
        0
176
     1
 90
        0
176
     1
290
     0
176
     1
 90
        1
176
     1
 40
-50.0
176
     1
 90
        0
176
     1
290
     0
176
     1
290
     1
176
     1
290
     1
176
     1
290
     0
176
     1
290
     0
176
     1
290
     0
176
     1
290
     0
176
     1
290
     0
176
     1
290
     0
176
     1
 90
       50
176
     1
 40
0.0
176
     1
 40
1.0
176
     1
 90
        0
176
     1
 62
    18
420
        0
176
     1
 90
       50
176
     1
 90
        3
176
     1
 62
     5
420
      255
176
     1
290
     0
176
     1
 90
       50
176
     1
 90
       50
176
     1
 90
       50
176
     1
290
     0
176
     1
 90
       50
176
     1
 62
   256
176
     0
 40
1.0
176
     0
 90
        2
176
     1
  1
strokes_ogs.tif
176
     1
290
     0
176
     1
 40
1.0
176
     1
 40
1.0
176
     1
  0
VISUALSTYLE
  5
5DD
102
{ACAD_REACTORS
330
5C5
102
}
330
5C5
100
AcDbVisualStyle
  2
EdgeColorOff
 70
    22
177
     3
291
     1
 70
    58
 90
        2
176
     0
 90
        2
176
     0
 90
        0
176
     0
 90
        0
176
     0
 40
0.6
176
     0
 40
30.0
176
     0
 62
     7
420
 16777215
176
     0
 90
        1
176
     0
 90
        4
176
     0
 62
     7
176
     0
 62
   257
176
     0
 90
        1
176
     0
 90
        1
176
     0
 40
1.0
176
     0
 90
        8
176
     2
 62
     7
176
     0
 40
1.0
176
     0
 90
        1
176
     0
 90
        6
176
     0
 90
        2
176
     0
 62
     7
176
     0
 90
        5
176
     0
 90
        0
176
     0
 90
        0
176
     0
290
     0
176
     0
 90
        1
176
     0
 40
0.0
176
     0
 90
        0
176
     0
290
     0
176
     1
290
     1
176
     1
290
     1
176
     1
290
     0
176
     1
290
     0
176
     1
290
     0
176
     1
290
     0
176
     1
290
     0
176
     1
290
     0
176
     1
 90
       50
176
     0
 40
0.0
176
     0
 40
1.0
176
     0
 90
        0
176
     0
 62
    18
420
        0
176
     0
 90
       50
176
     0
 90
        3
176
     0
 62
     5
420
      255
176
     0
290
     0
176
     1
 90
       50
176
     0
 90
       50
176
     0
 90
       50
176
     0
290
     0
176
     1
 90
       50
176
     0
 62
   256
176
     0
 40
1.0
176
     0
 90
        2
176
     0
  1
strokes_ogs.tif
176
     0
290
     0
176
     1
 40
1.0
176
     0
 40
1.0
176
     0
  0
VISUALSTYLE
  5
5D4
102
{ACAD_REACTORS
330
5C5
102
}
330
5C5
100
AcDbVisualStyle
  2
Facepattern
 70
    15
177
     3
291
     1
 70
    58
 90
        2
176
     1
 90
        2
176
     1
 90
        0
176
     1
 90
        0
176
     1
 40
0.6
176
     1
 40
30.0
176
     1
 62
     7
420
 16777215
176
     1
 90
        1
176
     1
 90
        4
176
     1
 62
     7
176
     1
 62
   257
176
     1
 90
        1
176
     1
 90
        1
176
     1
 40
1.0
176
     1
 90
        8
176
     1
 62
     7
176
     1
 40
1.0
176
     1
 90
        1
176
     1
 90
        6
176
     1
 90
        2
176
     1
 62
     7
176
     1
 90
        5
176
     1
 90
        0
176
     1
 90
        0
176
     1
290
     0
176
     1
 90
        1
176
     1
 40
0.0
176
     1
 90
        0
176
     1
290
     0
176
     1
290
     1
176
     1
290
     1
176
     1
290
     0
176
     1
290
     0
176
     1
290
     0
176
     1
290
     0
176
     1
290
     0
176
     1
290
     0
176
     1
 90
       50
176
     1
 40
0.0
176
     1
 40
1.0
176
     1
 90
        0
176
     1
 62
    18
420
        0
176
     1
 90
       50
176
     1
 90
        3
176
     1
 62
     5
420
      255
176
     1
290
     0
176
     1
 90
       50
176
     1
 90
       50
176
     1
 90
       50
176
     1
290
     0
176
     1
 90
       50
176
     1
 62
   256
176
     0
 40
1.0
176
     0
 90
        2
176
     1
  1
strokes_ogs.tif
176
     1
290
     0
176
     1
 40
1.0
176
     1
 40
1.0
176
     1
  0
VISUALSTYLE
  5
5C6
102
{ACAD_REACTORS
330
5C5
102
}
330
5C5
100
AcDbVisualStyle
  2
Flat
 70
     0
177
     3
291
     1
 70
    58
 90
        2
176
     1
 90
        1
176
     1
 90
        1
176
     1
 90
        2
176
     1
 40
0.6
176
     1
 40
30.0
176
     1
 62
     7
420
 16777215
176
     1
 90
        0
176
     1
 90
        0
176
     1
 62
     7
176
     1
 62
   257
176
     1
 90
        1
176
     1
 90
        1
176
     1
 40
1.0
176
     1
 90
        8
176
     1
 62
     7
176
     1
 40
1.0
176
     1
 90
        1
176
     1
 90
        6
176
     1
 90
        2
176
     1
 62
     7
176
     1
 90
        5
176
     1
 90
        0
176
     1
 90
        0
176
     1
290
     0
176
     1
 90
       13
176
     1
 40
0.0
176
     1
 90
        0
176
     1
290
     0
176
     1
290
     1
176
     1
290
     1
176
     1
290
     0
176
     1
290
     0
176
     1
290
     0
176
     1
290
     0
176
     1
290
     0
176
     1
290
     0
176
     1
 90
       50
176
     1
 40
0.0
176
     1
 40
1.0
176
     1
 90
        0
176
     1
 62
    18
420
        0
176
     1
 90
       50
176
     1
 90
        3
176
     1
 62
     5
420
      255
176
     1
290
     0
176
     1
 90
       50
176
     1
 90
       50
176
     1
 90
       50
176
     1
290
     0
176
     1
 90
       50
176
     1
 62
   256
176
     0
 40
1.0
176
     0
 90
        2
176
     1
  1
strokes_ogs.tif
176
     1
290
     0
176
     1
 40
1.0
176
     1
 40
1.0
176
     1
  0
VISUALSTYLE
  5
5C7
102
{ACAD_REACTORS
330
5C5
102
}
330
5C5
100
AcDbVisualStyle
  2
FlatWithEdges
 70
     1
177
     3
291
     1
 70
    58
 90
        2
176
     1
 90
        1
176
     1
 90
        1
176
     1
 90
        2
176
     1
 40
0.6
176
     1
 40
30.0
176
     1
 62
     7
420
 16777215
176
     1
 90
        1
176
     1
 90
        0
176
     1
 62
     7
176
     1
 62
   257
176
     1
 90
        1
176
     1
 90
        1
176
     1
 40
1.0
176
     1
 90
        0
176
     1
 62
   257
176
     1
 40
1.0
176
     1
 90
        1
176
     1
 90
        6
176
     1
 90
        2
176
     1
 62
     7
176
     1
 90
        5
176
     1
 90
        0
176
     1
 90
        0
176
     1
290
     0
176
     1
 90
       13
176
     1
 40
0.0
176
     1
 90
        0
176
     1
290
     0
176
     1
290
     1
176
     1
290
     1
176
     1
290
     0
176
     1
290
     0
176
     1
290
     0
176
     1
290
     0
176
     1
290
     0
176
     1
290
     0
176
     1
 90
       50
176
     1
 40
0.0
176
     1
 40
1.0
176
     1
 90
        0
176
     1
 62
    18
420
        0
176
     1
 90
       50
176
     1
 90
        3
176
     1
 62
     5
420
      255
176
     1
290
     0
176
     1
 90
       50
176
     1
 90
       50
176
     1
 90
       50
176
     1
290
     0
176
     1
 90
       50
176
     1
 62
   256
176
     0
 40
1.0
176
     0
 90
        2
176
     1
  1
strokes_ogs.tif
176
     1
290
     0
176
     1
 40
1.0
176
     1
 40
1.0
176
     1
  0
VISUALSTYLE
  5
5C8
102
{ACAD_REACTORS
330
5C5
102
}
330
5C5
100
AcDbVisualStyle
  2
Gouraud
 70
     2
177
     3
291
     1
 70
    58
 90
        2
176
     1
 90
        2
176
     1
 90
        1
176
     1
 90
        2
176
     1
 40
0.6
176
     1
 40
30.0
176
     1
 62
     7
420
 16777215
176
     1
 90
        0
176
     1
 90
        0
176
     1
 62
     7
176
     1
 62
   257
176
     1
 90
        1
176
     1
 90
        1
176
     1
 40
1.0
176
     1
 90
        0
176
     1
 62
     7
176
     1
 40
1.0
176
     1
 90
        1
176
     1
 90
        6
176
     1
 90
        2
176
     1
 62
     7
176
     1
 90
        5
176
     1
 90
        0
176
     1
 90
        0
176
     1
290
     0
176
     1
 90
       13
176
     1
 40
0.0
176
     1
 90
        0
176
     1
290
     0
176
     1
290
     1
176
     1
290
     1
176
     1
290
     0
176
     1
290
     0
176
     1
290
     0
176
     1
290
     0
176
     1
290
     0
176
     1
290
     0
176
     1
 90
       50
176
     1
 40
0.0
176
     1
 40
1.0
176
     1
 90
        0
176
     1
 62
    18
420
        0
176
     1
 90
       50
176
     1
 90
        3
176
     1
 62
     5
420
      255
176
     1
290
     0
176
     1
 90
       50
176
     1
 90
       50
176
     1
 90
       50
176
     1
290
     0
176
     1
 90
       50
176
     1
 62
   256
176
     0
 40
1.0
176
     0
 90
        2
176
     1
  1
strokes_ogs.tif
176
     1
290
     0
176
     1
 40
1.0
176
     1
 40
1.0
176
     1
  0
VISUALSTYLE
  5
5C9
102
{ACAD_REACTORS
330
5C5
102
}
330
5C5
100
AcDbVisualStyle
  2
GouraudWithEdges
 70
     3
177
     3
291
     1
 70
    58
 90
        2
176
     1
 90
        2
176
     1
 90
        1
176
     1
 90
        2
176
     1
 40
0.6
176
     1
 40
30.0
176
     1
 62
     7
420
 16777215
176
     1
 90
        1
176
     1
 90
        0
176
     1
 62
     7
176
     1
 62
   257
176
     1
 90
        1
176
     1
 90
        1
176
     1
 40
1.0
176
     1
 90
        0
176
     1
 62
   257
176
     1
 40
1.0
176
     1
 90
        1
176
     1
 90
        6
176
     1
 90
        2
176
     1
 62
     7
176
     1
 90
        5
176
     1
 90
        0
176
     1
 90
        0
176
     1
290
     0
176
     1
 90
       13
176
     1
 40
0.0
176
     1
 90
        0
176
     1
290
     0
176
     1
290
     1
176
     1
290
     1
176
     1
290
     0
176
     1
290
     0
176
     1
290
     0
176
     1
290
     0
176
     1
290
     0
176
     1
290
     0
176
     1
 90
       50
176
     1
 40
0.0
176
     1
 40
1.0
176
     1
 90
        0
176
     1
 62
    18
420
        0
176
     1
 90
       50
176
     1
 90
        3
176
     1
 62
     5
420
      255
176
     1
290
     0
176
     1
 90
       50
176
     1
 90
       50
176
     1
 90
       50
176
     1
290
     0
176
     1
 90
       50
176
     1
 62
   256
176
     0
 40
1.0
176
     0
 90
        2
176
     1
  1
strokes_ogs.tif
176
     1
290
     0
176
     1
 40
1.0
176
     1
 40
1.0
176
     1
  0
VISUALSTYLE
  5
5CD
102
{ACAD_REACTORS
330
5C5
102
}
330
5C5
100
AcDbVisualStyle
  2
Hidden
 70
     6
177
     3
291
     0
 70
    58
 90
        1
176
     1
 90
        2
176
     1
 90
        2
176
     1
 90
        0
176
     1
 40
0.6
176
     1
 40
30.0
176
     1
 62
     7
420
 16777215
176
     1
 90
        2
176
     1
 90
        2
176
     1
 62
     7
176
     1
 62
   257
176
     1
 90
        2
176
     1
 90
        1
176
     1
 40
40.0
176
     1
 90
        0
176
     1
 62
   257
176
     1
 40
1.0
176
     1
 90
        1
176
     1
 90
        6
176
     1
 90
        2
176
     1
 62
     7
176
     1
 90
        3
176
     1
 90
        0
176
     1
 90
        0
176
     1
290
     0
176
     1
 90
        1
176
     1
 40
0.0
176
     1
 90
        0
176
     1
290
     0
176
     1
290
     1
176
     1
290
     1
176
     1
290
     0
176
     1
290
     0
176
     1
290
     0
176
     1
290
     0
176
     1
290
     0
176
     1
290
     0
176
     1
 90
       50
176
     1
 40
0.0
176
     1
 40
1.0
176
     1
 90
        0
176
     1
 62
    18
420
        0
176
     1
 90
       50
176
     1
 90
        3
176
     1
 62
     5
420
      255
176
     1
290
     0
176
     1
 90
       50
176
     1
 90
       50
176
     1
 90
       50
176
     1
290
     0
176
     1
 90
       50
176
     1
 62
   256
176
     0
 40
1.0
176
     0
 90
        2
176
     1
  1
strokes_ogs.tif
176
     1
290
     0
176
     1
 40
1.0
176
     1
 40
1.0
176
     1
  0
VISUALSTYLE
  5
5DB
102
{ACAD_REACTORS
330
5C5
102
}
330
5C5
100
AcDbVisualStyle
  2
JitterOff
 70
    20
177
     3
291
     1
 70
    58
 90
        2
176
     0
 90
        2
176
     0
 90
        0
176
     0
 90
        0
176
     0
 40
0.6
176
     0
 40
30.0
176
     0
 62
     7
420
 16777215
176
     0
 90
        1
176
     0
 90
        4
176
     0
 62
     7
176
     0
 62
   257
176
     0
 90
        1
176
     0
 90
        1
176
     0
 40
1.0
176
     0
 90
       10
176
     2
 62
     7
176
     0
 40
1.0
176
     0
 90
        1
176
     0
 90
        6
176
     0
 90
        2
176
     0
 62
     7
176
     0
 90
        5
176
     0
 90
        0
176
     0
 90
        0
176
     0
290
     0
176
     0
 90
        1
176
     0
 40
0.0
176
     0
 90
        0
176
     0
290
     0
176
     1
290
     1
176
     1
290
     1
176
     1
290
     0
176
     1
290
     0
176
     1
290
     0
176
     1
290
     0
176
     1
290
     0
176
     1
290
     0
176
     1
 90
       50
176
     0
 40
0.0
176
     0
 40
1.0
176
     0
 90
        0
176
     0
 62
    18
420
        0
176
     0
 90
       50
176
     0
 90
        3
176
     0
 62
     5
420
      255
176
     0
290
     0
176
     1
 90
       50
176
     0
 90
       50
176
     0
 90
       50
176
     0
290
     0
176
     1
 90
       50
176
     0
 62
   256
176
     0
 40
1.0
176
     0
 90
        2
176
     0
  1
strokes_ogs.tif
176
     0
290
     0
176
     1
 40
1.0
176
     0
 40
1.0
176
     0
  0
VISUALSTYLE
  5
5D3
102
{ACAD_REACTORS
330
5C5
102
}
330
5C5
100
AcDbVisualStyle
  2
Linepattern
 70
    14
177
     3
291
     1
 70
    58
 90
        2
176
     1
 90
        2
176
     1
 90
        0
176
     1
 90
        0
176
     1
 40
0.6
176
     1
 40
30.0
176
     1
 62
     7
420
 16777215
176
     1
 90
        1
176
     1
 90
        4
176
     1
 62
     7
176
     1
 62
   257
176
     1
 90
        7
176
     1
 90
        7
176
     1
 40
1.0
176
     1
 90
        8
176
     1
 62
     7
176
     1
 40
1.0
176
     1
 90
        1
176
     1
 90
        6
176
     1
 90
        2
176
     1
 62
     7
176
     1
 90
        5
176
     1
 90
        0
176
     1
 90
        0
176
     1
290
     0
176
     1
 90
        1
176
     1
 40
0.0
176
     1
 90
        0
176
     1
290
     0
176
     1
290
     1
176
     1
290
     1
176
     1
290
     0
176
     1
290
     0
176
     1
290
     0
176
     1
290
     0
176
     1
290
     0
176
     1
290
     0
176
     1
 90
       50
176
     1
 40
0.0
176
     1
 40
1.0
176
     1
 90
        0
176
     1
 62
    18
420
        0
176
     1
 90
       50
176
     1
 90
        3
176
     1
 62
     5
420
      255
176
     1
290
     0
176
     1
 90
       50
176
     1
 90
       50
176
     1
 90
       50
176
     1
290
     0
176
     1
 90
       50
176
     1
 62
   256
176
     0
 40
1.0
176
     0
 90
        2
176
     1
  1
strokes_ogs.tif
176
     1
290
     0
176
     1
 40
1.0
176
     1
 40
1.0
176
     1
  0
VISUALSTYLE
  5
5DC
102
{ACAD_REACTORS
330
5C5
102
}
330
5C5
100
AcDbVisualStyle
  2
OverhangOff
 70
    21
177
     3
291
     1
 70
    58
 90
        2
176
     0
 90
        2
176
     0
 90
        0
176
     0
 90
        0
176
     0
 40
0.6
176
     0
 40
30.0
176
     0
 62
     7
420
 16777215
176
     0
 90
        1
176
     0
 90
        4
176
     0
 62
     7
176
     0
 62
   257
176
     0
 90
        1
176
     0
 90
        1
176
     0
 40
1.0
176
     0
 90
        9
176
     2
 62
     7
176
     0
 40
1.0
176
     0
 90
        1
176
     0
 90
        6
176
     0
 90
        2
176
     0
 62
     7
176
     0
 90
        5
176
     0
 90
        0
176
     0
 90
        0
176
     0
290
     0
176
     0
 90
        1
176
     0
 40
0.0
176
     0
 90
        0
176
     0
290
     0
176
     1
290
     1
176
     1
290
     1
176
     1
290
     0
176
     1
290
     0
176
     1
290
     0
176
     1
290
     0
176
     1
290
     0
176
     1
290
     0
176
     1
 90
       50
176
     0
 40
0.0
176
     0
 40
1.0
176
     0
 90
        0
176
     0
 62
    18
420
        0
176
     0
 90
       50
176
     0
 90
        3
176
     0
 62
     5
420
      255
176
     0
290
     0
176
     1
 90
       50
176
     0
 90
       50
176
     0
 90
       50
176
     0
290
     0
176
     1
 90
       50
176
     0
 62
   256
176
     0
 40
1.0
176
     0
 90
        2
176
     0
  1
strokes_ogs.tif
176
     0
290
     0
176
     1
 40
1.0
176
     0
 40
1.0
176
     0
  0
VISUALSTYLE
  5
5CF
102
{ACAD_REACTORS
330
5C5
102
}
330
5C5
100
AcDbVisualStyle
  2
Realistic
 70
     8
177
     3
291
     0
 70
    58
 90
        2
176
     1
 90
        3
176
     1
 90
        0
176
     1
 90
        2
176
     1
 40
0.6
176
     1
 40
30.0
176
     1
 62
     7
420
 16777215
176
     1
 90
        0
176
     1
 90
        0
176
     1
 62
     7
176
     1
 62
   257
176
     1
 90
        1
176
     1
 90
        1
176
     1
 40
1.0
176
     1
 90
        8
176
     1
 62
   257
176
     1
 40
1.0
176
     1
 90
        1
176
     1
 90
        6
176
     1
 90
        2
176
     1
 62
     7
176
     1
 90
        3
176
     1
 90
        0
176
     1
 90
        0
176
     1
290
     0
176
     1
 90
       13
176
     1
 40
0.0
176
     1
 90
        0
176
     1
290
     0
176
     1
290
     1
176
     1
290
     1
176
     1
290
     0
176
     1
290
     0
176
     1
290
     0
176
     1
290
     0
176
     1
290
     0
176
     1
290
     0
176
     1
 90
       50
176
     1
 40
0.0
176
     1
 40
1.0
176
     1
 90
        0
176
     1
 62
    18
420
        0
176
     1
 90
       50
176
     1
 90
        3
176
     1
 62
     5
420
      255
176
     1
290
     0
176
     1
 90
       50
176
     1
 90
       50
176
     1
 90
       50
176
     1
290
     0
176
     1
 90
       50
176
     1
 62
   256
176
     0
 40
1.0
176
     0
 90
        2
176
     1
  1
strokes_ogs.tif
176
     1
290
     0
176
     1
 40
1.0
176
     1
 40
1.0
176
     1
  0
VISUALSTYLE
  5
5DA
102
{ACAD_REACTORS
330
5C5
102
}
330
5C5
100
AcDbVisualStyle
  2
Shaded
 70
    27
177
     3
291
     0
 70
    58
 90
        2
176
     1
 90
        2
176
     1
 90
        1
176
     1
 90
        2
176
     1
 40
0.6
176
     1
 40
30.0
176
     1
 62
     7
420
 16777215
176
     1
 90
        0
176
     1
 90
        4
176
     1
 62
     7
176
     1
 62
   257
176
     1
 90
        1
176
     1
 90
        1
176
     1
 40
1.0
176
     1
 90
        8
176
     1
 62
   257
176
     1
 40
1.0
176
     1
 90
        1
176
     1
 90
        6
176
     1
 90
        2
176
     1
 62
     8
420
  7895160
176
     1
 90
        3
176
     1
 90
        0
176
     1
 90
        0
176
     1
290
     0
176
     1
 90
        5
176
     1
 40
0.0
176
     1
 90
        0
176
     1
290
     0
176
     1
290
     1
176
     1
290
     1
176
     1
290
     0
176
     1
290
     0
176
     1
290
     0
176
     1
290
     0
176
     1
290
     0
176
     1
290
     0
176
     1
 90
       50
176
     1
 40
0.0
176
     1
 40
1.0
176
     1
 90
        0
176
     1
 62
    18
420
        0
176
     1
 90
       50
176
     1
 90
        3
176
     1
 62
     5
420
      255
176
     1
290
     0
176
     1
 90
       50
176
     1
 90
       50
176
     1
 90
       50
176
     1
290
     0
176
     1
 90
       50
176
     1
 62
   256
176
     0
 40
1.0
176
     0
 90
        2
176
     1
  1
strokes_ogs.tif
176
     1
290
     0
176
     1
 40
1.0
176
     1
 40
1.0
176
     1
  0
VISUALSTYLE
  5
5D9
102
{ACAD_REACTORS
330
5C5
102
}
330
5C5
100
AcDbVisualStyle
  2
Shaded with edges
 70
    26
177
     3
291
     0
 70
    58
 90
        2
176
     1
 90
        2
176
     1
 90
        1
176
     1
 90
        2
176
     1
 40
0.6
176
     1
 40
30.0
176
     1
 62
     7
420
 16777215
176
     1
 90
        1
176
     1
 90
       10
176
     1
 62
     7
176
     1
 62
   257
176
     1
 90
        2
176
     1
 90
        1
176
     1
 40
1.0
176
     1
 90
        8
176
     1
 62
   257
176
     1
 40
1.0
176
     1
 90
        1
176
     1
 90
        6
176
     1
 90
        2
176
     1
 62
     7
176
     1
 90
        3
176
     1
 90
        0
176
     1
 90
        0
176
     1
290
     0
176
     1
 90
        5
176
     1
 40
0.0
176
     1
 90
        0
176
     1
290
     0
176
     1
290
     1
176
     1
290
     1
176
     1
290
     0
176
     1
290
     0
176
     1
290
     0
176
     1
290
     0
176
     1
290
     0
176
     1
290
     0
176
     1
 90
       50
176
     1
 40
0.0
176
     1
 40
1.0
176
     1
 90
        0
176
     1
 62
    18
420
        0
176
     1
 90
       50
176
     1
 90
        3
176
     1
 62
     5
420
      255
176
     1
290
     0
176
     1
 90
       50
176
     1
 90
       50
176
     1
 90
       50
176
     1
290
     0
176
     1
 90
       50
176
     1
 62
   256
176
     0
 40
1.0
176
     0
 90
        2
176
     1
  1
strokes_ogs.tif
176
     1
290
     0
176
     1
 40
1.0
176
     1
 40
1.0
176
     1
  0
VISUALSTYLE
  5
5D6
102
{ACAD_REACTORS
330
5C5
102
}
330
5C5
100
AcDbVisualStyle
  2
Shades of Gray
 70
    23
177
     3
291
     0
 70
    58
 90
        2
176
     1
 90
        2
176
     1
 90
        3
176
     1
 90
        0
176
     1
 40
0.6
176
     1
 40
30.0
176
     1
 62
     7
420
 16777215
176
     1
 90
        2
176
     1
 90
        2
176
     1
 62
     7
176
     1
 62
     7
176
     1
 90
        1
176
     1
 90
        1
176
     1
 40
40.0
176
     1
 90
        8
176
     1
 62
     7
176
     1
 40
1.0
176
     1
 90
        1
176
     1
 90
        6
176
     1
 90
        2
176
     1
 62
     7
176
     1
 90
        3
176
     1
 90
        0
176
     1
 90
        0
176
     1
290
     0
176
     1
 90
        1
176
     1
 40
0.0
176
     1
 90
        0
176
     1
290
     0
176
     1
290
     1
176
     1
290
     1
176
     1
290
     0
176
     1
290
     0
176
     1
290
     0
176
     1
290
     0
176
     1
290
     0
176
     1
290
     0
176
     1
 90
       50
176
     1
 40
0.0
176
     1
 40
1.0
176
     1
 90
        0
176
     1
 62
    18
420
        0
176
     1
 90
       50
176
     1
 90
        3
176
     1
 62
     5
420
      255
176
     1
290
     0
176
     1
 90
       50
176
     1
 90
       50
176
     1
 90
       50
176
     1
290
     0
176
     1
 90
       50
176
     1
 62
   256
176
     0
 40
1.0
176
     0
 90
        2
176
     1
  1
strokes_ogs.tif
176
     1
290
     0
176
     1
 40
1.0
176
     1
 40
1.0
176
     1
  0
VISUALSTYLE
  5
5D7
102
{ACAD_REACTORS
330
5C5
102
}
330
5C5
100
AcDbVisualStyle
  2
Sketchy
 70
    24
177
     3
291
     0
 70
    58
 90
        1
176
     1
 90
        2
176
     1
 90
        2
176
     1
 90
        0
176
     1
 40
0.6
176
     1
 40
30.0
176
     1
 62
     7
420
 16777215
176
     1
 90
        2
176
     1
 90
        2
176
     1
 62
     7
176
     1
 62
     7
176
     1
 90
        1
176
     1
 90
        1
176
     1
 40
40.0
176
     1
 90
       11
176
     1
 62
     7
176
     1
 40
1.0
176
     1
 90
        1
176
     1
 90
        6
176
     1
 90
        2
176
     1
 62
     7
176
     1
 90
        6
176
     1
 90
        0
176
     1
 90
        0
176
     1
290
     0
176
     1
 90
        1
176
     1
 40
0.0
176
     1
 90
        0
176
     1
290
     0
176
     1
290
     1
176
     1
290
     1
176
     1
290
     0
176
     1
290
     0
176
     1
290
     0
176
     1
290
     0
176
     1
290
     0
176
     1
290
     0
176
     1
 90
       50
176
     1
 40
0.0
176
     1
 40
1.0
176
     1
 90
        0
176
     1
 62
    18
420
        0
176
     1
 90
       50
176
     1
 90
        3
176
     1
 62
     5
420
      255
176
     1
290
     0
176
     1
 90
       50
176
     1
 90
       50
176
     1
 90
       50
176
     1
290
     0
176
     1
 90
       50
176
     1
 62
   256
176
     0
 40
1.0
176
     0
 90
        2
176
     1
  1
strokes_ogs.tif
176
     1
290
     0
176
     1
 40
1.0
176
     1
 40
1.0
176
     1
  0
VISUALSTYLE
  5
5D2
102
{ACAD_REACTORS
330
5C5
102
}
330
5C5
100
AcDbVisualStyle
  2
Thicken
 70
    13
177
     3
291
     1
 70
    58
 90
        2
176
     1
 90
        2
176
     1
 90
        0
176
     1
 90
        0
176
     1
 40
0.6
176
     1
 40
30.0
176
     1
 62
     7
420
 16777215
176
     1
 90
        1
176
     1
 90
        4
176
     1
 62
     7
176
     1
 62
   257
176
     1
 90
        1
176
     1
 90
        1
176
     1
 40
1.0
176
     1
 90
       12
176
     1
 62
     7
176
     1
 40
1.0
176
     1
 90
        1
176
     1
 90
        6
176
     1
 90
        2
176
     1
 62
     7
176
     1
 90
        5
176
     1
 90
        0
176
     1
 90
        0
176
     1
290
     0
176
     1
 90
        1
176
     1
 40
0.0
176
     1
 90
        0
176
     1
290
     0
176
     1
290
     1
176
     1
290
     1
176
     1
290
     0
176
     1
290
     0
176
     1
290
     0
176
     1
290
     0
176
     1
290
     0
176
     1
290
     0
176
     1
 90
       50
176
     1
 40
0.0
176
     1
 40
1.0
176
     1
 90
        0
176
     1
 62
    18
420
        0
176
     1
 90
       50
176
     1
 90
        3
176
     1
 62
     5
420
      255
176
     1
290
     0
176
     1
 90
       50
176
     1
 90
       50
176
     1
 90
       50
176
     1
290
     0
176
     1
 90
       50
176
     1
 62
   256
176
     0
 40
1.0
176
     0
 90
        2
176
     1
  1
strokes_ogs.tif
176
     1
290
     0
176
     1
 40
1.0
176
     1
 40
1.0
176
     1
  0
VISUALSTYLE
  5
5CC
102
{ACAD_REACTORS
330
5C5
102
}
330
5C5
100
AcDbVisualStyle
  2
Wireframe
 70
     5
177
     3
291
     0
 70
    58
 90
        0
176
     1
 90
        2
176
     1
 90
        0
176
     1
 90
        0
176
     1
 40
0.6
176
     1
 40
30.0
176
     1
 62
     7
420
 16777215
176
     1
 90
        1
176
     1
 90
        4
176
     1
 62
     7
176
     1
 62
   257
176
     1
 90
        1
176
     1
 90
        1
176
     1
 40
1.0
176
     1
 90
        0
176
     1
 62
   257
176
     1
 40
1.0
176
     1
 90
        1
176
     1
 90
        6
176
     1
 90
        2
176
     1
 62
     7
176
     1
 90
        3
176
     1
 90
        0
176
     1
 90
        0
176
     1
290
     0
176
     1
 90
        1
176
     1
 40
0.0
176
     1
 90
        0
176
     1
290
     0
176
     1
290
     1
176
     1
290
     1
176
     1
290
     0
176
     1
290
     0
176
     1
290
     0
176
     1
290
     0
176
     1
290
     0
176
     1
290
     0
176
     1
 90
       50
176
     1
 40
0.0
176
     1
 40
1.0
176
     1
 90
        0
176
     1
 62
    18
420
        0
176
     1
 90
       50
176
     1
 90
        3
176
     1
 62
     5
420
      255
176
     1
290
     0
176
     1
 90
       50
176
     1
 90
       50
176
     1
 90
       50
176
     1
290
     0
176
     1
 90
       50
176
     1
 62
   256
176
     0
 40
1.0
176
     0
 90
        2
176
     1
  1
strokes_ogs.tif
176
     1
290
     0
176
     1
 40
1.0
176
     1
 40
1.0
176
     1
  0
VISUALSTYLE
  5
5D8
102
{ACAD_REACTORS
330
5C5
102
}
330
5C5
100
AcDbVisualStyle
  2
X-Ray
 70
    25
177
     3
291
     0
 70
    58
 90
        2
176
     1
 90
        2
176
     1
 90
        1
176
     1
 90
        1
176
     1
 40
0.5
176
     1
 40
30.0
176
     1
 62
     7
420
 16777215
176
     1
 90
        1
176
     1
 90
        0
176
     1
 62
     7
176
     1
 62
   257
176
     1
 90
        1
176
     1
 90
        1
176
     1
 40
1.0
176
     1
 90
        8
176
     1
 62
     7
176
     1
 40
1.0
176
     1
 90
        1
176
     1
 90
        6
176
     1
 90
        2
176
     1
 62
     7
176
     1
 90
        3
176
     1
 90
        0
176
     1
 90
        0
176
     1
290
     0
176
     1
 90
       13
176
     1
 40
0.0
176
     1
 90
        0
176
     1
290
     0
176
     1
290
     1
176
     1
290
     1
176
     1
290
     0
176
     1
290
     0
176
     1
290
     0
176
     1
290
     0
176
     1
290
     0
176
     1
290
     0
176
     1
 90
       50
176
     1
 40
0.0
176
     1
 40
1.0
176
     1
 90
        0
176
     1
 62
    18
420
        0
176
     1
 90
       50
176
     1
 90
        3
176
     1
 62
     5
420
      255
176
     1
290
     0
176
     1
 90
       50
176
     1
 90
       50
176
     1
 90
       50
176
     1
290
     0
176
     1
 90
       50
176
     1
 62
   256
176
     0
 40
1.0
176
     0
 90
        2
176
     1
  1
strokes_ogs.tif
176
     1
290
     0
176
     1
 40
1.0
176
     1
 40
1.0
176
     1
  0
DICTIONARYVAR
  5
626
102
{ACAD_REACTORS
330
620
102
}
330
620
100
DictionaryVariables
280
     0
  1
1:1
  0
DICTIONARYVAR
  5
622
102
{ACAD_REACTORS
330
620
102
}
330
620
100
DictionaryVariables
280
     0
  1
STANDARD
  0
DICTIONARYVAR
  5
621
102
{ACAD_REACTORS
330
620
102
}
330
620
100
DictionaryVariables
280
     0
  1
STANDARD
  0
DICTIONARYVAR
  5
623
102
{ACAD_REACTORS
330
620
102
}
330
620
100
DictionaryVariables
280
     0
  1
Imperial24
  0
DICTIONARYVAR
  5
624
102
{ACAD_REACTORS
330
620
102
}
330
620
100
DictionaryVariables
280
     0
  1
Imperial24
  0
DICTIONARYVAR
  5
628
102
{ACAD_REACTORS
330
620
102
}
330
620
100
DictionaryVariables
280
     0
  1
1
  0
DICTIONARYVAR
  5
629
102
{ACAD_REACTORS
330
620
102
}
330
620
100
DictionaryVariables
280
     0
  1
15
  0
DICTIONARYVAR
  5
627
102
{ACAD_REACTORS
330
620
102
}
330
620
100
DictionaryVariables
280
     0
  1
0
  0
DICTIONARYVAR
  5
625
102
{ACAD_REACTORS
330
620
102
}
330
620
100
DictionaryVariables
280
     0
  1
0
  0
DICTIONARY
  5
62F
330
5F8
100
AcDbDictionary
280
     1
281
     1
  3
ACAD_XREC_ROUNDTRIP
360
630
  0
DICTIONARY
  5
5B6
330
5B5
100
AcDbDictionary
280
     1
281
     1
  3
BUMPTILE
360
5B8
  3
DIFFUSETILE
360
5B7
  3
OPACITYTILE
360
5BB
  3
REFLECTIONTILE
360
5BA
  3
REFRACTIONTILE
360
5BC
  3
SPECULARTILE
360
5B9
  0
DICTIONARY
  5
5AE
330
5AD
100
AcDbDictionary
280
     1
281
     1
  3
BUMPTILE
360
5B0
  3
DIFFUSETILE
360
5AF
  3
OPACITYTILE
360
5B3
  3
REFLECTIONTILE
360
5B2
  3
REFRACTIONTILE
360
5B4
  3
SPECULARTILE
360
5B1
  0
DICTIONARY
  5
5BE
330
5BD
100
AcDbDictionary
280
     1
281
     1
  3
BUMPTILE
360
5C0
  3
DIFFUSETILE
360
5BF
  3
OPACITYTILE
360
5C3
  3
REFLECTIONTILE
360
5C2
  3
REFRACTIONTILE
360
5C4
  3
SPECULARTILE
360
5C1
  0
DICTIONARY
  5
62D
330
5F6
100
AcDbDictionary
280
     1
281
     1
  3
ACAD_XREC_ROUNDTRIP
360
62E
  0
DICTIONARY
  5
62B
330
5E0
100
AcDbDictionary
280
     1
281
     1
  3
ACAD_ROUNDTRIP_2008_TABLESTYLE_CELLSTYLEMAP
360
62C
  0
XRECORD
  5
630
102
{ACAD_REACTORS
330
62F
102
}
330
62F
100
AcDbXrecord
280
     1
102
DISPLAYNAME
  1
Imperial24
102
FLAGS
 90
        0
  0
XRECORD
  5
5B8
102
{ACAD_REACTORS
330
5B6
102
}
330
5B6
100
AcDbXrecord
280
     1
270
     1
271
     1
  0
XRECORD
  5
5B7
102
{ACAD_REACTORS
330
5B6
102
}
330
5B6
100
AcDbXrecord
280
     1
270
     1
271
     1
  0
XRECORD
  5
5BB
102
{ACAD_REACTORS
330
5B6
102
}
330
5B6
100
AcDbXrecord
280
     1
270
     1
271
     1
  0
XRECORD
  5
5BA
102
{ACAD_REACTORS
330
5B6
102
}
330
5B6
100
AcDbXrecord
280
     1
270
     1
271
     1
  0
XRECORD
  5
5BC
102
{ACAD_REACTORS
330
5B6
102
}
330
5B6
100
AcDbXrecord
280
     1
270
     1
271
     1
  0
XRECORD
  5
5B9
102
{ACAD_REACTORS
330
5B6
102
}
330
5B6
100
AcDbXrecord
280
     1
270
     1
271
     1
  0
XRECORD
  5
5B0
102
{ACAD_REACTORS
330
5AE
102
}
330
5AE
100
AcDbXrecord
280
     1
270
     1
271
     1
  0
XRECORD
  5
5AF
102
{ACAD_REACTORS
330
5AE
102
}
330
5AE
100
AcDbXrecord
280
     1
270
     1
271
     1
  0
XRECORD
  5
5B3
102
{ACAD_REACTORS
330
5AE
102
}
330
5AE
100
AcDbXrecord
280
     1
270
     1
271
     1
  0
XRECORD
  5
5B2
102
{ACAD_REACTORS
330
5AE
102
}
330
5AE
100
AcDbXrecord
280
     1
270
     1
271
     1
  0
XRECORD
  5
5B4
102
{ACAD_REACTORS
330
5AE
102
}
330
5AE
100
AcDbXrecord
280
     1
270
     1
271
     1
  0
XRECORD
  5
5B1
102
{ACAD_REACTORS
330
5AE
102
}
330
5AE
100
AcDbXrecord
280
     1
270
     1
271
     1
  0
XRECORD
  5
5C0
102
{ACAD_REACTORS
330
5BE
102
}
330
5BE
100
AcDbXrecord
280
     1
270
     1
271
     1
  0
XRECORD
  5
5BF
102
{ACAD_REACTORS
330
5BE
102
}
330
5BE
100
AcDbXrecord
280
     1
270
     1
271
     1
  0
XRECORD
  5
5C3
102
{ACAD_REACTORS
330
5BE
102
}
330
5BE
100
AcDbXrecord
280
     1
270
     1
271
     1
  0
XRECORD
  5
5C2
102
{ACAD_REACTORS
330
5BE
102
}
330
5BE
100
AcDbXrecord
280
     1
270
     1
271
     1
  0
XRECORD
  5
5C4
102
{ACAD_REACTORS
330
5BE
102
}
330
5BE
100
AcDbXrecord
280
     1
270
     1
271
     1
  0
XRECORD
  5
5C1
102
{ACAD_REACTORS
330
5BE
102
}
330
5BE
100
AcDbXrecord
280
     1
270
     1
271
     1
  0
XRECORD
  5
62E
102
{ACAD_REACTORS
330
62D
102
}
330
62D
100
AcDbXrecord
280
     1
102
DISPLAYNAME
  1
Imperial24
102
FLAGS
 90
        0
  0
CELLSTYLEMAP
  5
62C
102
{ACAD_REACTORS
330
62B
102
}
330
62B
100
AcDbCellStyleMap
 90
        3
300
CELLSTYLE
  1
TABLEFORMAT_BEGIN
 90
        5
170
     1
 91
        0
 92
    32768
 62
   257
 93
        1
300
CONTENTFORMAT
  1
CONTENTFORMAT_BEGIN
 90
        0
 91
        0
 92
      512
 93
        0
300

 40
0.0
140
1.0
 94
        5
 62
     0
340
F
144
0.25
309
CONTENTFORMAT_END
171
     0
 94
        0
309
TABLEFORMAT_END
  1
CELLSTYLE_BEGIN
 90
        1
 91
        1
300
_TITLE
309
CELLSTYLE_END
300
CELLSTYLE
  1
TABLEFORMAT_BEGIN
 90
        5
170
     1
 91
        0
 92
        0
 62
   257
 93
        1
300
CONTENTFORMAT
  1
CONTENTFORMAT_BEGIN
 90
        0
 91
        0
 92
      512
 93
        0
300

 40
0.0
140
1.0
 94
        5
 62
     0
340
F
144
0.18
309
CONTENTFORMAT_END
171
     0
 94
        0
309
TABLEFORMAT_END
  1
CELLSTYLE_BEGIN
 90
        2
 91
        1
300
_HEADER
309
CELLSTYLE_END
300
CELLSTYLE
  1
TABLEFORMAT_BEGIN
 90
        5
170
     1
 91
        0
 92
        0
 62
   257
 93
        1
300
CONTENTFORMAT
  1
CONTENTFORMAT_BEGIN
 90
        0
 91
        0
 92
      512
 93
        0
300

 40
0.0
140
1.0
 94
        2
 62
     0
340
F
144
0.18
309
CONTENTFORMAT_END
171
     0
 94
        0
309
TABLEFORMAT_END
  1
CELLSTYLE_BEGIN
 90
        3
 91
        2
300
_DATA
309
CELLSTYLE_END
  0
ENDSEC
  0
EOF
