  0
SECTION
  2
HEADER
  9
$ACADVER
  1
AC1014
  9
$ACADMAINTVER
 70
     0
  9
$DWGCODEPAGE
  3
ANSI_1252
  9
$INSBASE
 10
0.0
 20
0.0
 30
0.0
  9
$EXTMIN
 10
-1.587743
 20
-3.441757
 30
0.0
  9
$EXTMAX
 10
17.933551
 20
9.26526
 30
0.0
  9
$LIMMIN
 10
0.0
 20
0.0
  9
$LIMMAX
 10
12.0
 20
9.0
  9
$ORTHOMODE
 70
     0
  9
$REGENMODE
 70
     1
  9
$FILLMODE
 70
     1
  9
$QTEXTMODE
 70
     0
  9
$MIRRTEXT
 70
     1
  9
$DRAGMODE
 70
     2
  9
$LTSCALE
 40
1.0
  9
$OSMODE
 70
   289
  9
$ATTMODE
 70
     1
  9
$TEXTSIZE
 40
0.2
  9
$TRACEWID
 40
0.05
  9
$TEXTSTYLE
  7
STANDARD
  9
$CLAYER
  8
DIMS_TEXT
  9
$CELTYPE
  6
BYLAYER
  9
$CECOLOR
 62
   256
  9
$CELTSCALE
 40
1.0
  9
$DELOBJ
 70
     1
  9
$DISPSILH
 70
     0
  9
$DIMSCALE
 40
0.0
  9
$DIMASZ
 40
0.15
  9
$DIMEXO
 40
0.0625
  9
$DIMDLI
 40
0.38
  9
$DIMRND
 40
0.0
  9
$DIMDLE
 40
0.0
  9
$DIMEXE
 40
0.18
  9
$DIMTP
 40
0.0
  9
$DIMTM
 40
0.0
  9
$DIMTXT
 40
0.15
  9
$DIMCEN
 40
0.09
  9
$DIMTSZ
 40
0.0
  9
$DIMTOL
 70
     0
  9
$DIMLIM
 70
     0
  9
$DIMTIH
 70
     1
  9
$DIMTOH
 70
     1
  9
$DIMSE1
 70
     0
  9
$DIMSE2
 70
     0
  9
$DIMTAD
 70
     0
  9
$DIMZIN
 70
     4
  9
$DIMBLK
  1

  9
$DIMASO
 70
     1
  9
$DIMSHO
 70
     1
  9
$DIMPOST
  1

  9
$DIMAPOST
  1

  9
$DIMALT
 70
     0
  9
$DIMALTD
 70
     2
  9
$DIMALTF
 40
25.4
  9
$DIMLFAC
 40
1.0
  9
$DIMTOFL
 70
     0
  9
$DIMTVP
 40
0.0
  9
$DIMTIX
 70
     0
  9
$DIMSOXD
 70
     0
  9
$DIMSAH
 70
     0
  9
$DIMBLK1
  1

  9
$DIMBLK2
  1

  9
$DIMSTYLE
  2
STANDARD
  9
$DIMCLRD
 70
     0
  9
$DIMCLRE
 70
     0
  9
$DIMCLRT
 70
     0
  9
$DIMTFAC
 40
1.0
  9
$DIMGAP
 40
0.09
  9
$DIMJUST
 70
     0
  9
$DIMSD1
 70
     0
  9
$DIMSD2
 70
     0
  9
$DIMTOLJ
 70
     1
  9
$DIMTZIN
 70
     0
  9
$DIMALTZ
 70
     0
  9
$DIMALTTZ
 70
     0
  9
$DIMFIT
 70
     3
  9
$DIMUPT
 70
     0
  9
$DIMUNIT
 70
     2
  9
$DIMDEC
 70
     3
  9
$DIMTDEC
 70
     4
  9
$DIMALTU
 70
     2
  9
$DIMALTTD
 70
     2
  9
$DIMTXSTY
  7
STANDARD
  9
$DIMAUNIT
 70
     0
  9
$LUNITS
 70
     2
  9
$LUPREC
 70
     4
  9
$SKETCHINC
 40
0.1
  9
$FILLETRAD
 40
0.125
  9
$AUNITS
 70
     0
  9
$AUPREC
 70
     0
  9
$MENU
  1
acad
  9
$ELEVATION
 40
0.0
  9
$PELEVATION
 40
0.0
  9
$THICKNESS
 40
0.0
  9
$LIMCHECK
 70
     0
  9
$BLIPMODE
 70
     0
  9
$CHAMFERA
 40
0.03
  9
$CHAMFERB
 40
0.03
  9
$CHAMFERC
 40
1.0
  9
$CHAMFERD
 40
0.0
  9
$SKPOLY
 70
     0
  9
$TDCREATE
 40
2451981.613614930
  9
$TDUPDATE
 40
2452207.508929745
  9
$TDINDWG
 40
0.1062399306
  9
$TDUSRTIMER
 40
0.1062399306
  9
$USRTIMER
 70
     1
  9
$ANGBASE
 50
0.0
  9
$ANGDIR
 70
     0
  9
$PDMODE
 70
     0
  9
$PDSIZE
 40
0.0
  9
$PLINEWID
 40
0.0
  9
$COORDS
 70
     1
  9
$SPLFRAME
 70
     0
  9
$SPLINETYPE
 70
     6
  9
$SPLINESEGS
 70
     8
  9
$ATTDIA
 70
     0
  9
$ATTREQ
 70
     1
  9
$HANDLING
 70
     1
  9
$HANDSEED
  5
5A0
  9
$SURFTAB1
 70
     6
  9
$SURFTAB2
 70
     6
  9
$SURFTYPE
 70
     6
  9
$SURFU
 70
     6
  9
$SURFV
 70
     6
  9
$UCSNAME
  2

  9
$UCSORG
 10
0.0
 20
0.0
 30
0.0
  9
$UCSXDIR
 10
1.0
 20
0.0
 30
0.0
  9
$UCSYDIR
 10
0.0
 20
1.0
 30
0.0
  9
$PUCSNAME
  2

  9
$PUCSORG
 10
0.0
 20
0.0
 30
0.0
  9
$PUCSXDIR
 10
1.0
 20
0.0
 30
0.0
  9
$PUCSYDIR
 10
0.0
 20
1.0
 30
0.0
  9
$USERI1
 70
     0
  9
$USERI2
 70
     0
  9
$USERI3
 70
     0
  9
$USERI4
 70
     0
  9
$USERI5
 70
     0
  9
$USERR1
 40
0.0
  9
$USERR2
 40
0.0
  9
$USERR3
 40
0.0
  9
$USERR4
 40
0.0
  9
$USERR5
 40
0.0
  9
$WORLDVIEW
 70
     1
  9
$SHADEDGE
 70
     3
  9
$SHADEDIF
 70
    70
  9
$TILEMODE
 70
     1
  9
$MAXACTVP
 70
    48
  9
$PINSBASE
 10
0.0
 20
0.0
 30
0.0
  9
$PLIMCHECK
 70
     0
  9
$PEXTMIN
 10
1.000000E+20
 20
1.000000E+20
 30
1.000000E+20
  9
$PEXTMAX
 10
-1.000000E+20
 20
-1.000000E+20
 30
-1.000000E+20
  9
$PLIMMIN
 10
0.0
 20
0.0
  9
$PLIMMAX
 10
12.0
 20
9.0
  9
$UNITMODE
 70
     0
  9
$VISRETAIN
 70
     1
  9
$PLINEGEN
 70
     0
  9
$PSLTSCALE
 70
     1
  9
$TREEDEPTH
 70
  3020
  9
$PICKSTYLE
 70
     1
  9
$CMLSTYLE
  2
STANDARD
  9
$CMLJUST
 70
     0
  9
$CMLSCALE
 40
1.0
  9
$PROXYGRAPHICS
 70
     1
  9
$MEASUREMENT
 70
     0
  0
ENDSEC
  0
SECTION
  2
CLASSES
  0
CLASS
  1
LWPOLYLINE
  2
AcDbPolyline
  3
"AutoCAD"
 90
        0
280
     0
281
     1
  0
ENDSEC
  0
SECTION
  2
TABLES
  0
TABLE
  2
VPORT
  5
8
100
AcDbSymbolTable
 70
     1
  0
VPORT
  5
59C
100
AcDbSymbolTableRecord
100
AcDbViewportTableRecord
  2
*ACTIVE
 70
     0
 10
0.0
 20
0.0
 11
1.0
 21
1.0
 12
12.647488
 22
2.306833
 13
0.0
 23
0.0
 14
0.5
 24
0.5
 15
0.5
 25
0.5
 16
0.0
 26
0.0
 36
1.0
 17
0.0
 27
0.0
 37
0.0
 40
15.730919
 41
2.151163
 42
50.0
 43
0.0
 44
0.0
 50
0.0
 51
0.0
 71
     0
 72
   100
 73
     1
 74
     1
 75
     0
 76
     0
 77
     0
 78
     0
  0
ENDTAB
  0
TABLE
  2
LTYPE
  5
5
100
AcDbSymbolTable
 70
     4
  0
LTYPE
  5
12
100
AcDbSymbolTableRecord
100
AcDbLinetypeTableRecord
  2
BYBLOCK
 70
     0
  3

 72
    65
 73
     0
 40
0.0
  0
LTYPE
  5
13
100
AcDbSymbolTableRecord
100
AcDbLinetypeTableRecord
  2
BYLAYER
 70
     0
  3

 72
    65
 73
     0
 40
0.0
  0
LTYPE
  5
14
100
AcDbSymbolTableRecord
100
AcDbLinetypeTableRecord
  2
CONTINUOUS
 70
     0
  3
Solid line
 72
    65
 73
     0
 40
0.0
  0
LTYPE
  5
5F
100
AcDbSymbolTableRecord
100
AcDbLinetypeTableRecord
  2
CENTER
 70
     0
  3
Center ____ _ ____ _ ____ _ ____ _ ____ _ ____
 72
    65
 73
     4
 40
2.0
 49
1.25
 74
     0
 49
-0.25
 74
     0
 49
0.25
 74
     0
 49
-0.25
 74
     0
  0
LTYPE
  5
60
100
AcDbSymbolTableRecord
100
AcDbLinetypeTableRecord
  2
DASHED2
 70
     0
  3
Dashed (.5x) _ _ _ _ _ _ _ _ _ _ _ _ _ _ _ _ _
 72
    65
 73
     2
 40
0.375
 49
0.25
 74
     0
 49
-0.125
 74
     0
  0
LTYPE
  5
61
100
AcDbSymbolTableRecord
100
AcDbLinetypeTableRecord
  2
HIDDEN2
 70
     0
  3
Hidden (.5x) _ _ _ _ _ _ _ _ _ _ _ _ _ _ _ _ _
 72
    65
 73
     2
 40
0.1875
 49
0.125
 74
     0
 49
-0.0625
 74
     0
  0
ENDTAB
  0
TABLE
  2
LAYER
  5
2
100
AcDbSymbolTable
 70
     6
  0
LAYER
  5
E
100
AcDbSymbolTableRecord
100
AcDbLayerTableRecord
  2
0
 70
     0
 62
     7
  6
CONTINUOUS
  0
LAYER
  5
62
100
AcDbSymbolTableRecord
100
AcDbLayerTableRecord
  2
TB
 70
     0
 62
     7
  6
CONTINUOUS
  0
LAYER
  5
63
100
AcDbSymbolTableRecord
100
AcDbLayerTableRecord
  2
CTR_LINES
 70
     0
 62
     1
  6
CENTER
  0
LAYER
  5
64
100
AcDbSymbolTableRecord
100
AcDbLayerTableRecord
  2
DIMS_TEXT
 70
     0
 62
     3
  6
CONTINUOUS
  0
LAYER
  5
65
100
AcDbSymbolTableRecord
100
AcDbLayerTableRecord
  2
DEFPOINTS
 70
     0
 62
     7
  6
CONTINUOUS
  0
LAYER
  5
66
100
AcDbSymbolTableRecord
100
AcDbLayerTableRecord
  2
HIDDEN_LINE
 70
     0
 62
     4
  6
HIDDEN2
  0
ENDTAB
  0
TABLE
  2
STYLE
  5
3
100
AcDbSymbolTable
 70
     1
  0
STYLE
  5
F
100
AcDbSymbolTableRecord
100
AcDbTextStyleTableRecord
  2
STANDARD
 70
     0
 40
0.0
 41
1.0
 50
0.0
 71
     0
 42
0.2
  3
txt
  4

  0
ENDTAB
  0
TABLE
  2
VIEW
  5
6
100
AcDbSymbolTable
 70
     0
  0
ENDTAB
  0
TABLE
  2
UCS
  5
7
100
AcDbSymbolTable
 70
     0
  0
ENDTAB
  0
TABLE
  2
APPID
  5
9
100
AcDbSymbolTable
 70
     1
  0
APPID
  5
10
100
AcDbSymbolTableRecord
100
AcDbRegAppTableRecord
  2
ACAD
 70
     0
  0
ENDTAB
  0
TABLE
  2
DIMSTYLE
  5
A
100
AcDbSymbolTable
 70
     1
  0
DIMSTYLE
105
1D
102
{ACAD_REACTORS
330
14C
330
333
330
340
330
365
330
381
330
39C
330
3C4
330
3DE
330
408
330
430
330
43E
330
44C
330
472
330
48A
330
4C0
330
4CE
102
}
100
AcDbSymbolTableRecord
100
AcDbDimStyleTableRecord
  2
STANDARD
 70
     0
  3

  4

  5

  6

  7

 40
1.0
 41
0.18
 42
0.0625
 43
0.38
 44
0.18
 45
0.0
 46
0.0
 47
0.0
 48
0.0
140
0.18
141
0.09
142
0.0
143
25.4
144
1.0
145
0.0
146
1.0
147
0.09
 71
     0
 72
     0
 73
     1
 74
     1
 75
     0
 76
     0
 77
     0
 78
     0
170
     0
171
     2
172
     0
173
     0
174
     0
175
     0
176
     0
177
     0
178
     0
270
     2
271
     4
272
     4
273
     2
274
     2
340
F
275
     0
280
     0
281
     0
282
     0
283
     1
284
     0
285
     0
286
     0
287
     3
288
     0
  0
ENDTAB
  0
TABLE
  2
BLOCK_RECORD
  5
1
100
AcDbSymbolTable
 70
    23
  0
BLOCK_RECORD
  5
18
100
AcDbSymbolTableRecord
100
AcDbBlockTableRecord
  2
*MODEL_SPACE
  0
BLOCK_RECORD
  5
15
100
AcDbSymbolTableRecord
100
AcDbBlockTableRecord
  2
*PAPER_SPACE
  0
BLOCK_RECORD
  5
21
100
AcDbSymbolTableRecord
100
AcDbBlockTableRecord
  2
*D0
  0
BLOCK_RECORD
  5
2C
100
AcDbSymbolTableRecord
100
AcDbBlockTableRecord
  2
*D1
  0
BLOCK_RECORD
  5
39
100
AcDbSymbolTableRecord
100
AcDbBlockTableRecord
  2
*D2
  0
BLOCK_RECORD
  5
46
100
AcDbSymbolTableRecord
100
AcDbBlockTableRecord
  2
*D3
  0
BLOCK_RECORD
  5
54
100
AcDbSymbolTableRecord
100
AcDbBlockTableRecord
  2
*D4
  0
BLOCK_RECORD
  5
67
100
AcDbSymbolTableRecord
100
AcDbBlockTableRecord
  2
BOB1
  0
BLOCK_RECORD
  5
219
100
AcDbSymbolTableRecord
100
AcDbBlockTableRecord
  2
*D6
  0
BLOCK_RECORD
  5
326
100
AcDbSymbolTableRecord
100
AcDbBlockTableRecord
  2
*D7
  0
BLOCK_RECORD
  5
334
100
AcDbSymbolTableRecord
100
AcDbBlockTableRecord
  2
*D8
  0
BLOCK_RECORD
  5
358
100
AcDbSymbolTableRecord
100
AcDbBlockTableRecord
  2
*D9
  0
BLOCK_RECORD
  5
374
100
AcDbSymbolTableRecord
100
AcDbBlockTableRecord
  2
*D10
  0
BLOCK_RECORD
  5
38E
100
AcDbSymbolTableRecord
100
AcDbBlockTableRecord
  2
*D11
  0
BLOCK_RECORD
  5
3B7
100
AcDbSymbolTableRecord
100
AcDbBlockTableRecord
  2
*D12
  0
BLOCK_RECORD
  5
3D1
100
AcDbSymbolTableRecord
100
AcDbBlockTableRecord
  2
*D13
  0
BLOCK_RECORD
  5
3FB
100
AcDbSymbolTableRecord
100
AcDbBlockTableRecord
  2
*D14
  0
BLOCK_RECORD
  5
423
100
AcDbSymbolTableRecord
100
AcDbBlockTableRecord
  2
*D15
  0
BLOCK_RECORD
  5
431
100
AcDbSymbolTableRecord
100
AcDbBlockTableRecord
  2
*D16
  0
BLOCK_RECORD
  5
43F
100
AcDbSymbolTableRecord
100
AcDbBlockTableRecord
  2
*D17
  0
BLOCK_RECORD
  5
465
100
AcDbSymbolTableRecord
100
AcDbBlockTableRecord
  2
*D18
  0
BLOCK_RECORD
  5
47F
100
AcDbSymbolTableRecord
100
AcDbBlockTableRecord
  2
*D19
  0
BLOCK_RECORD
  5
4B3
100
AcDbSymbolTableRecord
100
AcDbBlockTableRecord
  2
*D20
  0
BLOCK_RECORD
  5
4C1
100
AcDbSymbolTableRecord
100
AcDbBlockTableRecord
  2
*D21
  0
BLOCK_RECORD
  5
57A
100
AcDbSymbolTableRecord
100
AcDbBlockTableRecord
  2
TITLE_BLOCK
  0
ENDTAB
  0
ENDSEC
  0
SECTION
  2
BLOCKS
  0
BLOCK
  5
19
100
AcDbEntity
  8
0
100
AcDbBlockBegin
  2
*MODEL_SPACE
 70
     0
 10
0.0
 20
0.0
 30
0.0
  3
*MODEL_SPACE
  1

  0
ENDBLK
  5
1A
100
AcDbEntity
  8
0
100
AcDbBlockEnd
  0
BLOCK
  5
16
100
AcDbEntity
 67
     1
  8
0
100
AcDbBlockBegin
  2
*PAPER_SPACE
 70
     0
 10
0.0
 20
0.0
 30
0.0
  3
*PAPER_SPACE
  1

  0
ENDBLK
  5
17
100
AcDbEntity
 67
     1
  8
0
100
AcDbBlockEnd
  0
BLOCK
  5
2A
100
AcDbEntity
  8
0
100
AcDbBlockBegin
  2
*D0
 70
     1
 10
0.0
 20
0.0
 30
0.0
  3
*D0
  1

  0
LINE
  5
22
100
AcDbEntity
  8
0
  6
BYBLOCK
 62
     0
100
AcDbLine
 10
8.143418
 20
3.355311
 30
0.0
 11
7.716409
 21
3.355311
 31
0.0
  0
LINE
  5
23
100
AcDbEntity
  8
0
  6
BYBLOCK
 62
     0
100
AcDbLine
 10
7.716409
 20
3.355311
 30
0.0
 11
6.401407
 21
4.461319
 31
0.0
  0
MTEXT
  5
24
100
AcDbEntity
  8
0
  6
BYBLOCK
 62
     0
100
AcDbMText
 10
8.296733
 20
3.355311
 30
0.0
 40
0.13
 41
0.0
 71
     5
 72
     1
  1
\A1;\U+2205
  0
SOLID
  5
25
100
AcDbEntity
  8
0
  6
BYBLOCK
 62
     0
100
AcDbTrace
 10
6.420717
 20
4.484278
 30
0.0
 11
6.382097
 21
4.43836
 31
0.0
 12
6.263653
 22
4.57718
 32
0.0
 13
6.263653
 23
4.57718
 33
0.0
  0
LINE
  5
26
100
AcDbEntity
  8
0
  6
BYBLOCK
 62
     0
100
AcDbLine
 10
6.048143
 20
4.682742
 30
0.0
 11
6.228143
 21
4.682742
 31
0.0
  0
LINE
  5
27
100
AcDbEntity
  8
0
  6
BYBLOCK
 62
     0
100
AcDbLine
 10
6.138143
 20
4.592742
 30
0.0
 11
6.138143
 21
4.772742
 31
0.0
  0
POINT
  5
28
100
AcDbEntity
  8
DEFPOINTS
  6
BYBLOCK
 62
     0
100
AcDbPoint
 10
6.263653
 20
4.57718
 30
0.0
  0
POINT
  5
29
100
AcDbEntity
  8
DEFPOINTS
  6
BYBLOCK
 62
     0
100
AcDbPoint
 10
6.012634
 20
4.788304
 30
0.0
  0
ENDBLK
  5
2B
100
AcDbEntity
  8
0
100
AcDbBlockEnd
  0
BLOCK
  5
37
100
AcDbEntity
  8
0
100
AcDbBlockBegin
  2
*D1
 70
     1
 10
0.0
 20
0.0
 30
0.0
  3
*D1
  1

  0
LINE
  5
2D
100
AcDbEntity
  8
0
  6
BYBLOCK
 62
     0
100
AcDbLine
 10
2.825643
 20
1.682742
 30
0.0
 11
0.606257
 21
1.682742
 31
0.0
  0
LINE
  5
2E
100
AcDbEntity
  8
0
  6
BYBLOCK
 62
     0
100
AcDbLine
 10
1.825643
 20
6.057742
 30
0.0
 11
0.606257
 21
6.057742
 31
0.0
  0
LINE
  5
2F
100
AcDbEntity
  8
0
  6
BYBLOCK
 62
     0
100
AcDbLine
 10
0.786257
 20
1.862742
 30
0.0
 11
0.786257
 21
3.554628
 31
0.0
  0
LINE
  5
30
100
AcDbEntity
  8
0
  6
BYBLOCK
 62
     0
100
AcDbLine
 10
0.786257
 20
5.877742
 30
0.0
 11
0.786257
 21
4.185856
 31
0.0
  0
SOLID
  5
31
100
AcDbEntity
  8
0
  6
BYBLOCK
 62
     0
100
AcDbTrace
 10
0.756257
 20
1.862742
 30
0.0
 11
0.816257
 21
1.862742
 31
0.0
 12
0.786257
 22
1.682742
 32
0.0
 13
0.786257
 23
1.682742
 33
0.0
  0
SOLID
  5
32
100
AcDbEntity
  8
0
  6
BYBLOCK
 62
     0
100
AcDbTrace
 10
0.756257
 20
5.877742
 30
0.0
 11
0.816257
 21
5.877742
 31
0.0
 12
0.786257
 22
6.057742
 32
0.0
 13
0.786257
 23
6.057742
 33
0.0
  0
MTEXT
  5
33
100
AcDbEntity
  8
0
  6
BYBLOCK
 62
     0
100
AcDbMText
 10
0.786257
 20
3.870242
 30
0.0
 40
0.15
 41
0.0
 71
     5
 72
     1
  1
\A1;\L4.377\P\l4.373
  0
POINT
  5
34
100
AcDbEntity
  8
DEFPOINTS
  6
BYBLOCK
 62
     0
100
AcDbPoint
 10
2.888143
 20
1.682742
 30
0.0
  0
POINT
  5
35
100
AcDbEntity
  8
DEFPOINTS
  6
BYBLOCK
 62
     0
100
AcDbPoint
 10
1.888143
 20
6.057742
 30
0.0
  0
POINT
  5
36
100
AcDbEntity
  8
DEFPOINTS
  6
BYBLOCK
 62
     0
100
AcDbPoint
 10
0.786257
 20
6.057742
 30
0.0
  0
ENDBLK
  5
38
100
AcDbEntity
  8
0
100
AcDbBlockEnd
  0
BLOCK
  5
44
100
AcDbEntity
  8
0
100
AcDbBlockBegin
  2
*D2
 70
     1
 10
0.0
 20
0.0
 30
0.0
  3
*D2
  1

  0
LINE
  5
3A
100
AcDbEntity
  8
0
  6
BYBLOCK
 62
     0
100
AcDbLine
 10
-4.05678
 20
7.995242
 30
0.0
 11
-4.05678
 21
8.683002
 31
0.0
  0
LINE
  5
3B
100
AcDbEntity
  8
0
  6
BYBLOCK
 62
     0
100
AcDbLine
 10
-4.86878
 20
7.995242
 30
0.0
 11
-4.86878
 21
8.683002
 31
0.0
  0
LINE
  5
3C
100
AcDbEntity
  8
0
  6
BYBLOCK
 62
     0
100
AcDbLine
 10
-4.23678
 20
8.503002
 30
0.0
 11
-4.68878
 21
8.503002
 31
0.0
  0
LINE
  5
3D
100
AcDbEntity
  8
0
  6
BYBLOCK
 62
     0
100
AcDbLine
 10
-4.86878
 20
8.503002
 30
0.0
 11
-5.945451
 21
8.503002
 31
0.0
  0
SOLID
  5
3E
100
AcDbEntity
  8
0
  6
BYBLOCK
 62
     0
100
AcDbTrace
 10
-4.23678
 20
8.533002
 30
0.0
 11
-4.23678
 21
8.473002
 31
0.0
 12
-4.05678
 22
8.503002
 32
0.0
 13
-4.05678
 23
8.503002
 33
0.0
  0
SOLID
  5
3F
100
AcDbEntity
  8
0
  6
BYBLOCK
 62
     0
100
AcDbTrace
 10
-4.68878
 20
8.533002
 30
0.0
 11
-4.68878
 21
8.473002
 31
0.0
 12
-4.86878
 22
8.503002
 32
0.0
 13
-4.86878
 23
8.503002
 33
0.0
  0
MTEXT
  5
40
100
AcDbEntity
  8
0
  6
BYBLOCK
 62
     0
100
AcDbMText
 10
-6.266283
 20
8.503002
 30
0.0
 40
0.15
 41
0.0
 71
     5
 72
     1
  1
\A1;\L.814\P\l.810\PTYP.
  0
POINT
  5
41
100
AcDbEntity
  8
DEFPOINTS
  6
BYBLOCK
 62
     0
100
AcDbPoint
 10
-4.05678
 20
7.932742
 30
0.0
  0
POINT
  5
42
100
AcDbEntity
  8
DEFPOINTS
  6
BYBLOCK
 62
     0
100
AcDbPoint
 10
-4.86878
 20
7.932742
 30
0.0
  0
POINT
  5
43
100
AcDbEntity
  8
DEFPOINTS
  6
BYBLOCK
 62
     0
100
AcDbPoint
 10
-4.86878
 20
8.503002
 30
0.0
  0
ENDBLK
  5
45
100
AcDbEntity
  8
0
100
AcDbBlockEnd
  0
BLOCK
  5
52
100
AcDbEntity
  8
0
100
AcDbBlockBegin
  2
*D3
 70
     1
 10
0.0
 20
0.0
 30
0.0
  3
*D3
  1

  0
LINE
  5
47
100
AcDbEntity
  8
0
  6
BYBLOCK
 62
     0
100
AcDbLine
 10
-2.69278
 20
4.682742
 30
0.0
 11
-0.739789
 21
4.682742
 31
0.0
  0
LINE
  5
48
100
AcDbEntity
  8
0
  6
BYBLOCK
 62
     0
100
AcDbLine
 10
-2.63028
 20
7.432742
 30
0.0
 11
-0.739789
 21
7.432742
 31
0.0
  0
LINE
  5
49
100
AcDbEntity
  8
0
  6
BYBLOCK
 62
     0
100
AcDbLine
 10
-0.919789
 20
4.862742
 30
0.0
 11
-0.919789
 21
7.252742
 31
0.0
  0
LINE
  5
4A
100
AcDbEntity
  8
0
  6
BYBLOCK
 62
     0
100
AcDbLine
 10
-0.919789
 20
7.432742
 30
0.0
 11
-0.919789
 21
8.300195
 31
0.0
  0
LINE
  5
4B
100
AcDbEntity
  8
0
  6
BYBLOCK
 62
     0
100
AcDbLine
 10
-0.919789
 20
8.300195
 30
0.0
 11
-0.739789
 21
8.300195
 31
0.0
  0
SOLID
  5
4C
100
AcDbEntity
  8
0
  6
BYBLOCK
 62
     0
100
AcDbTrace
 10
-0.949789
 20
4.862742
 30
0.0
 11
-0.889789
 21
4.862742
 31
0.0
 12
-0.919789
 22
4.682742
 32
0.0
 13
-0.919789
 23
4.682742
 33
0.0
  0
SOLID
  5
4D
100
AcDbEntity
  8
0
  6
BYBLOCK
 62
     0
100
AcDbTrace
 10
-0.949789
 20
7.252742
 30
0.0
 11
-0.889789
 21
7.252742
 31
0.0
 12
-0.919789
 22
7.432742
 32
0.0
 13
-0.919789
 23
7.432742
 33
0.0
  0
MTEXT
  5
4E
100
AcDbEntity
  8
0
  6
BYBLOCK
 62
     0
100
AcDbMText
 10
-0.395475
 20
8.300195
 30
0.0
 40
0.15
 41
0.0
 71
     5
 72
     1
  1
\A1;\L2.754\P\l2.746\PTYP.
  0
POINT
  5
4F
100
AcDbEntity
  8
DEFPOINTS
  6
BYBLOCK
 62
     0
100
AcDbPoint
 10
-2.75528
 20
4.682742
 30
0.0
  0
POINT
  5
50
100
AcDbEntity
  8
DEFPOINTS
  6
BYBLOCK
 62
     0
100
AcDbPoint
 10
-2.69278
 20
7.432742
 30
0.0
  0
POINT
  5
51
100
AcDbEntity
  8
DEFPOINTS
  6
BYBLOCK
 62
     0
100
AcDbPoint
 10
-0.919789
 20
7.432742
 30
0.0
  0
ENDBLK
  5
53
100
AcDbEntity
  8
0
100
AcDbBlockEnd
  0
BLOCK
  5
5D
100
AcDbEntity
  8
0
100
AcDbBlockBegin
  2
*D4
 70
     1
 10
0.0
 20
0.0
 30
0.0
  3
*D4
  1

  0
LINE
  5
55
100
AcDbEntity
  8
0
  6
BYBLOCK
 62
     0
100
AcDbLine
 10
-0.754711
 20
3.379132
 30
0.0
 11
-1.255369
 21
3.379132
 31
0.0
  0
LINE
  5
56
100
AcDbEntity
  8
0
  6
BYBLOCK
 62
     0
100
AcDbLine
 10
-1.255369
 20
3.379132
 30
0.0
 11
-2.050113
 21
4.410278
 31
0.0
  0
MTEXT
  5
57
100
AcDbEntity
  8
0
  6
BYBLOCK
 62
     0
100
AcDbMText
 10
-0.368282
 20
3.379132
 30
0.0
 40
0.15
 41
0.0
 71
     5
 72
     1
  1
\A1;\U+2205.328\PX 12
  0
SOLID
  5
58
100
AcDbEntity
  8
0
  6
BYBLOCK
 62
     0
100
AcDbTrace
 10
-2.026352
 20
4.428592
 30
0.0
 11
-2.073875
 21
4.391964
 31
0.0
 12
-2.159996
 22
4.552847
 32
0.0
 13
-2.159996
 23
4.552847
 33
0.0
  0
LINE
  5
59
100
AcDbEntity
  8
0
  6
BYBLOCK
 62
     0
100
AcDbLine
 10
-2.350112
 20
4.682742
 30
0.0
 11
-2.170112
 21
4.682742
 31
0.0
  0
LINE
  5
5A
100
AcDbEntity
  8
0
  6
BYBLOCK
 62
     0
100
AcDbLine
 10
-2.260112
 20
4.592742
 30
0.0
 11
-2.260112
 21
4.772742
 31
0.0
  0
POINT
  5
5B
100
AcDbEntity
  8
DEFPOINTS
  6
BYBLOCK
 62
     0
100
AcDbPoint
 10
-2.159996
 20
4.552847
 30
0.0
  0
POINT
  5
5C
100
AcDbEntity
  8
DEFPOINTS
  6
BYBLOCK
 62
     0
100
AcDbPoint
 10
-2.360227
 20
4.812638
 30
0.0
  0
ENDBLK
  5
5E
100
AcDbEntity
  8
0
100
AcDbBlockEnd
  0
BLOCK
  5
12C
100
AcDbEntity
  8
0
100
AcDbBlockBegin
  2
BOB1
 70
     0
 10
0.0
 20
0.0
 30
0.0
  3
BOB1
  1

  0
MTEXT
  5
68
102
{ACAD_REACTORS
330
69
102
}
100
AcDbEntity
  8
DIMS_TEXT
100
AcDbMText
 10
5.736281
 20
-3.921933
 30
0.0
 40
0.15
 41
0.0
 71
     4
 72
     1
  1
\A1;LETTER 'R' DRILL THRU\PONE SIDE.\P.125-27 NP THREADS\PFOR LEVEL SEAL PIPE PLUG.
  0
LEADER
  5
69
100
AcDbEntity
  8
DIMS_TEXT
100
AcDbLeader
  3
STANDARD
 73
     0
 40
0.9
 41
3.6
 76
     3
 10
3.782087
 20
-0.903665
 30
0.0
 10
5.5546
 20
-3.921933
 30
0.0
 10
5.646281
 20
-3.921933
 30
0.0
 77
   256
340
68
1001
ACAD
1000
DSTYLE
1002
{
1070
    78
1070
     4
1070
   284
1070
     4
1070
   140
1040
0.13
1070
   272
1070
     1
1070
   271
1070
     3
1002
}
  0
DIMENSION
  5
6A
100
AcDbEntity
  8
DIMS_TEXT
100
AcDbDimension
  2
*D0
 10
4.186991
 20
-1.269438
 30
0.0
 11
6.47109
 21
-2.702431
 31
0.0
 12
-1.825643
 22
-6.057742
 32
0.0
 70
   131
  1
%%c
  3
STANDARD
100
AcDbDiametricDimension
 15
4.438009
 25
-1.480562
 35
0.0
 40
0.0
1001
ACAD
1000
DSTYLE
1002
{
1070
    78
1070
     4
1070
   288
1070
     1
1070
   284
1070
     4
1070
   140
1040
0.13
1070
   272
1070
     1
1070
   271
1070
     3
1002
}
  0
LINE
  5
6B
100
AcDbEntity
  8
CTR_LINES
100
AcDbLine
 10
-6.577784
 20
-1.375
 30
0.0
 11
6.160492
 21
-1.375
 31
0.0
  0
LINE
  5
6C
100
AcDbEntity
  8
CTR_LINES
100
AcDbLine
 10
-6.577784
 20
1.375
 30
0.0
 11
6.160492
 21
1.375
 31
0.0
  0
ARC
  5
6D
100
AcDbEntity
  8
0
100
AcDbCircle
 10
4.3125
 20
-1.375
 30
0.0
 40
0.4375
100
AcDbArc
 50
225.0
 51
45.0
  0
ARC
  5
6E
100
AcDbEntity
  8
0
100
AcDbCircle
 10
4.933915
 20
-1.437
 30
0.0
 40
0.187
100
AcDbArc
 50
90.0
 51
174.302322
  0
ARC
  5
6F
100
AcDbEntity
  8
0
100
AcDbCircle
 10
4.937
 20
-0.812
 30
0.0
 40
0.187
100
AcDbArc
 50
90.0
 51
180.0
  0
LINE
  5
70
100
AcDbEntity
  8
0
100
AcDbLine
 10
3.562
 20
0.625
 30
0.0
 11
5.1255
 21
0.625
 31
0.0
  0
LINE
  5
71
100
AcDbEntity
  8
0
100
AcDbLine
 10
3.558915
 20
1.25
 30
0.0
 11
5.1255
 21
1.25
 31
0.0
  0
LINE
  5
72
100
AcDbEntity
  8
CTR_LINES
100
AcDbLine
 10
-0.944445
 20
-0.75
 30
0.0
 11
6.160492
 21
-0.75
 31
0.0
  0
LINE
  5
73
100
AcDbEntity
  8
CTR_LINES
100
AcDbLine
 10
-0.944445
 20
-1.375
 30
0.0
 11
6.160492
 21
-1.375
 31
0.0
  0
LINE
  5
74
100
AcDbEntity
  8
CTR_LINES
100
AcDbLine
 10
-0.944445
 20
1.375
 30
0.0
 11
6.160492
 21
1.375
 31
0.0
  0
LINE
  5
75
100
AcDbEntity
  8
CTR_LINES
100
AcDbLine
 10
-6.577784
 20
0.0
 30
0.0
 11
6.160492
 21
0.0
 31
0.0
  0
DIMENSION
  5
76
100
AcDbEntity
  8
DIMS_TEXT
100
AcDbDimension
  2
*D3
 10
-1.760764
 20
1.375
 30
0.0
 11
-1.23645
 21
2.242453
 31
0.0
 12
-0.840975
 22
-6.057742
 32
0.0
 70
   128
  1
\L2.754\P\l2.746\PTYP.
  3
STANDARD
100
AcDbAlignedDimension
 13
-3.596255
 23
-1.375
 33
0.0
 14
-3.533755
 24
1.375
 34
0.0
 50
90.0
100
AcDbRotatedDimension
1001
ACAD
1000
DSTYLE
1002
{
1070
    78
1070
     4
1070
   284
1070
     4
1070
   140
1040
0.15
1070
   272
1070
     1
1070
   271
1070
     3
1002
}
  0
DIMENSION
  5
77
100
AcDbEntity
  8
DIMS_TEXT
100
AcDbDimension
  2
*D1
 10
-1.039387
 20
0.0
 30
0.0
 11
-1.039387
 21
-2.1875
 31
0.0
 12
-1.825643
 22
-6.057742
 32
0.0
  1
\L4.377\P\l4.373
  3
STANDARD
100
AcDbAlignedDimension
 13
1.0625
 23
-4.375
 33
0.0
 14
0.0625
 24
0.0
 34
0.0
 50
90.0
100
AcDbRotatedDimension
1001
ACAD
1000
DSTYLE
1002
{
1070
    78
1070
     4
1070
   284
1070
     4
1070
   140
1040
0.15
1070
   272
1070
     1
1070
   271
1070
     3
1002
}
  0
LINE
  5
78
100
AcDbEntity
  8
CTR_LINES
100
AcDbLine
 10
-5.709755
 20
2.255691
 30
0.0
 11
-5.709755
 21
-4.527492
 31
0.0
  0
LINE
  5
79
100
AcDbEntity
  8
CTR_LINES
100
AcDbLine
 10
-4.085755
 20
2.255691
 30
0.0
 11
-4.085755
 21
-4.527492
 31
0.0
  0
CIRCLE
  5
7A
100
AcDbEntity
  8
HIDDEN_LINE
  6
HIDDEN2
100
AcDbCircle
 10
-4.897755
 20
0.0
 30
0.0
 40
0.9685
  0
CIRCLE
  5
7B
100
AcDbEntity
  8
0
  6
CONTINUOUS
100
AcDbCircle
 10
-4.897755
 20
0.0
 30
0.0
 40
0.92525
  0
LINE
  5
7C
100
AcDbEntity
  8
0
100
AcDbLine
 10
-6.159255
 20
0.877
 30
0.0
 11
-6.159255
 21
-0.8775
 31
0.0
  0
LINE
  5
7D
100
AcDbEntity
  8
0
100
AcDbLine
 10
-3.660869
 20
0.876942
 30
0.0
 11
-3.659772
 21
-0.252558
 31
0.0
  0
LINE
  5
7E
100
AcDbEntity
  8
0
100
AcDbLine
 10
-3.658255
 20
0.521936
 30
0.0
 11
-3.658255
 21
-0.521936
 31
0.0
  0
LINE
  5
7F
100
AcDbEntity
  8
0
100
AcDbLine
 10
-6.159255
 20
0.520728
 30
0.0
 11
-6.159255
 21
-0.520728
 31
0.0
  0
LINE
  5
80
100
AcDbEntity
  8
CTR_LINES
100
AcDbLine
 10
3.6875
 20
2.857699
 30
0.0
 11
3.6875
 21
-1.612511
 31
0.0
  0
LINE
  5
81
100
AcDbEntity
  8
CTR_LINES
100
AcDbLine
 10
1.5625
 20
2.857699
 30
0.0
 11
1.5625
 21
-4.671913
 31
0.0
  0
LINE
  5
82
100
AcDbEntity
  8
CTR_LINES
100
AcDbLine
 10
4.3125
 20
2.857699
 30
0.0
 11
4.3125
 21
-4.641088
 31
0.0
  0
LINE
  5
83
100
AcDbEntity
  8
0
100
AcDbLine
 10
0.0625
 20
1.875
 30
0.0
 11
0.0625
 21
-1.875
 31
0.0
  0
LEADER
  5
84
100
AcDbEntity
  8
DIMS_TEXT
100
AcDbLeader
  3
STANDARD
 76
     2
 10
-5.605005
 20
-5.727852
 30
0.0
 10
-4.897755
 20
-5.727852
 30
0.0
 77
   256
1001
ACAD
1000
DSTYLE
1002
{
1070
    78
1070
     4
1070
   284
1070
     4
1070
   140
1040
0.13
1070
   272
1070
     1
1070
   271
1070
     3
1002
}
  0
DIMENSION
  5
85
100
AcDbEntity
  8
DIMS_TEXT
100
AcDbDimension
  2
*D4
 10
-4.185871
 20
-1.245104
 30
0.0
 11
-2.193926
 21
-2.67861
 31
0.0
 12
-1.825643
 22
-6.057742
 32
0.0
 70
   131
  1
<>\PX 12
  3
STANDARD
100
AcDbDiametricDimension
 15
-3.98564
 25
-1.504896
 35
0.0
 40
0.0
1001
ACAD
1000
DSTYLE
1002
{
1070
    78
1070
     4
1070
   288
1070
     1
1070
   284
1070
     4
1070
   140
1040
0.15
1070
   272
1070
     1
1070
   271
1070
     3
1002
}
  0
LINE
  5
86
100
AcDbEntity
  8
HIDDEN_LINE
  6
HIDDEN2
100
AcDbLine
 10
-5.545755
 20
-3.875
 30
0.0
 11
-5.545755
 21
-4.375
 31
0.0
  0
LINE
  5
87
100
AcDbEntity
  8
HIDDEN_LINE
  6
HIDDEN2
100
AcDbLine
 10
-5.873755
 20
-3.875
 30
0.0
 11
-5.873755
 21
-4.375
 31
0.0
  0
LINE
  5
88
100
AcDbEntity
  8
HIDDEN_LINE
  6
HIDDEN2
100
AcDbLine
 10
-4.249755
 20
-3.875
 30
0.0
 11
-4.249755
 21
-4.375
 31
0.0
  0
LINE
  5
89
100
AcDbEntity
  8
HIDDEN_LINE
  6
HIDDEN2
100
AcDbLine
 10
-3.921755
 20
-3.875
 30
0.0
 11
-3.921755
 21
-4.375
 31
0.0
  0
LINE
  5
8A
100
AcDbEntity
  8
0
100
AcDbLine
 10
-6.159255
 20
-1.8125
 30
0.0
 11
-6.159255
 21
-4.375
 31
0.0
  0
LINE
  5
8B
100
AcDbEntity
  8
0
100
AcDbLine
 10
-3.658258
 20
-1.8125
 30
0.0
 11
-3.65577
 21
-4.375
 31
0.0
  0
ARC
  5
8C
100
AcDbEntity
  8
0
100
AcDbCircle
 10
-4.460755
 20
-3.688
 30
0.0
 40
0.187
100
AcDbArc
 50
180.0
 51
270.0
  0
ARC
  5
8D
100
AcDbEntity
  8
0
100
AcDbCircle
 10
-5.334755
 20
-3.688
 30
0.0
 40
0.187
100
AcDbArc
 50
270.0
 51
360.0
  0
ARC
  5
8E
100
AcDbEntity
  8
0
100
AcDbCircle
 10
-3.718255
 20
-3.935
 30
0.0
 40
0.06
100
AcDbArc
 50
360.0
 51
90.0
  0
ARC
  5
8F
100
AcDbEntity
  8
0
100
AcDbCircle
 10
-6.099255
 20
-3.935
 30
0.0
 40
0.06
100
AcDbArc
 50
90.0
 51
180.0
  0
TEXT
  5
90
100
AcDbEntity
  8
DIMS_TEXT
100
AcDbText
 10
-5.822727
 20
-5.795642
 30
0.0
 40
0.18
  1
A
100
AcDbText
  0
LINE
  5
91
100
AcDbEntity
  8
0
100
AcDbLine
 10
-6.159255
 20
-4.375
 30
0.0
 11
-3.65577
 21
-4.375
 31
0.0
  0
LINE
  5
92
100
AcDbEntity
  8
DIMS_TEXT
100
AcDbLine
 10
-5.605005
 20
-5.727852
 30
0.0
 11
-4.897755
 21
-5.727852
 31
0.0
  0
LINE
  5
93
100
AcDbEntity
  8
0
100
AcDbLine
 10
-6.159255
 20
-3.935
 30
0.0
 11
-6.159255
 21
-4.375
 31
0.0
  0
LINE
  5
94
100
AcDbEntity
  8
0
100
AcDbLine
 10
-3.658255
 20
-3.935
 30
0.0
 11
-3.656189
 21
-3.94286
 31
0.0
  0
LINE
  5
95
100
AcDbEntity
  8
0
100
AcDbLine
 10
-5.147755
 20
-1.9995
 30
0.0
 11
-5.147755
 21
-3.688
 31
0.0
  0
LINE
  5
96
100
AcDbEntity
  8
0
100
AcDbLine
 10
-4.647755
 20
-1.9995
 30
0.0
 11
-4.647755
 21
-3.688
 31
0.0
  0
LINE
  5
97
100
AcDbEntity
  8
0
100
AcDbLine
 10
-6.099255
 20
-3.875
 30
0.0
 11
-5.334755
 21
-3.875
 31
0.0
  0
LINE
  5
98
100
AcDbEntity
  8
0
100
AcDbLine
 10
-4.460755
 20
-3.875
 30
0.0
 11
-3.718255
 21
-3.875
 31
0.0
  0
ARC
  5
99
100
AcDbEntity
  8
HIDDEN_LINE
  6
DASHED2
100
AcDbCircle
 10
-4.701868
 20
-1.063
 30
0.0
 40
0.187
100
AcDbArc
 50
270.0
 51
302.277823
  0
LINE
  5
9A
100
AcDbEntity
  8
0
100
AcDbLine
 10
-5.972255
 20
-1.875
 30
0.0
 11
-3.845255
 21
-1.875
 31
0.0
  0
LINE
  5
9B
100
AcDbEntity
  8
0
100
AcDbLine
 10
-6.159255
 20
-1.688
 30
0.0
 11
-6.159255
 21
-0.8775
 31
0.0
  0
LINE
  5
9C
100
AcDbEntity
  8
HIDDEN_LINE
  6
HIDDEN2
100
AcDbLine
 10
-6.070551
 20
-0.67981
 30
0.0
 11
-5.192938
 21
-1.222082
 31
0.0
  0
LINE
  5
9D
100
AcDbEntity
  8
0
100
AcDbLine
 10
-6.221255
 20
-0.9375
 30
0.0
 11
-6.221255
 21
-1.8125
 31
0.0
  0
CIRCLE
  5
9E
100
AcDbEntity
  8
0
  6
CONTINUOUS
100
AcDbCircle
 10
-5.709755
 20
-1.375
 30
0.0
 40
0.164
  0
LINE
  5
9F
100
AcDbEntity
  8
HIDDEN_LINE
  6
HIDDEN2
100
AcDbLine
 10
-6.111786
 20
-1.8125
 30
0.0
 11
-5.334755
 21
-1.8125
 31
0.0
  0
ARC
  5
A0
100
AcDbEntity
  8
0
100
AcDbCircle
 10
-5.972255
 20
-1.688
 30
0.0
 40
0.187
100
AcDbArc
 50
180.0
 51
270.0
  0
LINE
  5
A1
100
AcDbEntity
  8
0
100
AcDbLine
 10
-6.159255
 20
-1.8125
 30
0.0
 11
-6.111786
 21
-1.8125
 31
0.0
  0
LINE
  5
A2
100
AcDbEntity
  8
0
  6
DASHED2
100
AcDbLine
 10
-6.221255
 20
-1.8125
 30
0.0
 11
-6.159255
 21
-1.8125
 31
0.0
  0
LINE
  5
A3
100
AcDbEntity
  8
0
100
AcDbLine
 10
-6.159255
 20
-1.8125
 30
0.0
 11
-6.221255
 21
-1.8125
 31
0.0
  0
ARC
  5
A4
100
AcDbEntity
  8
0
100
AcDbCircle
 10
-5.334755
 20
-1.9995
 30
0.0
 40
0.187
100
AcDbArc
 50
360.0
 51
41.74184
  0
ARC
  5
A5
100
AcDbEntity
  8
HIDDEN_LINE
100
AcDbCircle
 10
-5.334755
 20
-1.9995
 30
0.0
 40
0.1875
100
AcDbArc
 50
41.605654
 51
94.185223
  0
ARC
  5
A6
100
AcDbEntity
  8
HIDDEN_LINE
  6
DASHED2
100
AcDbCircle
 10
-5.094643
 20
-1.063
 30
0.0
 40
0.187
100
AcDbArc
 50
238.288321
 51
270.0
  0
LINE
  5
A7
100
AcDbEntity
  8
HIDDEN_LINE
  6
HIDDEN2
100
AcDbLine
 10
-5.094643
 20
-1.25
 30
0.0
 11
-4.701868
 21
-1.25
 31
0.0
  0
ARC
  5
A8
100
AcDbEntity
  8
HIDDEN_LINE
  6
DASHED2
100
AcDbCircle
 10
-5.972255
 20
-0.520728
 30
0.0
 40
0.187
100
AcDbArc
 50
180.0
 51
238.288321
  0
ARC
  5
A9
100
AcDbEntity
  8
0
100
AcDbCircle
 10
-6.219255
 20
-0.8775
 30
0.0
 40
0.06
100
AcDbArc
 50
270.0
 51
0.0
  0
LINE
  5
AA
100
AcDbEntity
  8
0
100
AcDbLine
 10
-6.219255
 20
-0.9375
 30
0.0
 11
-6.221255
 21
-0.9375
 31
0.0
  0
LINE
  5
AB
100
AcDbEntity
  8
0
100
AcDbLine
 10
-3.658255
 20
-1.688
 30
0.0
 11
-3.658255
 21
-0.521936
 31
0.0
  0
LINE
  5
AC
100
AcDbEntity
  8
HIDDEN_LINE
  6
HIDDEN2
100
AcDbLine
 10
-4.602005
 20
-1.221103
 30
0.0
 11
-3.745392
 21
-0.680039
 31
0.0
  0
LINE
  5
AD
100
AcDbEntity
  8
0
100
AcDbLine
 10
-3.596255
 20
-0.3125
 30
0.0
 11
-3.596255
 21
-1.8125
 31
0.0
  0
ARC
  5
AE
100
AcDbEntity
  8
0
100
AcDbCircle
 10
-3.845255
 20
-1.688
 30
0.0
 40
0.187
100
AcDbArc
 50
270.0
 51
360.0
  0
LINE
  5
AF
100
AcDbEntity
  8
HIDDEN_LINE
  6
HIDDEN2
100
AcDbLine
 10
-4.460755
 20
-1.8125
 30
0.0
 11
-3.705725
 21
-1.8125
 31
0.0
  0
ARC
  5
B0
100
AcDbEntity
  8
HIDDEN_LINE
100
AcDbCircle
 10
-4.460755
 20
-1.9995
 30
0.0
 40
0.1875
100
AcDbArc
 50
85.814777
 51
138.394346
  0
ARC
  5
B1
100
AcDbEntity
  8
0
  6
DASHED2
100
AcDbCircle
 10
-4.460755
 20
-1.9995
 30
0.0
 40
0.187
100
AcDbArc
 50
138.25816
 51
180.0
  0
CIRCLE
  5
B2
100
AcDbEntity
  8
0
  6
CONTINUOUS
100
AcDbCircle
 10
-4.085755
 20
-1.375
 30
0.0
 40
0.164
  0
LINE
  5
B3
100
AcDbEntity
  8
0
100
AcDbLine
 10
-3.705725
 20
-1.8125
 30
0.0
 11
-3.658258
 21
-1.8125
 31
0.0
  0
LINE
  5
B4
100
AcDbEntity
  8
HIDDEN_LINE
  6
HIDDEN2
100
AcDbLine
 10
-3.658258
 20
-1.8125
 30
0.0
 11
-3.658255
 21
-1.8125
 31
0.0
  0
LINE
  5
B5
100
AcDbEntity
  8
0
100
AcDbLine
 10
-3.596255
 20
-1.8125
 30
0.0
 11
-3.658255
 21
-1.8125
 31
0.0
  0
ARC
  5
B6
100
AcDbEntity
  8
HIDDEN_LINE
  6
DASHED2
100
AcDbCircle
 10
-3.845255
 20
-0.521936
 30
0.0
 40
0.187
100
AcDbArc
 50
302.277823
 51
360.0
  0
ARC
  5
B7
100
AcDbEntity
  8
0
100
AcDbCircle
 10
-3.599772
 20
-0.2525
 30
0.0
 40
0.06
100
AcDbArc
 50
180.055627
 51
270.0
  0
LINE
  5
B8
100
AcDbEntity
  8
0
100
AcDbLine
 10
-3.596255
 20
-0.3125
 30
0.0
 11
-3.599772
 21
-0.3125
 31
0.0
  0
LINE
  5
B9
100
AcDbEntity
  8
HIDDEN_LINE
  6
DASHED2
100
AcDbLine
 10
4.1485
 20
-3.875
 30
0.0
 11
4.1485
 21
-4.375
 31
0.0
  0
LINE
  5
BA
100
AcDbEntity
  8
HIDDEN_LINE
  6
DASHED2
100
AcDbLine
 10
4.4765
 20
-3.875
 30
0.0
 11
4.4765
 21
-4.375
 31
0.0
  0
LINE
  5
BB
100
AcDbEntity
  8
HIDDEN_LINE
  6
DASHED2
100
AcDbLine
 10
1.7265
 20
-3.875
 30
0.0
 11
1.7265
 21
-4.375
 31
0.0
  0
LINE
  5
BC
100
AcDbEntity
  8
HIDDEN_LINE
  6
DASHED2
100
AcDbLine
 10
1.3985
 20
-3.875
 30
0.0
 11
1.3985
 21
-4.375
 31
0.0
  0
ARC
  5
BD
100
AcDbEntity
  8
0
100
AcDbCircle
 10
4.6875
 20
-4.0
 30
0.0
 40
0.125
100
AcDbArc
 50
360.0
 51
90.0
  0
ARC
  5
BE
100
AcDbEntity
  8
0
100
AcDbCircle
 10
3.7495
 20
-3.688
 30
0.0
 40
0.187
100
AcDbArc
 50
180.0
 51
270.0
  0
ARC
  5
BF
100
AcDbEntity
  8
0
100
AcDbCircle
 10
2.1255
 20
-3.688
 30
0.0
 40
0.187
100
AcDbArc
 50
270.0
 51
0.0
  0
ARC
  5
C0
100
AcDbEntity
  8
0
100
AcDbCircle
 10
4.3745
 20
-3.688
 30
0.0
 40
0.187
100
AcDbArc
 50
180.0
 51
270.0
  0
ARC
  5
C1
100
AcDbEntity
  8
0
100
AcDbCircle
 10
1.5005
 20
-3.688
 30
0.0
 40
0.187
100
AcDbArc
 50
270.0
 51
0.0
  0
ARC
  5
C2
100
AcDbEntity
  8
0
100
AcDbCircle
 10
1.1875
 20
-4.0
 30
0.0
 40
0.125
100
AcDbArc
 50
90.0
 51
180.0
  0
LINE
  5
C3
100
AcDbEntity
  8
0
100
AcDbLine
 10
1.0625
 20
-4.375
 30
0.0
 11
4.8125
 21
-4.375
 31
0.0
  0
LINE
  5
C4
100
AcDbEntity
  8
0
100
AcDbLine
 10
1.0625
 20
-4.0
 30
0.0
 11
1.0625
 21
-4.375
 31
0.0
  0
LINE
  5
C5
100
AcDbEntity
  8
0
100
AcDbLine
 10
4.8125
 20
-4.0
 30
0.0
 11
4.8125
 21
-4.375
 31
0.0
  0
ARC
  5
C6
100
AcDbEntity
  8
0
100
AcDbCircle
 10
0.941085
 20
-1.437
 30
0.0
 40
0.187
100
AcDbArc
 50
5.697678
 51
90.0
  0
ARC
  5
C7
100
AcDbEntity
  8
0
100
AcDbCircle
 10
0.938
 20
-0.812
 30
0.0
 40
0.187
100
AcDbArc
 50
0.0
 51
90.0
  0
LINE
  5
C8
100
AcDbEntity
  8
0
100
AcDbLine
 10
0.5625
 20
-0.812
 30
0.0
 11
0.5625
 21
-1.375
 31
0.0
  0
LINE
  5
C9
100
AcDbEntity
  8
0
  6
DASHED2
100
AcDbLine
 10
0.5625
 20
-0.812
 30
0.0
 11
0.5625
 21
-1.75
 31
0.0
  0
LINE
  5
CA
100
AcDbEntity
  8
HIDDEN_LINE
  6
HIDDEN2
100
AcDbLine
 10
0.0625
 20
-1.539
 30
0.0
 11
0.5625
 21
-1.539
 31
0.0
  0
LINE
  5
CB
100
AcDbEntity
  8
HIDDEN_LINE
  6
HIDDEN2
100
AcDbLine
 10
0.0625
 20
-1.211
 30
0.0
 11
0.5625
 21
-1.211
 31
0.0
  0
LINE
  5
CC
100
AcDbEntity
  8
0
  6
DASHED2
100
AcDbLine
 10
0.4375
 20
-1.875
 30
0.0
 11
0.0625
 21
-1.875
 31
0.0
  0
ARC
  5
CD
100
AcDbEntity
  8
0
100
AcDbCircle
 10
0.4375
 20
-1.75
 30
0.0
 40
0.125
100
AcDbArc
 50
270.0
 51
0.0
  0
ARC
  5
CE
100
AcDbEntity
  8
0
  6
DASHED2
100
AcDbCircle
 10
0.7495
 20
-1.437
 30
0.0
 40
0.187
100
AcDbArc
 50
90.0
 51
180.0
  0
LINE
  5
CF
100
AcDbEntity
  8
0
100
AcDbLine
 10
0.5625
 20
-1.437
 30
0.0
 11
0.5625
 21
-1.211
 31
0.0
  0
LINE
  5
D0
100
AcDbEntity
  8
0
100
AcDbLine
 10
0.5625
 20
-1.375
 30
0.0
 11
0.5625
 21
-1.211
 31
0.0
  0
LINE
  5
D1
100
AcDbEntity
  8
0
100
AcDbLine
 10
0.7495
 20
-1.25
 30
0.0
 11
0.941085
 21
-1.25
 31
0.0
  0
ARC
  5
D2
100
AcDbEntity
  8
0
100
AcDbCircle
 10
0.7495
 20
-0.812
 30
0.0
 40
0.187
100
AcDbArc
 50
90.0
 51
180.0
  0
LINE
  5
D3
100
AcDbEntity
  8
0
100
AcDbLine
 10
0.7495
 20
-0.625
 30
0.0
 11
0.938
 21
-0.625
 31
0.0
  0
LINE
  5
D4
100
AcDbEntity
  8
0
100
AcDbLine
 10
2.3125
 20
-1.9995
 30
0.0
 11
2.3125
 21
-3.688
 31
0.0
  0
LINE
  5
D5
100
AcDbEntity
  8
0
100
AcDbLine
 10
3.5625
 20
-1.9995
 30
0.0
 11
3.5625
 21
-3.688
 31
0.0
  0
LINE
  5
D6
100
AcDbEntity
  8
0
100
AcDbLine
 10
1.6875
 20
-1.996415
 30
0.0
 11
1.6875
 21
-3.688
 31
0.0
  0
LINE
  5
D7
100
AcDbEntity
  8
0
100
AcDbLine
 10
4.1875
 20
-1.996415
 30
0.0
 11
4.1875
 21
-3.688
 31
0.0
  0
LINE
  5
D8
100
AcDbEntity
  8
0
100
AcDbLine
 10
1.1875
 20
-3.875
 30
0.0
 11
2.1255
 21
-3.875
 31
0.0
  0
LINE
  5
D9
100
AcDbEntity
  8
0
100
AcDbLine
 10
3.7495
 20
-3.875
 30
0.0
 11
4.381722
 21
-3.875
 31
0.0
  0
LINE
  5
DA
100
AcDbEntity
  8
0
100
AcDbLine
 10
4.6875
 20
-3.875
 30
0.0
 11
4.381722
 21
-3.875
 31
0.0
  0
LINE
  5
DB
100
AcDbEntity
  8
0
100
AcDbLine
 10
1.125
 20
-1.375
 30
0.0
 11
1.125
 21
-0.812
 31
0.0
  0
CIRCLE
  5
DC
100
AcDbEntity
  8
0
100
AcDbCircle
 10
1.5625
 20
-1.375
 30
0.0
 40
0.4375
  0
LINE
  5
DD
100
AcDbEntity
  8
0
100
AcDbLine
 10
1.524376
 20
-1.8125
 30
0.0
 11
2.1255
 21
-1.8125
 31
0.0
  0
ARC
  5
DE
100
AcDbEntity
  8
0
100
AcDbCircle
 10
1.5005
 20
-1.996415
 30
0.0
 40
0.187
100
AcDbArc
 50
0.0
 51
84.302322
  0
LINE
  5
DF
100
AcDbEntity
  8
0
100
AcDbLine
 10
1.519065
 20
-1.810339
 30
0.0
 11
1.483502
 21
-1.795864
 31
0.0
  0
LINE
  5
E0
100
AcDbEntity
  8
0
100
AcDbLine
 10
1.519065
 20
-1.810339
 30
0.0
 11
1.519065
 21
-1.810339
 31
0.0
  0
LINE
  5
E1
100
AcDbEntity
  8
0
100
AcDbLine
 10
1.5625
 20
-1.8125
 30
0.0
 11
1.534329
 21
-1.8125
 31
0.0
  0
CIRCLE
  5
E2
100
AcDbEntity
  8
0
100
AcDbCircle
 10
1.5625
 20
-1.375
 30
0.0
 40
0.164
  0
ARC
  5
E3
100
AcDbEntity
  8
0
100
AcDbCircle
 10
2.1255
 20
-1.9995
 30
0.0
 40
0.187
100
AcDbArc
 50
0.0
 51
90.0
  0
ARC
  5
E4
100
AcDbEntity
  8
HIDDEN_LINE
100
AcDbCircle
 10
4.3125
 20
-1.375
 30
0.0
 40
0.4375
100
AcDbArc
 50
45.0
 51
225.0
  0
LINE
  5
E5
100
AcDbEntity
  8
0
100
AcDbLine
 10
4.75
 20
-1.375
 30
0.0
 11
4.75
 21
-0.812
 31
0.0
  0
LINE
  5
E6
100
AcDbEntity
  8
0
100
AcDbLine
 10
3.378141
 20
-1.059359
 30
0.0
 11
4.003141
 21
-1.684359
 31
0.0
  0
ARC
  5
E7
100
AcDbEntity
  8
0
100
AcDbCircle
 10
3.6875
 20
-0.75
 30
0.0
 40
0.4375
100
AcDbArc
 50
42.581944
 51
225.0
  0
LINE
  5
E8
100
AcDbEntity
  8
0
100
AcDbLine
 10
3.7495
 20
-1.8125
 30
0.0
 11
4.3125
 21
-1.8125
 31
0.0
  0
ARC
  5
E9
100
AcDbEntity
  8
0
100
AcDbCircle
 10
3.7495
 20
-1.9995
 30
0.0
 40
0.187
100
AcDbArc
 50
90.0
 51
180.0
  0
ARC
  5
EA
100
AcDbEntity
  8
0
100
AcDbCircle
 10
4.3745
 20
-1.996415
 30
0.0
 40
0.187
100
AcDbArc
 50
95.697678
 51
180.0
  0
CIRCLE
  5
EB
100
AcDbEntity
  8
0
100
AcDbCircle
 10
4.3125
 20
-1.375
 30
0.0
 40
0.164
  0
CIRCLE
  5
EC
100
AcDbEntity
  8
0
100
AcDbCircle
 10
3.6875
 20
-0.75
 30
0.0
 40
0.1685
  0
CIRCLE
  5
ED
100
AcDbEntity
  8
HIDDEN_LINE
  6
HIDDEN2
100
AcDbCircle
 10
3.6875
 20
-0.75
 30
0.0
 40
0.21
  0
LINE
  5
EE
100
AcDbEntity
  8
0
100
AcDbLine
 10
3.996859
 20
-0.440641
 30
0.0
 11
4.621859
 21
-1.065641
 31
0.0
  0
DIMENSION
  5
EF
100
AcDbEntity
  8
DIMS_TEXT
100
AcDbDimension
  2
*D2
 10
-5.709755
 20
2.445259
 30
0.0
 11
-7.107258
 21
2.445259
 31
0.0
 12
-0.840975
 22
-6.057742
 32
0.0
 70
   128
  1
\L.814\P\l.810\PTYP.
  3
STANDARD
100
AcDbAlignedDimension
 13
-4.897755
 23
1.875
 33
0.0
 14
-5.709755
 24
1.875
 34
0.0
100
AcDbRotatedDimension
1001
ACAD
1000
DSTYLE
1002
{
1070
    78
1070
     4
1070
   284
1070
     4
1070
   140
1040
0.15
1070
   272
1070
     1
1070
   271
1070
     3
1002
}
  0
LINE
  5
F0
100
AcDbEntity
  8
0
100
AcDbLine
 10
-6.159255
 20
0.877
 30
0.0
 11
-6.159255
 21
1.688
 31
0.0
  0
LINE
  5
F1
100
AcDbEntity
  8
0
100
AcDbLine
 10
-3.660869
 20
0.876942
 30
0.0
 11
-3.658255
 21
1.688
 31
0.0
  0
LINE
  5
F2
100
AcDbEntity
  8
0
100
AcDbLine
 10
-3.596255
 20
1.812
 30
0.0
 11
-3.596255
 21
0.937
 31
0.0
  0
LINE
  5
F3
100
AcDbEntity
  8
0
100
AcDbLine
 10
-6.221255
 20
1.812
 30
0.0
 11
-6.221255
 21
0.937
 31
0.0
  0
ARC
  5
F4
100
AcDbEntity
  8
HIDDEN_LINE
  6
DASHED2
100
AcDbCircle
 10
-4.701868
 20
1.063
 30
0.0
 40
0.187
100
AcDbArc
 50
57.722177
 51
90.0
  0
ARC
  5
F5
100
AcDbEntity
  8
0
  6
DASHED2
100
AcDbCircle
 10
-4.701868
 20
1.063
 30
0.0
 40
0.187
100
AcDbArc
 50
57.722177
 51
90.0
  0
LINE
  5
F6
100
AcDbEntity
  8
HIDDEN_LINE
  6
HIDDEN2
100
AcDbLine
 10
-5.192938
 20
1.222082
 30
0.0
 11
-6.070551
 21
0.67981
 31
0.0
  0
ARC
  5
F7
100
AcDbEntity
  8
HIDDEN_LINE
  6
DASHED2
100
AcDbCircle
 10
-5.972255
 20
0.520728
 30
0.0
 40
0.187
100
AcDbArc
 50
121.711679
 51
180.0
  0
CIRCLE
  5
F8
100
AcDbEntity
  8
0
  6
CONTINUOUS
100
AcDbCircle
 10
-5.709755
 20
1.375
 30
0.0
 40
0.164
  0
ARC
  5
F9
100
AcDbEntity
  8
0
100
AcDbCircle
 10
-6.219255
 20
0.877
 30
0.0
 40
0.06
100
AcDbArc
 50
0.0
 51
90.0
  0
LINE
  5
FA
100
AcDbEntity
  8
0
100
AcDbLine
 10
-6.221255
 20
0.937
 30
0.0
 11
-6.219255
 21
0.937
 31
0.0
  0
ARC
  5
FB
100
AcDbEntity
  8
HIDDEN_LINE
  6
DASHED2
100
AcDbCircle
 10
-5.094643
 20
1.063
 30
0.0
 40
0.187
100
AcDbArc
 50
90.0
 51
121.711679
  0
LINE
  5
FC
100
AcDbEntity
  8
HIDDEN_LINE
  6
HIDDEN2
100
AcDbLine
 10
-4.701868
 20
1.25
 30
0.0
 11
-5.094643
 21
1.25
 31
0.0
  0
LINE
  5
FD
100
AcDbEntity
  8
HIDDEN_LINE
  6
HIDDEN2
100
AcDbLine
 10
-3.745392
 20
0.680039
 30
0.0
 11
-4.602005
 21
1.221103
 31
0.0
  0
ARC
  5
FE
100
AcDbEntity
  8
HIDDEN_LINE
  6
DASHED2
100
AcDbCircle
 10
-3.845255
 20
0.521936
 30
0.0
 40
0.187
100
AcDbArc
 50
360.0
 51
57.722177
  0
CIRCLE
  5
FF
100
AcDbEntity
  8
0
  6
CONTINUOUS
100
AcDbCircle
 10
-4.085755
 20
1.375
 30
0.0
 40
0.164
  0
ARC
  5
100
100
AcDbEntity
  8
0
100
AcDbCircle
 10
-3.600869
 20
0.877
 30
0.0
 40
0.06
100
AcDbArc
 50
90.0
 51
180.055627
  0
LINE
  5
101
100
AcDbEntity
  8
0
100
AcDbLine
 10
-3.600869
 20
0.937
 30
0.0
 11
-3.596255
 21
0.937
 31
0.0
  0
LINE
  5
102
100
AcDbEntity
  8
HIDDEN_LINE
  6
HIDDEN2
100
AcDbLine
 10
-6.11223
 20
1.812
 30
0.0
 11
-3.70528
 21
1.812
 31
0.0
  0
LINE
  5
103
100
AcDbEntity
  8
0
100
AcDbLine
 10
-5.972255
 20
1.875
 30
0.0
 11
-3.845255
 21
1.875
 31
0.0
  0
ARC
  5
104
100
AcDbEntity
  8
0
100
AcDbCircle
 10
-5.972255
 20
1.688
 30
0.0
 40
0.187
100
AcDbArc
 50
90.0
 51
180.0
  0
LINE
  5
105
100
AcDbEntity
  8
0
100
AcDbLine
 10
-6.221255
 20
1.812
 30
0.0
 11
-6.11223
 21
1.812
 31
0.0
  0
ARC
  5
106
100
AcDbEntity
  8
0
100
AcDbCircle
 10
-3.845255
 20
1.688
 30
0.0
 40
0.187
100
AcDbArc
 50
360.0
 51
90.0
  0
LINE
  5
107
100
AcDbEntity
  8
0
100
AcDbLine
 10
-3.70528
 20
1.812
 30
0.0
 11
-3.596255
 21
1.812
 31
0.0
  0
LINE
  5
108
100
AcDbEntity
  8
0
100
AcDbLine
 10
0.7495
 20
0.625
 30
0.0
 11
2.313
 21
0.625
 31
0.0
  0
LINE
  5
109
100
AcDbEntity
  8
0
100
AcDbLine
 10
0.7495
 20
1.25
 30
0.0
 11
2.316085
 21
1.25
 31
0.0
  0
LINE
  5
10A
100
AcDbEntity
  8
0
100
AcDbLine
 10
0.5625
 20
0.812
 30
0.0
 11
0.5625
 21
1.75
 31
0.0
  0
ARC
  5
10B
100
AcDbEntity
  8
0
100
AcDbCircle
 10
0.7495
 20
0.812
 30
0.0
 40
0.187
100
AcDbArc
 50
180.0
 51
270.0
  0
LINE
  5
10C
100
AcDbEntity
  8
HIDDEN_LINE
  6
HIDDEN2
100
AcDbLine
 10
0.0625
 20
1.211
 30
0.0
 11
0.5625
 21
1.211
 31
0.0
  0
LINE
  5
10D
100
AcDbEntity
  8
HIDDEN_LINE
  6
HIDDEN2
100
AcDbLine
 10
0.0625
 20
1.539
 30
0.0
 11
0.5625
 21
1.539
 31
0.0
  0
ARC
  5
10E
100
AcDbEntity
  8
0
  6
DASHED2
100
AcDbCircle
 10
0.7495
 20
1.437
 30
0.0
 40
0.187
100
AcDbArc
 50
180.0
 51
270.0
  0
LINE
  5
10F
100
AcDbEntity
  8
0
100
AcDbLine
 10
0.0625
 20
1.875
 30
0.0
 11
0.4375
 21
1.875
 31
0.0
  0
ARC
  5
110
100
AcDbEntity
  8
0
100
AcDbCircle
 10
0.4375
 20
1.75
 30
0.0
 40
0.125
100
AcDbArc
 50
0.0
 51
90.0
  0
CIRCLE
  5
111
100
AcDbEntity
  8
0
100
AcDbCircle
 10
2.9375
 20
1.375
 30
0.0
 40
0.4375
  0
CIRCLE
  5
112
100
AcDbEntity
  8
0
100
AcDbCircle
 10
2.9375
 20
1.375
 30
0.0
 40
0.164
  0
ARC
  5
113
100
AcDbEntity
  8
0
100
AcDbCircle
 10
2.313
 20
0.812
 30
0.0
 40
0.187
100
AcDbArc
 50
270.0
 51
0.0
  0
LINE
  5
114
100
AcDbEntity
  8
0
100
AcDbLine
 10
2.5
 20
1.375
 30
0.0
 11
2.5
 21
0.812
 31
0.0
  0
ARC
  5
115
100
AcDbEntity
  8
0
100
AcDbCircle
 10
2.316085
 20
1.437
 30
0.0
 40
0.187
100
AcDbArc
 50
270.0
 51
354.302322
  0
ARC
  5
116
100
AcDbEntity
  8
0
100
AcDbCircle
 10
3.562
 20
0.812
 30
0.0
 40
0.187
100
AcDbArc
 50
180.0
 51
270.0
  0
LINE
  5
117
100
AcDbEntity
  8
0
100
AcDbLine
 10
3.375
 20
1.375
 30
0.0
 11
3.375
 21
0.812
 31
0.0
  0
ARC
  5
118
100
AcDbEntity
  8
0
100
AcDbCircle
 10
3.558915
 20
1.437
 30
0.0
 40
0.187
100
AcDbArc
 50
185.697678
 51
270.0
  0
LINE
  5
119
100
AcDbEntity
  8
0
100
AcDbLine
 10
5.8125
 20
1.875
 30
0.0
 11
5.8125
 21
-1.875
 31
0.0
  0
LINE
  5
11A
100
AcDbEntity
  8
0
100
AcDbLine
 10
5.3125
 20
-0.812
 30
0.0
 11
5.3125
 21
-1.75
 31
0.0
  0
ARC
  5
11B
100
AcDbEntity
  8
0
100
AcDbCircle
 10
5.4375
 20
-1.75
 30
0.0
 40
0.125
100
AcDbArc
 50
180.0
 51
270.0
  0
LINE
  5
11C
100
AcDbEntity
  8
0
100
AcDbLine
 10
5.4375
 20
-1.875
 30
0.0
 11
5.8125
 21
-1.875
 31
0.0
  0
LINE
  5
11D
100
AcDbEntity
  8
HIDDEN_LINE
  6
HIDDEN2
100
AcDbLine
 10
5.3125
 20
-1.539
 30
0.0
 11
5.8125
 21
-1.539
 31
0.0
  0
LINE
  5
11E
100
AcDbEntity
  8
HIDDEN_LINE
  6
HIDDEN2
100
AcDbLine
 10
5.3125
 20
-1.211
 30
0.0
 11
5.8125
 21
-1.211
 31
0.0
  0
ARC
  5
11F
100
AcDbEntity
  8
0
100
AcDbCircle
 10
5.1255
 20
-1.437
 30
0.0
 40
0.187
100
AcDbArc
 50
0.0
 51
90.0
  0
LINE
  5
120
100
AcDbEntity
  8
0
100
AcDbLine
 10
4.933915
 20
-1.25
 30
0.0
 11
5.1255
 21
-1.25
 31
0.0
  0
ARC
  5
121
100
AcDbEntity
  8
0
100
AcDbCircle
 10
5.1255
 20
-0.812
 30
0.0
 40
0.187
100
AcDbArc
 50
0.0
 51
90.0
  0
LINE
  5
122
100
AcDbEntity
  8
0
100
AcDbLine
 10
4.937
 20
-0.625
 30
0.0
 11
5.1255
 21
-0.625
 31
0.0
  0
LINE
  5
123
100
AcDbEntity
  8
0
100
AcDbLine
 10
5.3125
 20
0.812
 30
0.0
 11
5.3125
 21
1.75
 31
0.0
  0
ARC
  5
124
100
AcDbEntity
  8
0
100
AcDbCircle
 10
5.1255
 20
0.812
 30
0.0
 40
0.187
100
AcDbArc
 50
270.0
 51
0.0
  0
LINE
  5
125
100
AcDbEntity
  8
HIDDEN_LINE
  6
HIDDEN2
100
AcDbLine
 10
5.3125
 20
1.211
 30
0.0
 11
5.8125
 21
1.211
 31
0.0
  0
LINE
  5
126
100
AcDbEntity
  8
HIDDEN_LINE
  6
HIDDEN2
100
AcDbLine
 10
5.3125
 20
1.539
 30
0.0
 11
5.8125
 21
1.539
 31
0.0
  0
ARC
  5
127
100
AcDbEntity
  8
0
100
AcDbCircle
 10
5.1255
 20
1.437
 30
0.0
 40
0.187
100
AcDbArc
 50
270.0
 51
0.0
  0
ARC
  5
128
100
AcDbEntity
  8
0
100
AcDbCircle
 10
5.4375
 20
1.75
 30
0.0
 40
0.125
100
AcDbArc
 50
90.0
 51
180.0
  0
LINE
  5
129
100
AcDbEntity
  8
0
100
AcDbLine
 10
5.3125
 20
1.75
 30
0.0
 11
5.3125
 21
1.75
 31
0.0
  0
LINE
  5
12A
100
AcDbEntity
  8
0
100
AcDbLine
 10
5.4375
 20
1.875
 30
0.0
 11
5.8125
 21
1.875
 31
0.0
  0
LINE
  5
12B
100
AcDbEntity
  8
CTR_LINES
100
AcDbLine
 10
-4.897755
 20
5.642717
 30
0.0
 11
-4.897755
 21
-5.727852
 31
0.0
  0
ENDBLK
  5
12D
100
AcDbEntity
  8
0
100
AcDbBlockEnd
  0
BLOCK
  5
310
100
AcDbEntity
  8
0
100
AcDbBlockBegin
  2
*D6
 70
     1
 10
0.0
 20
0.0
 30
0.0
  3
*D6
  1

  0
LINE
  5
311
100
AcDbEntity
  8
0
  6
BYBLOCK
 62
     0
100
AcDbLine
 10
3.549332
 20
2.630086
 30
0.0
 11
3.369332
 21
2.630086
 31
0.0
  0
LINE
  5
312
100
AcDbEntity
  8
0
  6
BYBLOCK
 62
     0
100
AcDbLine
 10
3.369332
 20
2.630086
 30
0.0
 11
2.574589
 21
3.661232
 31
0.0
  0
MTEXT
  5
313
100
AcDbEntity
  8
0
  6
BYBLOCK
 62
     0
100
AcDbMText
 10
4.314332
 20
2.630086
 30
0.0
 40
0.15
 41
0.0
 71
     5
 72
     1
  1
\A1;\U+2205.328 THRU\PX 4\PTYP.
  0
SOLID
  5
314
100
AcDbEntity
  8
0
  6
BYBLOCK
 62
     0
100
AcDbTrace
 10
2.59835
 20
3.679545
 30
0.0
 11
2.550827
 21
3.642918
 31
0.0
 12
2.464706
 22
3.8038
 32
0.0
 13
2.464706
 23
3.8038
 33
0.0
  0
LINE
  5
315
100
AcDbEntity
  8
0
  6
BYBLOCK
 62
     0
100
AcDbLine
 10
2.27459
 20
3.933696
 30
0.0
 11
2.45459
 21
3.933696
 31
0.0
  0
LINE
  5
316
100
AcDbEntity
  8
0
  6
BYBLOCK
 62
     0
100
AcDbLine
 10
2.36459
 20
3.843696
 30
0.0
 11
2.36459
 21
4.023696
 31
0.0
  0
POINT
  5
317
100
AcDbEntity
  8
DEFPOINTS
  6
BYBLOCK
 62
     0
100
AcDbPoint
 10
2.464706
 20
3.8038
 30
0.0
  0
POINT
  5
318
100
AcDbEntity
  8
DEFPOINTS
  6
BYBLOCK
 62
     0
100
AcDbPoint
 10
2.264475
 20
4.063591
 30
0.0
  0
ENDBLK
  5
319
100
AcDbEntity
  8
0
100
AcDbBlockEnd
  0
BLOCK
  5
341
100
AcDbEntity
  8
0
100
AcDbBlockBegin
  2
*D7
 70
     1
 10
0.0
 20
0.0
 30
0.0
  3
*D7
  1

  0
LINE
  5
342
100
AcDbEntity
  8
0
  6
BYBLOCK
 62
     0
100
AcDbLine
 10
7.521896
 20
7.246196
 30
0.0
 11
7.521896
 21
8.134276
 31
0.0
  0
LINE
  5
343
100
AcDbEntity
  8
0
  6
BYBLOCK
 62
     0
100
AcDbLine
 10
10.396896
 20
7.395794
 30
0.0
 11
10.396896
 21
8.134276
 31
0.0
  0
LINE
  5
344
100
AcDbEntity
  8
0
  6
BYBLOCK
 62
     0
100
AcDbLine
 10
7.671896
 20
7.954276
 30
0.0
 11
8.569396
 21
7.954276
 31
0.0
  0
LINE
  5
345
100
AcDbEntity
  8
0
  6
BYBLOCK
 62
     0
100
AcDbLine
 10
10.246896
 20
7.954276
 30
0.0
 11
9.349396
 21
7.954276
 31
0.0
  0
SOLID
  5
346
100
AcDbEntity
  8
0
  6
BYBLOCK
 62
     0
100
AcDbTrace
 10
7.671896
 20
7.979276
 30
0.0
 11
7.671896
 21
7.929276
 31
0.0
 12
7.521896
 22
7.954276
 32
0.0
 13
7.521896
 23
7.954276
 33
0.0
  0
SOLID
  5
347
100
AcDbEntity
  8
0
  6
BYBLOCK
 62
     0
100
AcDbTrace
 10
10.246896
 20
7.979276
 30
0.0
 11
10.246896
 21
7.929276
 31
0.0
 12
10.396896
 22
7.954276
 32
0.0
 13
10.396896
 23
7.954276
 33
0.0
  0
MTEXT
  5
348
100
AcDbEntity
  8
0
  6
BYBLOCK
 62
     0
100
AcDbMText
 10
8.959396
 20
7.954276
 30
0.0
 40
0.15
 41
0.0
 71
     5
 72
     1
  1
\A1;2.875\PTYP.
  0
POINT
  5
349
100
AcDbEntity
  8
DEFPOINTS
  6
BYBLOCK
 62
     0
100
AcDbPoint
 10
7.521896
 20
7.183696
 30
0.0
  0
POINT
  5
34A
100
AcDbEntity
  8
DEFPOINTS
  6
BYBLOCK
 62
     0
100
AcDbPoint
 10
10.396896
 20
7.333294
 30
0.0
  0
POINT
  5
34B
100
AcDbEntity
  8
DEFPOINTS
  6
BYBLOCK
 62
     0
100
AcDbPoint
 10
10.396896
 20
7.954276
 30
0.0
  0
ENDBLK
  5
34C
100
AcDbEntity
  8
0
100
AcDbBlockEnd
  0
BLOCK
  5
34D
100
AcDbEntity
  8
0
100
AcDbBlockBegin
  2
*D8
 70
     1
 10
0.0
 20
0.0
 30
0.0
  3
*D8
  1

  0
LINE
  5
34E
100
AcDbEntity
  8
0
  6
BYBLOCK
 62
     0
100
AcDbLine
 10
11.771896
 20
6.979133
 30
0.0
 11
11.771896
 21
8.134276
 31
0.0
  0
LINE
  5
34F
100
AcDbEntity
  8
0
  6
BYBLOCK
 62
     0
100
AcDbLine
 10
10.246896
 20
7.954276
 30
0.0
 11
10.096896
 21
7.954276
 31
0.0
  0
LINE
  5
350
100
AcDbEntity
  8
0
  6
BYBLOCK
 62
     0
100
AcDbLine
 10
11.921896
 20
7.954276
 30
0.0
 11
12.071896
 21
7.954276
 31
0.0
  0
SOLID
  5
351
100
AcDbEntity
  8
0
  6
BYBLOCK
 62
     0
100
AcDbTrace
 10
10.246896
 20
7.979276
 30
0.0
 11
10.246896
 21
7.929276
 31
0.0
 12
10.396896
 22
7.954276
 32
0.0
 13
10.396896
 23
7.954276
 33
0.0
  0
SOLID
  5
352
100
AcDbEntity
  8
0
  6
BYBLOCK
 62
     0
100
AcDbTrace
 10
11.921896
 20
7.979276
 30
0.0
 11
11.921896
 21
7.929276
 31
0.0
 12
11.771896
 22
7.954276
 32
0.0
 13
11.771896
 23
7.954276
 33
0.0
  0
MTEXT
  5
353
100
AcDbEntity
  8
0
  6
BYBLOCK
 62
     0
100
AcDbMText
 10
11.084396
 20
7.954276
 30
0.0
 40
0.15
 41
0.0
 71
     5
 72
     1
  1
\A1;1.375TYP.
  0
POINT
  5
354
100
AcDbEntity
  8
DEFPOINTS
  6
BYBLOCK
 62
     0
100
AcDbPoint
 10
10.396896
 20
7.333294
 30
0.0
  0
POINT
  5
355
100
AcDbEntity
  8
DEFPOINTS
  6
BYBLOCK
 62
     0
100
AcDbPoint
 10
11.771896
 20
6.916633
 30
0.0
  0
POINT
  5
356
100
AcDbEntity
  8
DEFPOINTS
  6
BYBLOCK
 62
     0
100
AcDbPoint
 10
11.771896
 20
7.954276
 30
0.0
  0
ENDBLK
  5
357
100
AcDbEntity
  8
0
100
AcDbBlockEnd
  0
BLOCK
  5
359
100
AcDbEntity
  8
0
100
AcDbBlockBegin
  2
*D9
 70
     1
 10
0.0
 20
0.0
 30
0.0
  3
*D9
  1

  0
LINE
  5
35A
100
AcDbEntity
  8
0
  6
BYBLOCK
 62
     0
100
AcDbLine
 10
5.771896
 20
5.716196
 30
0.0
 11
5.771896
 21
8.946765
 31
0.0
  0
LINE
  5
35B
100
AcDbEntity
  8
0
  6
BYBLOCK
 62
     0
100
AcDbLine
 10
15.021896
 20
5.716196
 30
0.0
 11
15.021896
 21
8.946765
 31
0.0
  0
LINE
  5
35C
100
AcDbEntity
  8
0
  6
BYBLOCK
 62
     0
100
AcDbLine
 10
5.921896
 20
8.766765
 30
0.0
 11
10.019396
 21
8.766765
 31
0.0
  0
LINE
  5
35D
100
AcDbEntity
  8
0
  6
BYBLOCK
 62
     0
100
AcDbLine
 10
14.871896
 20
8.766765
 30
0.0
 11
10.774396
 21
8.766765
 31
0.0
  0
SOLID
  5
35E
100
AcDbEntity
  8
0
  6
BYBLOCK
 62
     0
100
AcDbTrace
 10
5.921896
 20
8.791765
 30
0.0
 11
5.921896
 21
8.741765
 31
0.0
 12
5.771896
 22
8.766765
 32
0.0
 13
5.771896
 23
8.766765
 33
0.0
  0
SOLID
  5
35F
100
AcDbEntity
  8
0
  6
BYBLOCK
 62
     0
100
AcDbTrace
 10
14.871896
 20
8.791765
 30
0.0
 11
14.871896
 21
8.741765
 31
0.0
 12
15.021896
 22
8.766765
 32
0.0
 13
15.021896
 23
8.766765
 33
0.0
  0
MTEXT
  5
360
100
AcDbEntity
  8
0
  6
BYBLOCK
 62
     0
100
AcDbMText
 10
10.396896
 20
8.766765
 30
0.0
 40
0.15
 41
0.0
 71
     5
 72
     1
  1
\A1;9.250
  0
POINT
  5
361
100
AcDbEntity
  8
DEFPOINTS
  6
BYBLOCK
 62
     0
100
AcDbPoint
 10
5.771896
 20
5.653696
 30
0.0
  0
POINT
  5
362
100
AcDbEntity
  8
DEFPOINTS
  6
BYBLOCK
 62
     0
100
AcDbPoint
 10
15.021896
 20
5.653696
 30
0.0
  0
POINT
  5
363
100
AcDbEntity
  8
DEFPOINTS
  6
BYBLOCK
 62
     0
100
AcDbPoint
 10
15.021896
 20
8.766765
 30
0.0
  0
ENDBLK
  5
364
100
AcDbEntity
  8
0
100
AcDbBlockEnd
  0
BLOCK
  5
382
100
AcDbEntity
  8
0
100
AcDbBlockBegin
  2
*D10
 70
     1
 10
0.0
 20
0.0
 30
0.0
  3
*D10
  1

  0
LINE
  5
383
100
AcDbEntity
  8
0
  6
BYBLOCK
 62
     0
100
AcDbLine
 10
5.579329
 20
5.308696
 30
0.0
 11
4.809464
 21
5.308696
 31
0.0
  0
LINE
  5
384
100
AcDbEntity
  8
0
  6
BYBLOCK
 62
     0
100
AcDbLine
 10
7.239076
 20
6.683696
 30
0.0
 11
4.809464
 21
6.683696
 31
0.0
  0
LINE
  5
385
100
AcDbEntity
  8
0
  6
BYBLOCK
 62
     0
100
AcDbLine
 10
4.989464
 20
5.458696
 30
0.0
 11
4.989464
 21
5.706196
 31
0.0
  0
LINE
  5
386
100
AcDbEntity
  8
0
  6
BYBLOCK
 62
     0
100
AcDbLine
 10
4.989464
 20
6.533696
 30
0.0
 11
4.989464
 21
6.286196
 31
0.0
  0
SOLID
  5
387
100
AcDbEntity
  8
0
  6
BYBLOCK
 62
     0
100
AcDbTrace
 10
4.964464
 20
5.458696
 30
0.0
 11
5.014464
 21
5.458696
 31
0.0
 12
4.989464
 22
5.308696
 32
0.0
 13
4.989464
 23
5.308696
 33
0.0
  0
SOLID
  5
388
100
AcDbEntity
  8
0
  6
BYBLOCK
 62
     0
100
AcDbTrace
 10
4.964464
 20
6.533696
 30
0.0
 11
5.014464
 21
6.533696
 31
0.0
 12
4.989464
 22
6.683696
 32
0.0
 13
4.989464
 23
6.683696
 33
0.0
  0
MTEXT
  5
389
100
AcDbEntity
  8
0
  6
BYBLOCK
 62
     0
100
AcDbMText
 10
4.989464
 20
5.996196
 30
0.0
 40
0.15
 41
0.0
 71
     5
 72
     1
  1
\A1;1.375\PTYP.
  0
POINT
  5
38A
100
AcDbEntity
  8
DEFPOINTS
  6
BYBLOCK
 62
     0
100
AcDbPoint
 10
5.641829
 20
5.308696
 30
0.0
  0
POINT
  5
38B
100
AcDbEntity
  8
DEFPOINTS
  6
BYBLOCK
 62
     0
100
AcDbPoint
 10
7.301576
 20
6.683696
 30
0.0
  0
POINT
  5
38C
100
AcDbEntity
  8
DEFPOINTS
  6
BYBLOCK
 62
     0
100
AcDbPoint
 10
4.989464
 20
6.683696
 30
0.0
  0
ENDBLK
  5
38D
100
AcDbEntity
  8
0
100
AcDbBlockEnd
  0
BLOCK
  5
3AA
100
AcDbEntity
  8
0
100
AcDbBlockBegin
  2
*D11
 70
     1
 10
0.0
 20
0.0
 30
0.0
  3
*D11
  1

  0
LINE
  5
3AB
100
AcDbEntity
  8
0
  6
BYBLOCK
 62
     0
100
AcDbLine
 10
12.209396
 20
1.433696
 30
0.0
 11
13.071573
 21
1.433696
 31
0.0
  0
LINE
  5
3AC
100
AcDbEntity
  8
0
  6
BYBLOCK
 62
     0
100
AcDbLine
 10
12.334396
 20
0.933696
 30
0.0
 11
13.071573
 21
0.933696
 31
0.0
  0
LINE
  5
3AD
100
AcDbEntity
  8
0
  6
BYBLOCK
 62
     0
100
AcDbLine
 10
12.891573
 20
1.283696
 30
0.0
 11
12.891573
 21
1.083696
 31
0.0
  0
LINE
  5
3AE
100
AcDbEntity
  8
0
  6
BYBLOCK
 62
     0
100
AcDbLine
 10
12.891573
 20
0.933696
 30
0.0
 11
12.891573
 21
0.251883
 31
0.0
  0
LINE
  5
3AF
100
AcDbEntity
  8
0
  6
BYBLOCK
 62
     0
100
AcDbLine
 10
12.891573
 20
0.251883
 30
0.0
 11
12.741573
 21
0.251883
 31
0.0
  0
SOLID
  5
3B0
100
AcDbEntity
  8
0
  6
BYBLOCK
 62
     0
100
AcDbTrace
 10
12.866573
 20
1.283696
 30
0.0
 11
12.916573
 21
1.283696
 31
0.0
 12
12.891573
 22
1.433696
 32
0.0
 13
12.891573
 23
1.433696
 33
0.0
  0
SOLID
  5
3B1
100
AcDbEntity
  8
0
  6
BYBLOCK
 62
     0
100
AcDbTrace
 10
12.866573
 20
1.083696
 30
0.0
 11
12.916573
 21
1.083696
 31
0.0
 12
12.891573
 22
0.933696
 32
0.0
 13
12.891573
 23
0.933696
 33
0.0
  0
MTEXT
  5
3B2
100
AcDbEntity
  8
0
  6
BYBLOCK
 62
     0
100
AcDbMText
 10
12.426573
 20
0.251883
 30
0.0
 40
0.15
 41
0.0
 71
     5
 72
     1
  1
\A1;.50\PTYP.
  0
POINT
  5
3B3
100
AcDbEntity
  8
DEFPOINTS
  6
BYBLOCK
 62
     0
100
AcDbPoint
 10
12.146896
 20
1.433696
 30
0.0
  0
POINT
  5
3B4
100
AcDbEntity
  8
DEFPOINTS
  6
BYBLOCK
 62
     0
100
AcDbPoint
 10
12.271896
 20
0.933696
 30
0.0
  0
POINT
  5
3B5
100
AcDbEntity
  8
DEFPOINTS
  6
BYBLOCK
 62
     0
100
AcDbPoint
 10
12.891573
 20
0.933696
 30
0.0
  0
ENDBLK
  5
3B6
100
AcDbEntity
  8
0
100
AcDbBlockEnd
  0
BLOCK
  5
3C5
100
AcDbEntity
  8
0
100
AcDbBlockBegin
  2
*D12
 70
     1
 10
0.0
 20
0.0
 30
0.0
  3
*D12
  1

  0
LINE
  5
3C6
100
AcDbEntity
  8
0
  6
BYBLOCK
 62
     0
100
AcDbLine
 10
9.989396
 20
-0.816304
 30
0.0
 11
7.966818
 21
-0.816304
 31
0.0
  0
LINE
  5
3C7
100
AcDbEntity
  8
0
  6
BYBLOCK
 62
     0
100
AcDbLine
 10
8.459396
 20
0.933696
 30
0.0
 11
7.966818
 21
0.933696
 31
0.0
  0
LINE
  5
3C8
100
AcDbEntity
  8
0
  6
BYBLOCK
 62
     0
100
AcDbLine
 10
8.146818
 20
-0.666304
 30
0.0
 11
8.146818
 21
-0.231304
 31
0.0
  0
LINE
  5
3C9
100
AcDbEntity
  8
0
  6
BYBLOCK
 62
     0
100
AcDbLine
 10
8.146818
 20
0.783696
 30
0.0
 11
8.146818
 21
0.348696
 31
0.0
  0
SOLID
  5
3CA
100
AcDbEntity
  8
0
  6
BYBLOCK
 62
     0
100
AcDbTrace
 10
8.121818
 20
-0.666304
 30
0.0
 11
8.171818
 21
-0.666304
 31
0.0
 12
8.146818
 22
-0.816304
 32
0.0
 13
8.146818
 23
-0.816304
 33
0.0
  0
SOLID
  5
3CB
100
AcDbEntity
  8
0
  6
BYBLOCK
 62
     0
100
AcDbTrace
 10
8.121818
 20
0.783696
 30
0.0
 11
8.171818
 21
0.783696
 31
0.0
 12
8.146818
 22
0.933696
 32
0.0
 13
8.146818
 23
0.933696
 33
0.0
  0
MTEXT
  5
3CC
100
AcDbEntity
  8
0
  6
BYBLOCK
 62
     0
100
AcDbMText
 10
8.146818
 20
0.058696
 30
0.0
 40
0.15
 41
0.0
 71
     5
 72
     1
  1
\A1;1.750\PTYP.
  0
POINT
  5
3CD
100
AcDbEntity
  8
DEFPOINTS
  6
BYBLOCK
 62
     0
100
AcDbPoint
 10
10.051896
 20
-0.816304
 30
0.0
  0
POINT
  5
3CE
100
AcDbEntity
  8
DEFPOINTS
  6
BYBLOCK
 62
     0
100
AcDbPoint
 10
8.521896
 20
0.933696
 30
0.0
  0
POINT
  5
3CF
100
AcDbEntity
  8
DEFPOINTS
  6
BYBLOCK
 62
     0
100
AcDbPoint
 10
8.146818
 20
0.933696
 30
0.0
  0
ENDBLK
  5
3D0
100
AcDbEntity
  8
0
100
AcDbBlockEnd
  0
BLOCK
  5
3EF
100
AcDbEntity
  8
0
100
AcDbBlockBegin
  2
*D13
 70
     1
 10
0.0
 20
0.0
 30
0.0
  3
*D13
  1

  0
LINE
  5
3F0
100
AcDbEntity
  8
0
  6
BYBLOCK
 62
     0
100
AcDbLine
 10
3.225214
 20
5.308696
 30
0.0
 11
3.607062
 21
5.308696
 31
0.0
  0
LINE
  5
3F1
100
AcDbEntity
  8
0
  6
BYBLOCK
 62
     0
100
AcDbLine
 10
3.225214
 20
6.683696
 30
0.0
 11
3.607062
 21
6.683696
 31
0.0
  0
LINE
  5
3F2
100
AcDbEntity
  8
0
  6
BYBLOCK
 62
     0
100
AcDbLine
 10
3.427062
 20
5.458696
 30
0.0
 11
3.427062
 21
5.706196
 31
0.0
  0
LINE
  5
3F3
100
AcDbEntity
  8
0
  6
BYBLOCK
 62
     0
100
AcDbLine
 10
3.427062
 20
6.533696
 30
0.0
 11
3.427062
 21
6.286196
 31
0.0
  0
SOLID
  5
3F4
100
AcDbEntity
  8
0
  6
BYBLOCK
 62
     0
100
AcDbTrace
 10
3.402062
 20
5.458696
 30
0.0
 11
3.452062
 21
5.458696
 31
0.0
 12
3.427062
 22
5.308696
 32
0.0
 13
3.427062
 23
5.308696
 33
0.0
  0
SOLID
  5
3F5
100
AcDbEntity
  8
0
  6
BYBLOCK
 62
     0
100
AcDbTrace
 10
3.402062
 20
6.533696
 30
0.0
 11
3.452062
 21
6.533696
 31
0.0
 12
3.427062
 22
6.683696
 32
0.0
 13
3.427062
 23
6.683696
 33
0.0
  0
MTEXT
  5
3F6
100
AcDbEntity
  8
0
  6
BYBLOCK
 62
     0
100
AcDbMText
 10
3.427062
 20
5.996196
 30
0.0
 40
0.15
 41
0.0
 71
     5
 72
     1
  1
\A1;1.375\PTYP.
  0
POINT
  5
3F7
100
AcDbEntity
  8
DEFPOINTS
  6
BYBLOCK
 62
     0
100
AcDbPoint
 10
3.162714
 20
5.308696
 30
0.0
  0
POINT
  5
3F8
100
AcDbEntity
  8
DEFPOINTS
  6
BYBLOCK
 62
     0
100
AcDbPoint
 10
3.162714
 20
6.683696
 30
0.0
  0
POINT
  5
3F9
100
AcDbEntity
  8
DEFPOINTS
  6
BYBLOCK
 62
     0
100
AcDbPoint
 10
3.427062
 20
6.683696
 30
0.0
  0
ENDBLK
  5
3FA
100
AcDbEntity
  8
0
100
AcDbBlockEnd
  0
BLOCK
  5
409
100
AcDbEntity
  8
0
100
AcDbBlockBegin
  2
*D14
 70
     1
 10
0.0
 20
0.0
 30
0.0
  3
*D14
  1

  0
LINE
  5
40A
100
AcDbEntity
  8
0
  6
BYBLOCK
 62
     0
100
AcDbLine
 10
2.36459
 20
7.626886
 30
0.0
 11
2.36459
 21
8.166776
 31
0.0
  0
LINE
  5
40B
100
AcDbEntity
  8
0
  6
BYBLOCK
 62
     0
100
AcDbLine
 10
1.55259
 20
7.705729
 30
0.0
 11
1.55259
 21
8.166776
 31
0.0
  0
LINE
  5
40C
100
AcDbEntity
  8
0
  6
BYBLOCK
 62
     0
100
AcDbLine
 10
2.51459
 20
7.986776
 30
0.0
 11
2.66459
 21
7.986776
 31
0.0
  0
LINE
  5
40D
100
AcDbEntity
  8
0
  6
BYBLOCK
 62
     0
100
AcDbLine
 10
1.40259
 20
7.986776
 30
0.0
 11
1.25259
 21
7.986776
 31
0.0
  0
SOLID
  5
40E
100
AcDbEntity
  8
0
  6
BYBLOCK
 62
     0
100
AcDbTrace
 10
2.51459
 20
8.011776
 30
0.0
 11
2.51459
 21
7.961776
 31
0.0
 12
2.36459
 22
7.986776
 32
0.0
 13
2.36459
 23
7.986776
 33
0.0
  0
SOLID
  5
40F
100
AcDbEntity
  8
0
  6
BYBLOCK
 62
     0
100
AcDbTrace
 10
1.40259
 20
8.011776
 30
0.0
 11
1.40259
 21
7.961776
 31
0.0
 12
1.55259
 22
7.986776
 32
0.0
 13
1.55259
 23
7.986776
 33
0.0
  0
MTEXT
  5
410
100
AcDbEntity
  8
0
  6
BYBLOCK
 62
     0
100
AcDbMText
 10
1.95859
 20
7.986776
 30
0.0
 40
0.15
 41
0.0
 71
     5
 72
     1
  1
\A1;.812\PTYP.
  0
POINT
  5
411
100
AcDbEntity
  8
DEFPOINTS
  6
BYBLOCK
 62
     0
100
AcDbPoint
 10
2.36459
 20
7.564386
 30
0.0
  0
POINT
  5
412
100
AcDbEntity
  8
DEFPOINTS
  6
BYBLOCK
 62
     0
100
AcDbPoint
 10
1.55259
 20
7.643229
 30
0.0
  0
POINT
  5
413
100
AcDbEntity
  8
DEFPOINTS
  6
BYBLOCK
 62
     0
100
AcDbPoint
 10
1.55259
 20
7.986776
 30
0.0
  0
ENDBLK
  5
414
100
AcDbEntity
  8
0
100
AcDbBlockEnd
  0
BLOCK
  5
424
100
AcDbEntity
  8
0
100
AcDbBlockBegin
  2
*D15
 70
     1
 10
0.0
 20
0.0
 30
0.0
  3
*D15
  1

  0
LINE
  5
425
100
AcDbEntity
  8
0
  6
BYBLOCK
 62
     0
100
AcDbLine
 10
0.22859
 20
0.933696
 30
0.0
 11
-0.658942
 21
0.933696
 31
0.0
  0
LINE
  5
426
100
AcDbEntity
  8
0
  6
BYBLOCK
 62
     0
100
AcDbLine
 10
-0.189939
 20
5.308696
 30
0.0
 11
-0.658942
 21
5.308696
 31
0.0
  0
LINE
  5
427
100
AcDbEntity
  8
0
  6
BYBLOCK
 62
     0
100
AcDbLine
 10
-0.478942
 20
1.083696
 30
0.0
 11
-0.478942
 21
2.956196
 31
0.0
  0
LINE
  5
428
100
AcDbEntity
  8
0
  6
BYBLOCK
 62
     0
100
AcDbLine
 10
-0.478942
 20
5.158696
 30
0.0
 11
-0.478942
 21
3.286196
 31
0.0
  0
SOLID
  5
429
100
AcDbEntity
  8
0
  6
BYBLOCK
 62
     0
100
AcDbTrace
 10
-0.503942
 20
1.083696
 30
0.0
 11
-0.453942
 21
1.083696
 31
0.0
 12
-0.478942
 22
0.933696
 32
0.0
 13
-0.478942
 23
0.933696
 33
0.0
  0
SOLID
  5
42A
100
AcDbEntity
  8
0
  6
BYBLOCK
 62
     0
100
AcDbTrace
 10
-0.503942
 20
5.158696
 30
0.0
 11
-0.453942
 21
5.158696
 31
0.0
 12
-0.478942
 22
5.308696
 32
0.0
 13
-0.478942
 23
5.308696
 33
0.0
  0
MTEXT
  5
42B
100
AcDbEntity
  8
0
  6
BYBLOCK
 62
     0
100
AcDbMText
 10
-0.478942
 20
3.121196
 30
0.0
 40
0.15
 41
0.0
 71
     5
 72
     1
  1
\A1;4.375
  0
POINT
  5
42C
100
AcDbEntity
  8
DEFPOINTS
  6
BYBLOCK
 62
     0
100
AcDbPoint
 10
0.29109
 20
0.933696
 30
0.0
  0
POINT
  5
42D
100
AcDbEntity
  8
DEFPOINTS
  6
BYBLOCK
 62
     0
100
AcDbPoint
 10
-0.127439
 20
5.308696
 30
0.0
  0
POINT
  5
42E
100
AcDbEntity
  8
DEFPOINTS
  6
BYBLOCK
 62
     0
100
AcDbPoint
 10
-0.478942
 20
5.308696
 30
0.0
  0
ENDBLK
  5
42F
100
AcDbEntity
  8
0
100
AcDbBlockEnd
  0
BLOCK
  5
432
100
AcDbEntity
  8
0
100
AcDbBlockBegin
  2
*D16
 70
     1
 10
0.0
 20
0.0
 30
0.0
  3
*D16
  1

  0
LINE
  5
433
100
AcDbEntity
  8
0
  6
BYBLOCK
 62
     0
100
AcDbLine
 10
1.14509
 20
-0.816304
 30
0.0
 11
-1.505243
 21
-0.816304
 31
0.0
  0
LINE
  5
434
100
AcDbEntity
  8
0
  6
BYBLOCK
 62
     0
100
AcDbLine
 10
0.41559
 20
7.183696
 30
0.0
 11
-1.505243
 21
7.183696
 31
0.0
  0
LINE
  5
435
100
AcDbEntity
  8
0
  6
BYBLOCK
 62
     0
100
AcDbLine
 10
-1.325243
 20
-0.666304
 30
0.0
 11
-1.325243
 21
3.018696
 31
0.0
  0
LINE
  5
436
100
AcDbEntity
  8
0
  6
BYBLOCK
 62
     0
100
AcDbLine
 10
-1.325243
 20
7.033696
 30
0.0
 11
-1.325243
 21
3.348696
 31
0.0
  0
SOLID
  5
437
100
AcDbEntity
  8
0
  6
BYBLOCK
 62
     0
100
AcDbTrace
 10
-1.350243
 20
-0.666304
 30
0.0
 11
-1.300243
 21
-0.666304
 31
0.0
 12
-1.325243
 22
-0.816304
 32
0.0
 13
-1.325243
 23
-0.816304
 33
0.0
  0
SOLID
  5
438
100
AcDbEntity
  8
0
  6
BYBLOCK
 62
     0
100
AcDbTrace
 10
-1.350243
 20
7.033696
 30
0.0
 11
-1.300243
 21
7.033696
 31
0.0
 12
-1.325243
 22
7.183696
 32
0.0
 13
-1.325243
 23
7.183696
 33
0.0
  0
MTEXT
  5
439
100
AcDbEntity
  8
0
  6
BYBLOCK
 62
     0
100
AcDbMText
 10
-1.325243
 20
3.183696
 30
0.0
 40
0.15
 41
0.0
 71
     5
 72
     1
  1
\A1;8.000
  0
POINT
  5
43A
100
AcDbEntity
  8
DEFPOINTS
  6
BYBLOCK
 62
     0
100
AcDbPoint
 10
1.20759
 20
-0.816304
 30
0.0
  0
POINT
  5
43B
100
AcDbEntity
  8
DEFPOINTS
  6
BYBLOCK
 62
     0
100
AcDbPoint
 10
0.47809
 20
7.183696
 30
0.0
  0
POINT
  5
43C
100
AcDbEntity
  8
DEFPOINTS
  6
BYBLOCK
 62
     0
100
AcDbPoint
 10
-1.325243
 20
7.183696
 30
0.0
  0
ENDBLK
  5
43D
100
AcDbEntity
  8
0
100
AcDbBlockEnd
  0
BLOCK
  5
459
100
AcDbEntity
  8
0
100
AcDbBlockBegin
  2
*D17
 70
     1
 10
0.0
 20
0.0
 30
0.0
  3
*D17
  1

  0
LINE
  5
45A
100
AcDbEntity
  8
0
  6
BYBLOCK
 62
     0
100
AcDbLine
 10
1.92759
 20
-0.848804
 30
0.0
 11
1.92759
 21
-1.636745
 31
0.0
  0
LINE
  5
45B
100
AcDbEntity
  8
0
  6
BYBLOCK
 62
     0
100
AcDbLine
 10
1.17759
 20
-0.848804
 30
0.0
 11
1.17759
 21
-1.636745
 31
0.0
  0
LINE
  5
45C
100
AcDbEntity
  8
0
  6
BYBLOCK
 62
     0
100
AcDbLine
 10
1.77759
 20
-1.456745
 30
0.0
 11
1.32759
 21
-1.456745
 31
0.0
  0
LINE
  5
45D
100
AcDbEntity
  8
0
  6
BYBLOCK
 62
     0
100
AcDbLine
 10
1.17759
 20
-1.456745
 30
0.0
 11
0.952896
 21
-1.456745
 31
0.0
  0
SOLID
  5
45E
100
AcDbEntity
  8
0
  6
BYBLOCK
 62
     0
100
AcDbTrace
 10
1.77759
 20
-1.431745
 30
0.0
 11
1.77759
 21
-1.481745
 31
0.0
 12
1.92759
 22
-1.456745
 32
0.0
 13
1.92759
 23
-1.456745
 33
0.0
  0
SOLID
  5
45F
100
AcDbEntity
  8
0
  6
BYBLOCK
 62
     0
100
AcDbTrace
 10
1.32759
 20
-1.431745
 30
0.0
 11
1.32759
 21
-1.481745
 31
0.0
 12
1.17759
 22
-1.456745
 32
0.0
 13
1.17759
 23
-1.456745
 33
0.0
  0
MTEXT
  5
460
100
AcDbEntity
  8
0
  6
BYBLOCK
 62
     0
100
AcDbMText
 10
0.575396
 20
-1.456745
 30
0.0
 40
0.15
 41
0.0
 71
     5
 72
     1
  1
\A1;\U+2205.750\PTYP.
  0
POINT
  5
461
100
AcDbEntity
  8
DEFPOINTS
  6
BYBLOCK
 62
     0
100
AcDbPoint
 10
1.92759
 20
-0.786304
 30
0.0
  0
POINT
  5
462
100
AcDbEntity
  8
DEFPOINTS
  6
BYBLOCK
 62
     0
100
AcDbPoint
 10
1.17759
 20
-0.786304
 30
0.0
  0
POINT
  5
463
100
AcDbEntity
  8
DEFPOINTS
  6
BYBLOCK
 62
     0
100
AcDbPoint
 10
1.17759
 20
-1.456745
 30
0.0
  0
ENDBLK
  5
464
100
AcDbEntity
  8
0
100
AcDbBlockEnd
  0
BLOCK
  5
473
100
AcDbEntity
  8
0
100
AcDbBlockBegin
  2
*D18
 70
     1
 10
0.0
 20
0.0
 30
0.0
  3
*D18
  1

  0
LINE
  5
474
100
AcDbEntity
  8
0
  6
BYBLOCK
 62
     0
100
AcDbLine
 10
10.303896
 20
-0.878804
 30
0.0
 11
10.303896
 21
-1.447679
 31
0.0
  0
LINE
  5
475
100
AcDbEntity
  8
0
  6
BYBLOCK
 62
     0
100
AcDbLine
 10
10.489896
 20
-0.878804
 30
0.0
 11
10.489896
 21
-1.447679
 31
0.0
  0
LINE
  5
476
100
AcDbEntity
  8
0
  6
BYBLOCK
 62
     0
100
AcDbLine
 10
10.153896
 20
-1.267679
 30
0.0
 11
10.003896
 21
-1.267679
 31
0.0
  0
LINE
  5
477
100
AcDbEntity
  8
0
  6
BYBLOCK
 62
     0
100
AcDbLine
 10
10.639896
 20
-1.267679
 30
0.0
 11
10.789896
 21
-1.267679
 31
0.0
  0
SOLID
  5
478
100
AcDbEntity
  8
0
  6
BYBLOCK
 62
     0
100
AcDbTrace
 10
10.153896
 20
-1.242679
 30
0.0
 11
10.153896
 21
-1.292679
 31
0.0
 12
10.303896
 22
-1.267679
 32
0.0
 13
10.303896
 23
-1.267679
 33
0.0
  0
SOLID
  5
479
100
AcDbEntity
  8
0
  6
BYBLOCK
 62
     0
100
AcDbTrace
 10
10.639896
 20
-1.242679
 30
0.0
 11
10.639896
 21
-1.292679
 31
0.0
 12
10.489896
 22
-1.267679
 32
0.0
 13
10.489896
 23
-1.267679
 33
0.0
  0
MTEXT
  5
47A
100
AcDbEntity
  8
0
  6
BYBLOCK
 62
     0
100
AcDbMText
 10
11.542396
 20
-1.267679
 30
0.0
 40
0.15
 41
0.0
 71
     5
 72
     1
  1
\A1;.187 X .093\PKEYWAY\PTYP.
  0
POINT
  5
47B
100
AcDbEntity
  8
DEFPOINTS
  6
BYBLOCK
 62
     0
100
AcDbPoint
 10
10.303896
 20
-0.816304
 30
0.0
  0
POINT
  5
47C
100
AcDbEntity
  8
DEFPOINTS
  6
BYBLOCK
 62
     0
100
AcDbPoint
 10
10.489896
 20
-0.816304
 30
0.0
  0
POINT
  5
47D
100
AcDbEntity
  8
DEFPOINTS
  6
BYBLOCK
 62
     0
100
AcDbPoint
 10
10.489896
 20
-1.267679
 30
0.0
  0
ENDBLK
  5
47E
100
AcDbEntity
  8
0
100
AcDbBlockEnd
  0
BLOCK
  5
48B
100
AcDbEntity
  8
0
100
AcDbBlockBegin
  2
*D19
 70
     1
 10
0.0
 20
0.0
 30
0.0
  3
*D19
  1

  0
LINE
  5
48C
100
AcDbEntity
  8
0
  6
BYBLOCK
 62
     0
100
AcDbLine
 10
13.246702
 20
2.560814
 30
0.0
 11
13.096702
 21
2.560814
 31
0.0
  0
LINE
  5
48D
100
AcDbEntity
  8
0
  6
BYBLOCK
 62
     0
100
AcDbLine
 10
13.096702
 20
2.560814
 30
0.0
 11
11.989936
 21
3.707743
 31
0.0
  0
MTEXT
  5
48E
100
AcDbEntity
  8
0
  6
BYBLOCK
 62
     0
100
AcDbMText
 10
14.011702
 20
2.560814
 30
0.0
 40
0.15
 41
0.0
 71
     5
 72
     1
  1
\A1;\U+2205.328 THRU\PX 3
  0
SOLID
  5
48F
100
AcDbEntity
  8
0
  6
BYBLOCK
 62
     0
100
AcDbTrace
 10
12.007926
 20
3.725103
 30
0.0
 11
11.971947
 21
3.690383
 31
0.0
 12
11.885777
 22
3.815682
 32
0.0
 13
11.885777
 23
3.815682
 33
0.0
  0
LINE
  5
490
100
AcDbEntity
  8
0
  6
BYBLOCK
 62
     0
100
AcDbLine
 10
11.681896
 20
3.933696
 30
0.0
 11
11.861896
 21
3.933696
 31
0.0
  0
LINE
  5
491
100
AcDbEntity
  8
0
  6
BYBLOCK
 62
     0
100
AcDbLine
 10
11.771896
 20
3.843696
 30
0.0
 11
11.771896
 21
4.023696
 31
0.0
  0
POINT
  5
492
100
AcDbEntity
  8
DEFPOINTS
  6
BYBLOCK
 62
     0
100
AcDbPoint
 10
11.885777
 20
3.815682
 30
0.0
  0
POINT
  5
493
100
AcDbEntity
  8
DEFPOINTS
  6
BYBLOCK
 62
     0
100
AcDbPoint
 10
11.658016
 20
4.051709
 30
0.0
  0
ENDBLK
  5
494
100
AcDbEntity
  8
0
100
AcDbBlockEnd
  0
BLOCK
  5
4B4
100
AcDbEntity
  8
0
100
AcDbBlockBegin
  2
*D20
 70
     1
 10
0.0
 20
0.0
 30
0.0
  3
*D20
  1

  0
LINE
  5
4B5
100
AcDbEntity
  8
0
  6
BYBLOCK
 62
     0
100
AcDbLine
 10
0.22909
 20
7.183196
 30
0.0
 11
0.22909
 21
8.646198
 31
0.0
  0
LINE
  5
4B6
100
AcDbEntity
  8
0
  6
BYBLOCK
 62
     0
100
AcDbLine
 10
1.54059
 20
7.705729
 30
0.0
 11
1.54059
 21
8.646198
 31
0.0
  0
LINE
  5
4B7
100
AcDbEntity
  8
0
  6
BYBLOCK
 62
     0
100
AcDbLine
 10
0.37909
 20
8.466198
 30
0.0
 11
0.54484
 21
8.466198
 31
0.0
  0
LINE
  5
4B8
100
AcDbEntity
  8
0
  6
BYBLOCK
 62
     0
100
AcDbLine
 10
1.39059
 20
8.466198
 30
0.0
 11
1.22484
 21
8.466198
 31
0.0
  0
SOLID
  5
4B9
100
AcDbEntity
  8
0
  6
BYBLOCK
 62
     0
100
AcDbTrace
 10
0.37909
 20
8.491198
 30
0.0
 11
0.37909
 21
8.441198
 31
0.0
 12
0.22909
 22
8.466198
 32
0.0
 13
0.22909
 23
8.466198
 33
0.0
  0
SOLID
  5
4BA
100
AcDbEntity
  8
0
  6
BYBLOCK
 62
     0
100
AcDbTrace
 10
1.39059
 20
8.491198
 30
0.0
 11
1.39059
 21
8.441198
 31
0.0
 12
1.54059
 22
8.466198
 32
0.0
 13
1.54059
 23
8.466198
 33
0.0
  0
MTEXT
  5
4BB
100
AcDbEntity
  8
0
  6
BYBLOCK
 62
     0
100
AcDbMText
 10
0.88484
 20
8.466198
 30
0.0
 40
0.15
 41
0.0
 71
     5
 72
     1
  1
\A1;1.312
  0
POINT
  5
4BC
100
AcDbEntity
  8
DEFPOINTS
  6
BYBLOCK
 62
     0
100
AcDbPoint
 10
0.22909
 20
7.120696
 30
0.0
  0
POINT
  5
4BD
100
AcDbEntity
  8
DEFPOINTS
  6
BYBLOCK
 62
     0
100
AcDbPoint
 10
1.54059
 20
7.643229
 30
0.0
  0
POINT
  5
4BE
100
AcDbEntity
  8
DEFPOINTS
  6
BYBLOCK
 62
     0
100
AcDbPoint
 10
1.54059
 20
8.466198
 30
0.0
  0
ENDBLK
  5
4BF
100
AcDbEntity
  8
0
100
AcDbBlockEnd
  0
BLOCK
  5
4C2
100
AcDbEntity
  8
0
100
AcDbBlockBegin
  2
*D21
 70
     1
 10
0.0
 20
0.0
 30
0.0
  3
*D21
  1

  0
LINE
  5
4C3
100
AcDbEntity
  8
0
  6
BYBLOCK
 62
     0
100
AcDbLine
 10
0.22909
 20
7.183196
 30
0.0
 11
0.22909
 21
9.26526
 31
0.0
  0
LINE
  5
4C4
100
AcDbEntity
  8
0
  6
BYBLOCK
 62
     0
100
AcDbLine
 10
2.85409
 20
7.183196
 30
0.0
 11
2.85409
 21
9.26526
 31
0.0
  0
LINE
  5
4C5
100
AcDbEntity
  8
0
  6
BYBLOCK
 62
     0
100
AcDbLine
 10
0.37909
 20
9.08526
 30
0.0
 11
1.15159
 21
9.08526
 31
0.0
  0
LINE
  5
4C6
100
AcDbEntity
  8
0
  6
BYBLOCK
 62
     0
100
AcDbLine
 10
2.70409
 20
9.08526
 30
0.0
 11
1.93159
 21
9.08526
 31
0.0
  0
SOLID
  5
4C7
100
AcDbEntity
  8
0
  6
BYBLOCK
 62
     0
100
AcDbTrace
 10
0.37909
 20
9.11026
 30
0.0
 11
0.37909
 21
9.06026
 31
0.0
 12
0.22909
 22
9.08526
 32
0.0
 13
0.22909
 23
9.08526
 33
0.0
  0
SOLID
  5
4C8
100
AcDbEntity
  8
0
  6
BYBLOCK
 62
     0
100
AcDbTrace
 10
2.70409
 20
9.11026
 30
0.0
 11
2.70409
 21
9.06026
 31
0.0
 12
2.85409
 22
9.08526
 32
0.0
 13
2.85409
 23
9.08526
 33
0.0
  0
MTEXT
  5
4C9
100
AcDbEntity
  8
0
  6
BYBLOCK
 62
     0
100
AcDbMText
 10
1.54159
 20
9.08526
 30
0.0
 40
0.15
 41
0.0
 71
     5
 72
     1
  1
\A1;2.625
  0
POINT
  5
4CA
100
AcDbEntity
  8
DEFPOINTS
  6
BYBLOCK
 62
     0
100
AcDbPoint
 10
0.22909
 20
7.120696
 30
0.0
  0
POINT
  5
4CB
100
AcDbEntity
  8
DEFPOINTS
  6
BYBLOCK
 62
     0
100
AcDbPoint
 10
2.85409
 20
7.120696
 30
0.0
  0
POINT
  5
4CC
100
AcDbEntity
  8
DEFPOINTS
  6
BYBLOCK
 62
     0
100
AcDbPoint
 10
2.85409
 20
9.08526
 30
0.0
  0
ENDBLK
  5
4CD
100
AcDbEntity
  8
0
100
AcDbBlockEnd
  0
BLOCK
  5
589
100
AcDbEntity
  8
0
100
AcDbBlockBegin
  2
TITLE_BLOCK
 70
     0
 10
0.0
 20
0.0
 30
0.0
  3
TITLE_BLOCK
  1

  0
TEXT
  5
57B
100
AcDbEntity
  8
DIMS_TEXT
100
AcDbText
 10
-2.625251
 20
-1.013129
 30
0.0
 40
0.2
  1
HAR121   135818(C1)/135817(C2)   1:1
 41
0.7
100
AcDbText
  0
TEXT
  5
57C
100
AcDbEntity
  8
DIMS_TEXT
100
AcDbText
 10
-2.687755
 20
-0.107889
 30
0.0
 40
0.15
  1
Tel. (508) 278-2422     Fax (508) 278-7863
 41
0.9
100
AcDbText
  0
TEXT
  5
57D
100
AcDbEntity
  8
DIMS_TEXT
100
AcDbText
 10
-2.413383
 20
0.524379
 30
0.0
 40
0.2
  1
Two Way Right Angle Gear Drive
 41
0.9
100
AcDbText
  0
TEXT
  5
57E
100
AcDbEntity
  8
DIMS_TEXT
100
AcDbText
 10
-1.826671
 20
0.987066
 30
0.0
 40
0.3
  1
 MITRPAK
 41
1.5
100
AcDbText
  0
LINE
  5
57F
100
AcDbEntity
  8
DIMS_TEXT
100
AcDbLine
 10
-2.723037
 20
-0.533096
 30
0.0
 11
2.500333
 21
-0.533096
 31
0.0
  0
LINE
  5
580
100
AcDbEntity
  8
DIMS_TEXT
100
AcDbLine
 10
-2.723037
 20
-0.199514
 30
0.0
 11
2.500333
 21
-0.199514
 31
0.0
  0
LINE
  5
581
100
AcDbEntity
  8
DIMS_TEXT
100
AcDbLine
 10
-2.723037
 20
0.125931
 30
0.0
 11
2.500333
 21
0.125931
 31
0.0
  0
LINE
  5
582
100
AcDbEntity
  8
DIMS_TEXT
100
AcDbLine
 10
-2.723037
 20
0.451377
 30
0.0
 11
2.500333
 21
0.451377
 31
0.0
  0
LINE
  5
583
100
AcDbEntity
  8
DIMS_TEXT
100
AcDbLine
 10
-2.723037
 20
0.874457
 30
0.0
 11
2.500333
 21
0.874457
 31
0.0
  0
TEXT
  5
584
100
AcDbEntity
  8
DIMS_TEXT
100
AcDbText
 10
-2.6334
 20
-0.468007
 30
0.0
 40
0.2
  1
MODEL   PART NUMBER  RATIO
100
AcDbText
  0
LWPOLYLINE
  5
585
100
AcDbEntity
  8
DIMS_TEXT
100
AcDbPolyline
 90
        4
 70
     1
 43
0.0
 10
-2.723037
 20
1.39517
 10
2.500333
 20
1.39517
 10
2.500333
 20
-1.143307
 10
-2.723037
 20
-1.143307
  0
TEXT
  5
586
100
AcDbEntity
  8
DIMS_TEXT
100
AcDbText
 10
-2.687755
 20
0.215921
 30
0.0
 40
0.15
  1
Uxbridge, MA 01569              U.S.A.
100
AcDbText
  0
LINE
  5
587
100
AcDbEntity
  8
DIMS_TEXT
100
AcDbLine
 10
-1.394785
 20
-0.199514
 30
0.0
 11
-1.394785
 21
-1.143307
 31
0.0
  0
LINE
  5
588
100
AcDbEntity
  8
DIMS_TEXT
100
AcDbLine
 10
1.294313
 20
-0.199514
 30
0.0
 11
1.294313
 21
-1.143307
 31
0.0
  0
ENDBLK
  5
58A
100
AcDbEntity
  8
0
100
AcDbBlockEnd
  0
ENDSEC
  0
SECTION
  2
ENTITIES
  0
LINE
  5
133
100
AcDbEntity
  8
CTR_LINES
100
AcDbLine
 10
2.028775
 20
6.683696
 30
0.0
 11
3.162714
 21
6.683696
 31
0.0
  0
ARC
  5
135
100
AcDbEntity
  8
0
100
AcDbCircle
 10
12.393311
 20
3.871696
 30
0.0
 40
0.187
100
AcDbArc
 50
90.0
 51
174.302322
  0
ARC
  5
136
100
AcDbEntity
  8
0
100
AcDbCircle
 10
12.396396
 20
4.496696
 30
0.0
 40
0.187
100
AcDbArc
 50
90.0
 51
180.0
  0
LINE
  5
137
100
AcDbEntity
  8
0
100
AcDbLine
 10
11.021396
 20
5.933696
 30
0.0
 11
12.584896
 21
5.933696
 31
0.0
  0
LINE
  5
138
100
AcDbEntity
  8
0
100
AcDbLine
 10
11.018311
 20
6.558696
 30
0.0
 11
12.584896
 21
6.558696
 31
0.0
  0
LINE
  5
13A
100
AcDbEntity
  8
CTR_LINES
100
AcDbLine
 10
11.305535
 20
3.933696
 30
0.0
 11
12.378323
 21
3.933696
 31
0.0
  0
LINE
  5
13B
100
AcDbEntity
  8
CTR_LINES
100
AcDbLine
 10
7.301576
 20
6.683696
 30
0.0
 11
11.045135
 21
6.683696
 31
0.0
  0
LINE
  5
13C
100
AcDbEntity
  8
CTR_LINES
100
AcDbLine
 10
-0.127439
 20
5.308696
 30
0.0
 11
3.162714
 21
5.308696
 31
0.0
  0
LINE
  5
140
100
AcDbEntity
  8
CTR_LINES
100
AcDbLine
 10
2.35259
 20
7.564386
 30
0.0
 11
2.35259
 21
6.199206
 31
0.0
  0
CIRCLE
  5
142
100
AcDbEntity
  8
0
  6
CONTINUOUS
100
AcDbCircle
 10
1.54059
 20
5.308696
 30
0.0
 40
0.92525
  0
LINE
  5
143
100
AcDbEntity
  8
0
100
AcDbLine
 10
0.29109
 20
6.185696
 30
0.0
 11
0.29109
 21
4.431196
 31
0.0
  0
LINE
  5
145
100
AcDbEntity
  8
0
100
AcDbLine
 10
2.79209
 20
6.996696
 30
0.0
 11
2.79209
 21
3.620696
 31
0.0
  0
LINE
  5
146
100
AcDbEntity
  8
0
100
AcDbLine
 10
0.29109
 20
5.861527
 30
0.0
 11
0.29109
 21
4.755864
 31
0.0
  0
LINE
  5
149
100
AcDbEntity
  8
CTR_LINES
100
AcDbLine
 10
11.771896
 20
6.916633
 30
0.0
 11
11.771896
 21
3.209248
 31
0.0
  0
LINE
  5
14A
100
AcDbEntity
  8
0
100
AcDbLine
 10
7.521896
 20
7.183696
 30
0.0
 11
7.521896
 21
3.433696
 31
0.0
  0
DIMENSION
  5
14C
100
AcDbEntity
  8
DIMS_TEXT
100
AcDbDimension
  2
*D6
 10
2.252475
 20
4.063591
 30
0.0
 11
4.302332
 21
2.630086
 31
0.0
 12
-0.012
 22
0.0
 32
0.0
 70
   163
  1
<> THRU\PX 4\PTYP.
  3
STANDARD
100
AcDbDiametricDimension
 15
2.452706
 25
3.8038
 35
0.0
 40
0.0
1001
ACAD
1000
DSTYLE
1002
{
1070
    78
1070
     4
1070
   288
1070
     1
1070
   284
1070
     4
1070
   140
1040
0.15
1070
   272
1070
     1
1070
   271
1070
     3
1002
}
  0
LINE
  5
151
100
AcDbEntity
  8
0
100
AcDbLine
 10
0.29109
 20
3.496196
 30
0.0
 11
0.29109
 21
0.933696
 31
0.0
  0
LINE
  5
152
100
AcDbEntity
  8
0
100
AcDbLine
 10
2.792088
 20
3.496196
 30
0.0
 11
2.794576
 21
0.933696
 31
0.0
  0
ARC
  5
153
100
AcDbEntity
  8
0
100
AcDbCircle
 10
1.97759
 20
1.620696
 30
0.0
 40
0.187
100
AcDbArc
 50
180.0
 51
270.0
  0
ARC
  5
154
100
AcDbEntity
  8
0
100
AcDbCircle
 10
1.10359
 20
1.620696
 30
0.0
 40
0.187
100
AcDbArc
 50
270.0
 51
360.0
  0
ARC
  5
155
100
AcDbEntity
  8
0
100
AcDbCircle
 10
2.73209
 20
1.373696
 30
0.0
 40
0.06
100
AcDbArc
 50
360.0
 51
90.0
  0
ARC
  5
156
100
AcDbEntity
  8
0
100
AcDbCircle
 10
0.35109
 20
1.373696
 30
0.0
 40
0.06
100
AcDbArc
 50
90.0
 51
180.0
  0
LINE
  5
158
100
AcDbEntity
  8
0
100
AcDbLine
 10
0.29109
 20
0.933696
 30
0.0
 11
2.794576
 21
0.933696
 31
0.0
  0
LINE
  5
15A
100
AcDbEntity
  8
0
100
AcDbLine
 10
0.29109
 20
1.373696
 30
0.0
 11
0.29109
 21
0.933696
 31
0.0
  0
LINE
  5
15B
100
AcDbEntity
  8
0
100
AcDbLine
 10
2.79209
 20
1.373696
 30
0.0
 11
2.794156
 21
1.365836
 31
0.0
  0
LINE
  5
15C
100
AcDbEntity
  8
0
100
AcDbLine
 10
1.29059
 20
3.371196
 30
0.0
 11
1.29059
 21
1.620696
 31
0.0
  0
LINE
  5
15D
100
AcDbEntity
  8
0
100
AcDbLine
 10
1.79059
 20
3.371196
 30
0.0
 11
1.79059
 21
1.620696
 31
0.0
  0
LINE
  5
15E
100
AcDbEntity
  8
0
100
AcDbLine
 10
0.35109
 20
1.433696
 30
0.0
 11
1.10359
 21
1.433696
 31
0.0
  0
LINE
  5
15F
100
AcDbEntity
  8
0
100
AcDbLine
 10
1.97759
 20
1.433696
 30
0.0
 11
2.73209
 21
1.433696
 31
0.0
  0
LINE
  5
161
100
AcDbEntity
  8
0
100
AcDbLine
 10
0.47809
 20
3.433696
 30
0.0
 11
2.60509
 21
3.433696
 31
0.0
  0
LINE
  5
162
100
AcDbEntity
  8
0
100
AcDbLine
 10
0.29109
 20
3.620696
 30
0.0
 11
0.29109
 21
4.431196
 31
0.0
  0
LINE
  5
164
100
AcDbEntity
  8
0
100
AcDbLine
 10
0.22909
 20
5.000628
 30
0.0
 11
0.22909
 21
3.496196
 31
0.0
  0
CIRCLE
  5
165
100
AcDbEntity
  8
0
  6
CONTINUOUS
100
AcDbCircle
 10
0.72859
 20
3.933696
 30
0.0
 40
0.164
  0
ARC
  5
167
100
AcDbEntity
  8
0
100
AcDbCircle
 10
0.47809
 20
3.620696
 30
0.0
 40
0.187
100
AcDbArc
 50
180.0
 51
270.0
  0
LINE
  5
168
100
AcDbEntity
  8
0
100
AcDbLine
 10
0.29109
 20
3.496196
 30
0.0
 11
0.33856
 21
3.496196
 31
0.0
  0
LINE
  5
169
100
AcDbEntity
  8
0
  6
DASHED2
100
AcDbLine
 10
0.22909
 20
3.496196
 30
0.0
 11
0.29109
 21
3.496196
 31
0.0
  0
LINE
  5
16A
100
AcDbEntity
  8
0
100
AcDbLine
 10
0.29109
 20
3.496196
 30
0.0
 11
0.22909
 21
3.496196
 31
0.0
  0
LINE
  5
172
100
AcDbEntity
  8
0
100
AcDbLine
 10
2.79209
 20
4.755864
 30
0.0
 11
2.79209
 21
4.78676
 31
0.0
  0
ARC
  5
175
100
AcDbEntity
  8
0
100
AcDbCircle
 10
2.60509
 20
3.620696
 30
0.0
 40
0.187
100
AcDbArc
 50
270.0
 51
360.0
  0
CIRCLE
  5
179
100
AcDbEntity
  8
0
  6
CONTINUOUS
100
AcDbCircle
 10
2.35259
 20
3.933696
 30
0.0
 40
0.164
  0
LINE
  5
17A
100
AcDbEntity
  8
0
100
AcDbLine
 10
2.744621
 20
3.496196
 30
0.0
 11
2.792088
 21
3.496196
 31
0.0
  0
LINE
  5
17B
100
AcDbEntity
  8
HIDDEN_LINE
  6
HIDDEN2
100
AcDbLine
 10
2.792088
 20
3.496196
 30
0.0
 11
2.79209
 21
3.496196
 31
0.0
  0
LINE
  5
17C
100
AcDbEntity
  8
0
100
AcDbLine
 10
2.85409
 20
3.496196
 30
0.0
 11
2.79209
 21
3.496196
 31
0.0
  0
ARC
  5
184
100
AcDbEntity
  8
0
100
AcDbCircle
 10
12.146896
 20
1.308696
 30
0.0
 40
0.125
100
AcDbArc
 50
360.0
 51
90.0
  0
ARC
  5
185
100
AcDbEntity
  8
0
100
AcDbCircle
 10
11.208896
 20
1.620696
 30
0.0
 40
0.187
100
AcDbArc
 50
180.0
 51
270.0
  0
ARC
  5
186
100
AcDbEntity
  8
0
100
AcDbCircle
 10
9.584896
 20
1.620696
 30
0.0
 40
0.187
100
AcDbArc
 50
270.0
 51
0.0
  0
ARC
  5
187
100
AcDbEntity
  8
0
100
AcDbCircle
 10
11.833896
 20
1.620696
 30
0.0
 40
0.187
100
AcDbArc
 50
180.0
 51
270.0
  0
ARC
  5
188
100
AcDbEntity
  8
0
100
AcDbCircle
 10
8.959896
 20
1.620696
 30
0.0
 40
0.187
100
AcDbArc
 50
270.0
 51
0.0
  0
ARC
  5
189
100
AcDbEntity
  8
0
100
AcDbCircle
 10
8.646896
 20
1.308696
 30
0.0
 40
0.125
100
AcDbArc
 50
90.0
 51
180.0
  0
LINE
  5
18A
100
AcDbEntity
  8
0
100
AcDbLine
 10
8.521896
 20
0.933696
 30
0.0
 11
12.271896
 21
0.933696
 31
0.0
  0
LINE
  5
18B
100
AcDbEntity
  8
0
100
AcDbLine
 10
8.521896
 20
1.308696
 30
0.0
 11
8.521896
 21
0.933696
 31
0.0
  0
LINE
  5
18C
100
AcDbEntity
  8
0
100
AcDbLine
 10
12.271896
 20
1.308696
 30
0.0
 11
12.271896
 21
0.933696
 31
0.0
  0
ARC
  5
18D
100
AcDbEntity
  8
0
100
AcDbCircle
 10
8.400482
 20
3.871696
 30
0.0
 40
0.187
100
AcDbArc
 50
5.697678
 51
90.0
  0
ARC
  5
18E
100
AcDbEntity
  8
0
100
AcDbCircle
 10
8.397396
 20
4.496696
 30
0.0
 40
0.187
100
AcDbArc
 50
0.0
 51
90.0
  0
LINE
  5
18F
100
AcDbEntity
  8
0
100
AcDbLine
 10
8.021896
 20
4.496696
 30
0.0
 11
8.021896
 21
3.933696
 31
0.0
  0
LINE
  5
190
100
AcDbEntity
  8
0
  6
CONTINUOUS
100
AcDbLine
 10
8.021896
 20
4.496696
 30
0.0
 11
8.021896
 21
3.558696
 31
0.0
  0
LINE
  5
193
100
AcDbEntity
  8
0
  6
CONTINUOUS
100
AcDbLine
 10
7.896896
 20
3.433696
 30
0.0
 11
7.521896
 21
3.433696
 31
0.0
  0
ARC
  5
194
100
AcDbEntity
  8
0
100
AcDbCircle
 10
7.896896
 20
3.558696
 30
0.0
 40
0.125
100
AcDbArc
 50
270.0
 51
0.0
  0
ARC
  5
195
100
AcDbEntity
  8
0
  6
DASHED2
100
AcDbCircle
 10
8.208896
 20
3.871696
 30
0.0
 40
0.187
100
AcDbArc
 50
90.0
 51
180.0
  0
LINE
  5
196
100
AcDbEntity
  8
0
100
AcDbLine
 10
8.021896
 20
3.871696
 30
0.0
 11
8.021896
 21
4.097696
 31
0.0
  0
LINE
  5
197
100
AcDbEntity
  8
0
100
AcDbLine
 10
8.021896
 20
3.933696
 30
0.0
 11
8.021896
 21
4.097696
 31
0.0
  0
LINE
  5
198
100
AcDbEntity
  8
0
100
AcDbLine
 10
8.208896
 20
4.058696
 30
0.0
 11
8.400482
 21
4.058696
 31
0.0
  0
ARC
  5
199
100
AcDbEntity
  8
0
100
AcDbCircle
 10
8.208896
 20
4.496696
 30
0.0
 40
0.187
100
AcDbArc
 50
90.0
 51
180.0
  0
LINE
  5
19A
100
AcDbEntity
  8
0
100
AcDbLine
 10
8.208896
 20
4.683696
 30
0.0
 11
8.397396
 21
4.683696
 31
0.0
  0
LINE
  5
19B
100
AcDbEntity
  8
0
100
AcDbLine
 10
9.771896
 20
3.309196
 30
0.0
 11
9.771896
 21
1.620696
 31
0.0
  0
LINE
  5
19C
100
AcDbEntity
  8
0
100
AcDbLine
 10
11.021896
 20
3.309196
 30
0.0
 11
11.021896
 21
1.620696
 31
0.0
  0
LINE
  5
19D
100
AcDbEntity
  8
0
100
AcDbLine
 10
9.146896
 20
3.312281
 30
0.0
 11
9.146896
 21
1.620696
 31
0.0
  0
LINE
  5
19E
100
AcDbEntity
  8
0
100
AcDbLine
 10
11.646896
 20
3.312281
 30
0.0
 11
11.646896
 21
1.620696
 31
0.0
  0
LINE
  5
19F
100
AcDbEntity
  8
0
100
AcDbLine
 10
8.646896
 20
1.433696
 30
0.0
 11
9.584896
 21
1.433696
 31
0.0
  0
LINE
  5
1A0
100
AcDbEntity
  8
0
100
AcDbLine
 10
11.208896
 20
1.433696
 30
0.0
 11
11.841119
 21
1.433696
 31
0.0
  0
LINE
  5
1A1
100
AcDbEntity
  8
0
100
AcDbLine
 10
12.146896
 20
1.433696
 30
0.0
 11
11.841119
 21
1.433696
 31
0.0
  0
LINE
  5
1A2
100
AcDbEntity
  8
0
100
AcDbLine
 10
8.584396
 20
3.933696
 30
0.0
 11
8.584396
 21
4.496696
 31
0.0
  0
CIRCLE
  5
1A3
100
AcDbEntity
  8
0
100
AcDbCircle
 10
9.021896
 20
3.933696
 30
0.0
 40
0.4375
  0
LINE
  5
1A4
100
AcDbEntity
  8
0
100
AcDbLine
 10
8.983772
 20
3.496196
 30
0.0
 11
9.584896
 21
3.496196
 31
0.0
  0
ARC
  5
1A5
100
AcDbEntity
  8
0
100
AcDbCircle
 10
8.959896
 20
3.312281
 30
0.0
 40
0.187
100
AcDbArc
 50
0.0
 51
84.302322
  0
LINE
  5
1A6
100
AcDbEntity
  8
0
100
AcDbLine
 10
8.978462
 20
3.498357
 30
0.0
 11
8.942899
 21
3.512832
 31
0.0
  0
LINE
  5
1A7
100
AcDbEntity
  8
0
100
AcDbLine
 10
8.978462
 20
3.498357
 30
0.0
 11
8.978462
 21
3.498357
 31
0.0
  0
LINE
  5
1A8
100
AcDbEntity
  8
0
100
AcDbLine
 10
9.021896
 20
3.496196
 30
0.0
 11
8.993725
 21
3.496196
 31
0.0
  0
CIRCLE
  5
1A9
100
AcDbEntity
  8
0
100
AcDbCircle
 10
9.021896
 20
3.933696
 30
0.0
 40
0.164
  0
ARC
  5
1AA
100
AcDbEntity
  8
0
100
AcDbCircle
 10
9.584896
 20
3.309196
 30
0.0
 40
0.187
100
AcDbArc
 50
0.0
 51
90.0
  0
LINE
  5
1AC
100
AcDbEntity
  8
0
100
AcDbLine
 10
12.209396
 20
3.933696
 30
0.0
 11
12.209396
 21
4.496696
 31
0.0
  0
LINE
  5
1AF
100
AcDbEntity
  8
0
100
AcDbLine
 10
11.208896
 20
3.496196
 30
0.0
 11
11.771896
 21
3.496196
 31
0.0
  0
ARC
  5
1B0
100
AcDbEntity
  8
0
100
AcDbCircle
 10
11.208896
 20
3.309196
 30
0.0
 40
0.187
100
AcDbArc
 50
90.0
 51
180.0
  0
ARC
  5
1B1
100
AcDbEntity
  8
0
100
AcDbCircle
 10
11.833896
 20
3.312281
 30
0.0
 40
0.187
100
AcDbArc
 50
95.697678
 51
180.0
  0
CIRCLE
  5
1B2
100
AcDbEntity
  8
0
100
AcDbCircle
 10
11.771896
 20
3.933696
 30
0.0
 40
0.164
  0
LINE
  5
1B7
100
AcDbEntity
  8
0
100
AcDbLine
 10
0.29109
 20
6.185696
 30
0.0
 11
0.29109
 21
6.996696
 31
0.0
  0
LINE
  5
1B9
100
AcDbEntity
  8
0
100
AcDbLine
 10
2.85409
 20
7.120696
 30
0.0
 11
2.85409
 21
6.245696
 31
0.0
  0
LINE
  5
1BA
100
AcDbEntity
  8
0
100
AcDbLine
 10
0.22909
 20
7.120696
 30
0.0
 11
0.22909
 21
6.245696
 31
0.0
  0
CIRCLE
  5
1BF
100
AcDbEntity
  8
0
  6
CONTINUOUS
100
AcDbCircle
 10
0.72859
 20
6.683696
 30
0.0
 40
0.164
  0
ARC
  5
1C0
100
AcDbEntity
  8
0
100
AcDbCircle
 10
0.23109
 20
6.185696
 30
0.0
 40
0.06
100
AcDbArc
 50
0.0
 51
90.0
  0
LINE
  5
1C1
100
AcDbEntity
  8
0
100
AcDbLine
 10
0.22909
 20
6.245696
 30
0.0
 11
0.23109
 21
6.245696
 31
0.0
  0
CIRCLE
  5
1C6
100
AcDbEntity
  8
0
  6
CONTINUOUS
100
AcDbCircle
 10
2.35259
 20
6.683696
 30
0.0
 40
0.164
  0
ARC
  5
1C7
100
AcDbEntity
  8
0
100
AcDbCircle
 10
2.849477
 20
6.185696
 30
0.0
 40
0.06
100
AcDbArc
 50
90.0
 51
180.055627
  0
LINE
  5
1C8
100
AcDbEntity
  8
0
100
AcDbLine
 10
2.849477
 20
6.245696
 30
0.0
 11
2.85409
 21
6.245696
 31
0.0
  0
LINE
  5
1CA
100
AcDbEntity
  8
0
100
AcDbLine
 10
0.47809
 20
7.183696
 30
0.0
 11
2.60509
 21
7.183696
 31
0.0
  0
ARC
  5
1CB
100
AcDbEntity
  8
0
100
AcDbCircle
 10
0.47809
 20
6.996696
 30
0.0
 40
0.187
100
AcDbArc
 50
90.0
 51
180.0
  0
LINE
  5
1CC
100
AcDbEntity
  8
0
100
AcDbLine
 10
0.22909
 20
7.120696
 30
0.0
 11
0.338115
 21
7.120696
 31
0.0
  0
ARC
  5
1CD
100
AcDbEntity
  8
0
100
AcDbCircle
 10
2.60509
 20
6.996696
 30
0.0
 40
0.187
100
AcDbArc
 50
360.0
 51
90.0
  0
LINE
  5
1CE
100
AcDbEntity
  8
0
100
AcDbLine
 10
2.745065
 20
7.120696
 30
0.0
 11
2.85409
 21
7.120696
 31
0.0
  0
LINE
  5
1CF
100
AcDbEntity
  8
0
100
AcDbLine
 10
8.208896
 20
5.933696
 30
0.0
 11
9.772396
 21
5.933696
 31
0.0
  0
LINE
  5
1D0
100
AcDbEntity
  8
0
100
AcDbLine
 10
8.208896
 20
6.558696
 30
0.0
 11
9.775482
 21
6.558696
 31
0.0
  0
LINE
  5
1D1
100
AcDbEntity
  8
0
100
AcDbLine
 10
8.021896
 20
6.120696
 30
0.0
 11
8.021896
 21
7.058696
 31
0.0
  0
ARC
  5
1D2
100
AcDbEntity
  8
0
100
AcDbCircle
 10
8.208896
 20
6.120696
 30
0.0
 40
0.187
100
AcDbArc
 50
180.0
 51
270.0
  0
ARC
  5
1D5
100
AcDbEntity
  8
0
  6
DASHED2
100
AcDbCircle
 10
8.208896
 20
6.745696
 30
0.0
 40
0.187
100
AcDbArc
 50
180.0
 51
270.0
  0
LINE
  5
1D6
100
AcDbEntity
  8
0
100
AcDbLine
 10
7.521896
 20
7.183696
 30
0.0
 11
7.896896
 21
7.183696
 31
0.0
  0
ARC
  5
1D7
100
AcDbEntity
  8
0
100
AcDbCircle
 10
7.896896
 20
7.058696
 30
0.0
 40
0.125
100
AcDbArc
 50
0.0
 51
90.0
  0
CIRCLE
  5
1D8
100
AcDbEntity
  8
0
100
AcDbCircle
 10
10.396896
 20
6.683696
 30
0.0
 40
0.4375
  0
CIRCLE
  5
1D9
100
AcDbEntity
  8
0
100
AcDbCircle
 10
10.396896
 20
6.683696
 30
0.0
 40
0.164
  0
ARC
  5
1DA
100
AcDbEntity
  8
0
100
AcDbCircle
 10
9.772396
 20
6.120696
 30
0.0
 40
0.187
100
AcDbArc
 50
270.0
 51
0.0
  0
LINE
  5
1DB
100
AcDbEntity
  8
0
100
AcDbLine
 10
9.959396
 20
6.683696
 30
0.0
 11
9.959396
 21
6.120696
 31
0.0
  0
ARC
  5
1DC
100
AcDbEntity
  8
0
100
AcDbCircle
 10
9.775482
 20
6.745696
 30
0.0
 40
0.187
100
AcDbArc
 50
270.0
 51
354.302322
  0
ARC
  5
1DD
100
AcDbEntity
  8
0
100
AcDbCircle
 10
11.021396
 20
6.120696
 30
0.0
 40
0.187
100
AcDbArc
 50
180.0
 51
270.0
  0
LINE
  5
1DE
100
AcDbEntity
  8
0
100
AcDbLine
 10
10.834396
 20
6.683696
 30
0.0
 11
10.834396
 21
6.120696
 31
0.0
  0
ARC
  5
1DF
100
AcDbEntity
  8
0
100
AcDbCircle
 10
11.018311
 20
6.745696
 30
0.0
 40
0.187
100
AcDbArc
 50
185.697678
 51
270.0
  0
LINE
  5
1E0
100
AcDbEntity
  8
0
100
AcDbLine
 10
13.271896
 20
7.183696
 30
0.0
 11
13.271896
 21
3.433696
 31
0.0
  0
LINE
  5
1E1
100
AcDbEntity
  8
0
100
AcDbLine
 10
12.771896
 20
4.496696
 30
0.0
 11
12.771896
 21
3.558696
 31
0.0
  0
ARC
  5
1E2
100
AcDbEntity
  8
0
100
AcDbCircle
 10
12.896896
 20
3.558696
 30
0.0
 40
0.125
100
AcDbArc
 50
180.0
 51
270.0
  0
LINE
  5
1E3
100
AcDbEntity
  8
0
100
AcDbLine
 10
12.896896
 20
3.433696
 30
0.0
 11
13.271896
 21
3.433696
 31
0.0
  0
ARC
  5
1E6
100
AcDbEntity
  8
0
100
AcDbCircle
 10
12.584896
 20
3.871696
 30
0.0
 40
0.187
100
AcDbArc
 50
0.0
 51
90.0
  0
LINE
  5
1E7
100
AcDbEntity
  8
0
100
AcDbLine
 10
12.393311
 20
4.058696
 30
0.0
 11
12.584896
 21
4.058696
 31
0.0
  0
ARC
  5
1E8
100
AcDbEntity
  8
0
100
AcDbCircle
 10
12.584896
 20
4.496696
 30
0.0
 40
0.187
100
AcDbArc
 50
0.0
 51
90.0
  0
LINE
  5
1E9
100
AcDbEntity
  8
0
100
AcDbLine
 10
12.396396
 20
4.683696
 30
0.0
 11
12.584896
 21
4.683696
 31
0.0
  0
LINE
  5
1EA
100
AcDbEntity
  8
0
100
AcDbLine
 10
12.771896
 20
6.120696
 30
0.0
 11
12.771896
 21
7.058696
 31
0.0
  0
ARC
  5
1EB
100
AcDbEntity
  8
0
100
AcDbCircle
 10
12.584896
 20
6.120696
 30
0.0
 40
0.187
100
AcDbArc
 50
270.0
 51
0.0
  0
ARC
  5
1EE
100
AcDbEntity
  8
0
100
AcDbCircle
 10
12.584896
 20
6.745696
 30
0.0
 40
0.187
100
AcDbArc
 50
270.0
 51
0.0
  0
ARC
  5
1EF
100
AcDbEntity
  8
0
100
AcDbCircle
 10
12.896896
 20
7.058696
 30
0.0
 40
0.125
100
AcDbArc
 50
90.0
 51
180.0
  0
LINE
  5
1F0
100
AcDbEntity
  8
0
100
AcDbLine
 10
12.771896
 20
7.058696
 30
0.0
 11
12.771896
 21
7.058696
 31
0.0
  0
LINE
  5
1F1
100
AcDbEntity
  8
0
100
AcDbLine
 10
12.896896
 20
7.183696
 30
0.0
 11
13.271896
 21
7.183696
 31
0.0
  0
LINE
  5
1F2
100
AcDbEntity
  8
CTR_LINES
100
AcDbLine
 10
1.54059
 20
7.643229
 30
0.0
 11
1.54059
 21
-1.083256
 31
0.0
  0
LINE
  5
26B
100
AcDbEntity
  8
CTR_LINES
100
AcDbLine
 10
10.396896
 20
7.333294
 30
0.0
 11
10.396896
 21
-1.374918
 31
0.0
  0
LINE
  5
270
100
AcDbEntity
  8
CTR_LINES
100
AcDbLine
 10
7.301576
 20
6.683696
 30
0.0
 11
11.045135
 21
6.683696
 31
0.0
  0
LINE
  5
271
100
AcDbEntity
  8
CTR_LINES
100
AcDbLine
 10
5.641829
 20
5.308696
 30
0.0
 11
15.276639
 21
5.308696
 31
0.0
  0
LINE
  5
272
100
AcDbEntity
  8
CTR_LINES
100
AcDbLine
 10
11.305535
 20
3.933696
 30
0.0
 11
12.378323
 21
3.933696
 31
0.0
  0
LINE
  5
27F
100
AcDbEntity
  8
0
100
AcDbLine
 10
1.91559
 20
0.933696
 30
0.0
 11
1.91559
 21
-0.786304
 31
0.0
  0
LINE
  5
280
100
AcDbEntity
  8
0
100
AcDbLine
 10
1.16559
 20
0.933696
 30
0.0
 11
1.16559
 21
-0.786304
 31
0.0
  0
LINE
  5
281
100
AcDbEntity
  8
0
100
AcDbLine
 10
10.771896
 20
0.933696
 30
0.0
 11
10.771896
 21
-0.786304
 31
0.0
  0
LINE
  5
282
100
AcDbEntity
  8
0
100
AcDbLine
 10
10.021896
 20
0.933696
 30
0.0
 11
10.021896
 21
-0.786304
 31
0.0
  0
LINE
  5
283
100
AcDbEntity
  8
0
100
AcDbLine
 10
5.801896
 20
5.683696
 30
0.0
 11
7.521896
 21
5.683696
 31
0.0
  0
LINE
  5
284
100
AcDbEntity
  8
0
100
AcDbLine
 10
5.801896
 20
4.933696
 30
0.0
 11
7.521896
 21
4.933696
 31
0.0
  0
LINE
  5
287
100
AcDbEntity
  8
0
100
AcDbLine
 10
1.19559
 20
-0.816304
 30
0.0
 11
1.88559
 21
-0.816304
 31
0.0
  0
LINE
  5
288
100
AcDbEntity
  8
0
100
AcDbLine
 10
10.051896
 20
-0.816304
 30
0.0
 11
10.741896
 21
-0.816304
 31
0.0
  0
LINE
  5
289
100
AcDbEntity
  8
0
100
AcDbLine
 10
5.771896
 20
5.653696
 30
0.0
 11
5.771896
 21
4.963696
 31
0.0
  0
LINE
  5
28A
100
AcDbEntity
  8
0
100
AcDbLine
 10
15.021896
 20
5.653696
 30
0.0
 11
15.021896
 21
4.963696
 31
0.0
  0
LINE
  5
28B
100
AcDbEntity
  8
0
100
AcDbLine
 10
5.801896
 20
5.683696
 30
0.0
 11
5.771896
 21
5.653696
 31
0.0
  0
LINE
  5
28C
100
AcDbEntity
  8
0
100
AcDbLine
 10
5.801896
 20
4.933696
 30
0.0
 11
5.771896
 21
4.963696
 31
0.0
  0
LINE
  5
28D
100
AcDbEntity
  8
0
100
AcDbLine
 10
10.021896
 20
-0.786304
 30
0.0
 11
10.051896
 21
-0.816304
 31
0.0
  0
LINE
  5
28E
100
AcDbEntity
  8
0
100
AcDbLine
 10
10.771896
 20
-0.786304
 30
0.0
 11
10.741896
 21
-0.816304
 31
0.0
  0
LINE
  5
28F
100
AcDbEntity
  8
0
100
AcDbLine
 10
14.991896
 20
4.933696
 30
0.0
 11
15.021896
 21
4.963696
 31
0.0
  0
LINE
  5
290
100
AcDbEntity
  8
0
100
AcDbLine
 10
15.021896
 20
5.653696
 30
0.0
 11
14.991896
 21
5.683696
 31
0.0
  0
LINE
  5
291
100
AcDbEntity
  8
0
100
AcDbLine
 10
1.88559
 20
-0.816304
 30
0.0
 11
1.91559
 21
-0.786304
 31
0.0
  0
LINE
  5
292
100
AcDbEntity
  8
0
100
AcDbLine
 10
1.19559
 20
-0.816304
 30
0.0
 11
1.16559
 21
-0.786304
 31
0.0
  0
LINE
  5
293
100
AcDbEntity
  8
0
100
AcDbLine
 10
13.271896
 20
5.683696
 30
0.0
 11
14.991896
 21
5.683696
 31
0.0
  0
LINE
  5
294
100
AcDbEntity
  8
0
100
AcDbLine
 10
13.271896
 20
4.933696
 30
0.0
 11
14.991896
 21
4.933696
 31
0.0
  0
LINE
  5
295
100
AcDbEntity
  8
0
100
AcDbLine
 10
1.16559
 20
-0.786304
 30
0.0
 11
1.91559
 21
-0.786304
 31
0.0
  0
LINE
  5
296
100
AcDbEntity
  8
0
100
AcDbLine
 10
5.801896
 20
4.933696
 30
0.0
 11
5.801896
 21
5.215696
 31
0.0
  0
LINE
  5
297
100
AcDbEntity
  8
0
100
AcDbLine
 10
14.991896
 20
4.933696
 30
0.0
 11
14.991896
 21
5.215696
 31
0.0
  0
LINE
  5
298
100
AcDbEntity
  8
0
100
AcDbLine
 10
10.021896
 20
-0.786304
 30
0.0
 11
10.303896
 21
-0.786304
 31
0.0
  0
LINE
  5
29B
100
AcDbEntity
  8
0
100
AcDbLine
 10
5.771896
 20
5.401696
 30
0.0
 11
7.521896
 21
5.401696
 31
0.0
  0
LINE
  5
29C
100
AcDbEntity
  8
0
100
AcDbLine
 10
5.771896
 20
5.215696
 30
0.0
 11
7.521896
 21
5.215696
 31
0.0
  0
LINE
  5
29F
100
AcDbEntity
  8
0
100
AcDbLine
 10
1.80559
 20
5.401696
 30
0.0
 11
1.903875
 21
5.401696
 31
0.0
  0
LINE
  5
2A0
100
AcDbEntity
  8
0
100
AcDbLine
 10
1.80559
 20
5.215696
 30
0.0
 11
1.903875
 21
5.215696
 31
0.0
  0
LINE
  5
2A1
100
AcDbEntity
  8
HIDDEN_LINE
100
AcDbLine
 10
1.80559
 20
0.683696
 30
0.0
 11
1.80559
 21
-0.816304
 31
0.0
  0
ARC
  5
2A4
100
AcDbEntity
  8
HIDDEN_LINE
100
AcDbCircle
 10
2.18059
 20
0.683696
 30
0.0
 40
0.375
100
AcDbArc
 50
138.189685
 51
180.0
  0
LINE
  5
2A5
100
AcDbEntity
  8
0
100
AcDbLine
 10
10.489896
 20
-0.786304
 30
0.0
 11
10.771896
 21
-0.786304
 31
0.0
  0
LINE
  5
2A6
100
AcDbEntity
  8
0
100
AcDbLine
 10
10.303896
 20
0.933696
 30
0.0
 11
10.303896
 21
-0.816304
 31
0.0
  0
LINE
  5
2A7
100
AcDbEntity
  8
0
100
AcDbLine
 10
10.489896
 20
0.933696
 30
0.0
 11
10.489896
 21
-0.816304
 31
0.0
  0
LINE
  5
2A8
100
AcDbEntity
  8
0
100
AcDbLine
 10
13.271896
 20
5.401696
 30
0.0
 11
15.021896
 21
5.401696
 31
0.0
  0
LINE
  5
2A9
100
AcDbEntity
  8
0
100
AcDbLine
 10
13.271896
 20
5.215696
 30
0.0
 11
15.021896
 21
5.215696
 31
0.0
  0
LINE
  5
2AC
100
AcDbEntity
  8
0
100
AcDbLine
 10
14.991896
 20
5.401696
 30
0.0
 11
14.991896
 21
5.683696
 31
0.0
  0
LINE
  5
2AD
100
AcDbEntity
  8
0
100
AcDbLine
 10
5.801896
 20
5.401696
 30
0.0
 11
5.801896
 21
5.683696
 31
0.0
  0
CIRCLE
  5
2AE
100
AcDbEntity
  8
0
100
AcDbCircle
 10
1.54059
 20
5.308696
 30
0.0
 40
0.375
  0
ARC
  5
2B0
100
AcDbEntity
  8
0
100
AcDbCircle
 10
1.54059
 20
5.308696
 30
0.0
 40
0.345
100
AcDbArc
 50
15.638396
 51
344.361604
  0
LINE
  5
2B1
100
AcDbEntity
  8
0
100
AcDbLine
 10
1.80559
 20
5.401696
 30
0.0
 11
1.80559
 21
5.215696
 31
0.0
  0
CIRCLE
  5
2B2
100
AcDbEntity
  8
0
100
AcDbCircle
 10
2.015411
 20
5.776806
 30
0.0
 40
0.0935
  0
CIRCLE
  5
2B3
100
AcDbEntity
  8
0
100
AcDbCircle
 10
1.06577
 20
4.840585
 30
0.0
 40
0.0935
  0
LINE
  5
2B4
100
AcDbEntity
  8
0
100
AcDbLine
 10
2.85409
 20
4.376333
 30
0.0
 11
2.837053
 21
4.376347
 31
0.0
  0
ARC
  5
2B5
100
AcDbEntity
  8
0
100
AcDbCircle
 10
2.83709
 20
4.421347
 30
0.0
 40
0.045
100
AcDbArc
 50
180.0
 51
269.952279
  0
DIMENSION
  5
333
100
AcDbEntity
  8
DIMS_TEXT
100
AcDbDimension
  2
*D7
 10
10.396896
 20
7.954276
 30
0.0
 11
8.959396
 21
7.954276
 31
0.0
 70
    32
  1
<>\PTYP.
  3
STANDARD
100
AcDbAlignedDimension
 13
7.521896
 23
7.183696
 33
0.0
 14
10.396896
 24
7.333294
 34
0.0
100
AcDbRotatedDimension
1001
ACAD
1000
DSTYLE
1002
{
1070
    78
1070
     4
1070
   140
1040
0.15
1070
   271
1070
     3
1070
    41
1040
0.15
1002
}
  0
DIMENSION
  5
340
100
AcDbEntity
  8
DIMS_TEXT
100
AcDbDimension
  2
*D8
 10
11.771896
 20
7.954276
 30
0.0
 11
11.084396
 21
7.954276
 31
0.0
 70
    32
  1
<>TYP.
  3
STANDARD
100
AcDbAlignedDimension
 13
10.396896
 23
7.333294
 33
0.0
 14
11.771896
 24
6.916633
 34
0.0
100
AcDbRotatedDimension
1001
ACAD
1000
DSTYLE
1002
{
1070
    78
1070
     4
1070
   140
1040
0.15
1070
    75
1070
     1
1070
   287
1070
     4
1070
   271
1070
     3
1070
    41
1040
0.15
1002
}
  0
DIMENSION
  5
365
100
AcDbEntity
  8
DIMS_TEXT
100
AcDbDimension
  2
*D9
 10
15.021896
 20
8.766765
 30
0.0
 11
10.396896
 21
8.766765
 31
0.0
 70
    32
  3
STANDARD
100
AcDbAlignedDimension
 13
5.771896
 23
5.653696
 33
0.0
 14
15.021896
 24
5.653696
 34
0.0
100
AcDbRotatedDimension
1001
ACAD
1000
DSTYLE
1002
{
1070
    78
1070
     4
1070
   140
1040
0.15
1070
   271
1070
     3
1070
    41
1040
0.15
1002
}
  0
CIRCLE
  5
372
100
AcDbEntity
  8
0
100
AcDbCircle
 10
11.771896
 20
3.933696
 30
0.0
 40
0.4375
  0
DIMENSION
  5
381
100
AcDbEntity
  8
DIMS_TEXT
100
AcDbDimension
  2
*D10
 10
4.989464
 20
6.683696
 30
0.0
 11
4.989464
 21
5.996196
 31
0.0
 70
    32
  1
<>\PTYP.
  3
STANDARD
100
AcDbAlignedDimension
 13
5.641829
 23
5.308696
 33
0.0
 14
7.301576
 24
6.683696
 34
0.0
 50
90.0
100
AcDbRotatedDimension
1001
ACAD
1000
DSTYLE
1002
{
1070
    78
1070
     4
1070
   140
1040
0.15
1070
   271
1070
     3
1070
    41
1040
0.15
1002
}
  0
DIMENSION
  5
39C
100
AcDbEntity
  8
DIMS_TEXT
100
AcDbDimension
  2
*D11
 10
12.891573
 20
0.933696
 30
0.0
 11
12.426573
 21
0.251883
 31
0.0
 70
   160
  1
.50\PTYP.
  3
STANDARD
100
AcDbAlignedDimension
 13
12.146896
 23
1.433696
 33
0.0
 14
12.271896
 24
0.933696
 34
0.0
 50
90.0
100
AcDbRotatedDimension
1001
ACAD
1000
DSTYLE
1002
{
1070
    78
1070
     4
1070
   140
1040
0.15
1070
   271
1070
     3
1070
    41
1040
0.15
1002
}
  0
DIMENSION
  5
3C4
100
AcDbEntity
  8
DIMS_TEXT
100
AcDbDimension
  2
*D12
 10
8.146818
 20
0.933696
 30
0.0
 11
8.146818
 21
0.058696
 31
0.0
 70
    32
  1
<>\PTYP.
  3
STANDARD
100
AcDbAlignedDimension
 13
10.051896
 23
-0.816304
 33
0.0
 14
8.521896
 24
0.933696
 34
0.0
 50
90.0
100
AcDbRotatedDimension
1001
ACAD
1000
DSTYLE
1002
{
1070
    78
1070
     4
1070
   140
1040
0.15
1070
   271
1070
     3
1070
    41
1040
0.15
1002
}
  0
DIMENSION
  5
3DE
100
AcDbEntity
  8
DIMS_TEXT
100
AcDbDimension
  2
*D13
 10
3.427062
 20
6.683696
 30
0.0
 11
3.427062
 21
5.996196
 31
0.0
 70
   160
  1
<>\PTYP.
  3
STANDARD
100
AcDbAlignedDimension
 13
3.162714
 23
5.308696
 33
0.0
 14
3.162714
 24
6.683696
 34
0.0
 50
90.0
100
AcDbRotatedDimension
1001
ACAD
1000
DSTYLE
1002
{
1070
    78
1070
     4
1070
   140
1040
0.15
1070
   271
1070
     3
1070
    41
1040
0.15
1002
}
  0
DIMENSION
  5
408
100
AcDbEntity
  8
DIMS_TEXT
100
AcDbDimension
  2
*D14
 10
1.54059
 20
7.986776
 30
0.0
 11
1.94659
 21
7.986776
 31
0.0
 12
-0.012
 22
0.0
 32
0.0
 70
    32
  1
<>\PTYP.
  3
STANDARD
100
AcDbAlignedDimension
 13
2.35259
 23
7.564386
 33
0.0
 14
1.54059
 24
7.643229
 34
0.0
100
AcDbRotatedDimension
1001
ACAD
1000
DSTYLE
1002
{
1070
    78
1070
     4
1070
   140
1040
0.15
1070
   271
1070
     3
1070
    41
1040
0.15
1002
}
  0
DIMENSION
  5
430
100
AcDbEntity
  8
DIMS_TEXT
100
AcDbDimension
  2
*D15
 10
-0.478942
 20
5.308696
 30
0.0
 11
-0.478942
 21
3.121196
 31
0.0
 70
    32
  3
STANDARD
100
AcDbAlignedDimension
 13
0.29109
 23
0.933696
 33
0.0
 14
-0.127439
 24
5.308696
 34
0.0
 50
90.0
100
AcDbRotatedDimension
1001
ACAD
1000
DSTYLE
1002
{
1070
    78
1070
     4
1070
   140
1040
0.15
1070
   271
1070
     3
1070
    41
1040
0.15
1002
}
  0
DIMENSION
  5
43E
100
AcDbEntity
  8
DIMS_TEXT
100
AcDbDimension
  2
*D16
 10
-1.325243
 20
7.183696
 30
0.0
 11
-1.325243
 21
3.183696
 31
0.0
 70
    32
  3
STANDARD
100
AcDbAlignedDimension
 13
1.20759
 23
-0.816304
 33
0.0
 14
0.47809
 24
7.183696
 34
0.0
 50
90.0
100
AcDbRotatedDimension
1001
ACAD
1000
DSTYLE
1002
{
1070
    78
1070
     4
1070
   140
1040
0.15
1070
   271
1070
     3
1070
    41
1040
0.15
1002
}
  0
DIMENSION
  5
44C
100
AcDbEntity
  8
DIMS_TEXT
100
AcDbDimension
  2
*D17
 10
1.16559
 20
-1.456745
 30
0.0
 11
0.563396
 21
-1.456745
 31
0.0
 12
-0.012
 22
0.0
 32
0.0
 70
   160
  1
%%C<>\PTYP.
  3
STANDARD
100
AcDbAlignedDimension
 13
1.91559
 23
-0.786304
 33
0.0
 14
1.16559
 24
-0.786304
 34
0.0
100
AcDbRotatedDimension
1001
ACAD
1000
DSTYLE
1002
{
1070
    78
1070
     4
1070
   140
1040
0.15
1070
   271
1070
     3
1070
    41
1040
0.15
1002
}
  0
DIMENSION
  5
472
100
AcDbEntity
  8
DIMS_TEXT
100
AcDbDimension
  2
*D18
 10
10.489896
 20
-1.267679
 30
0.0
 11
11.542396
 21
-1.267679
 31
0.0
 70
    32
  1
.187 X .093\PKEYWAY\PTYP.
  3
STANDARD
100
AcDbAlignedDimension
 13
10.303896
 23
-0.816304
 33
0.0
 14
10.489896
 24
-0.816304
 34
0.0
100
AcDbRotatedDimension
1001
ACAD
1000
DSTYLE
1002
{
1070
    78
1070
     4
1070
   140
1040
0.15
1070
   271
1070
     3
1070
    41
1040
0.15
1002
}
  0
DIMENSION
  5
48A
100
AcDbEntity
  8
DIMS_TEXT
100
AcDbDimension
  2
*D19
 10
11.658016
 20
4.051709
 30
0.0
 11
14.011702
 21
2.560814
 31
0.0
 70
   163
  1
<> THRU\PX 3
  3
STANDARD
100
AcDbDiametricDimension
 15
11.885777
 25
3.815682
 35
0.0
 40
0.0
1001
ACAD
1000
DSTYLE
1002
{
1070
    78
1070
     4
1070
   288
1070
     1
1070
   140
1040
0.15
1070
   271
1070
     3
1070
    41
1040
0.15
1002
}
  0
DIMENSION
  5
4C0
100
AcDbEntity
  8
DIMS_TEXT
100
AcDbDimension
  2
*D20
 10
1.54059
 20
8.466198
 30
0.0
 11
0.88484
 21
8.466198
 31
0.0
 70
    32
  3
STANDARD
100
AcDbAlignedDimension
 13
0.22909
 23
7.120696
 33
0.0
 14
1.54059
 24
7.643229
 34
0.0
100
AcDbRotatedDimension
1001
ACAD
1000
DSTYLE
1002
{
1070
    78
1070
     4
1070
   140
1040
0.15
1070
   271
1070
     3
1070
    41
1040
0.15
1002
}
  0
DIMENSION
  5
4CE
100
AcDbEntity
  8
DIMS_TEXT
100
AcDbDimension
  2
*D21
 10
2.85409
 20
9.08526
 30
0.0
 11
1.54159
 21
9.08526
 31
0.0
 70
    32
  3
STANDARD
100
AcDbAlignedDimension
 13
0.22909
 23
7.120696
 33
0.0
 14
2.85409
 24
7.120696
 34
0.0
100
AcDbRotatedDimension
1001
ACAD
1000
DSTYLE
1002
{
1070
    78
1070
     4
1070
   140
1040
0.15
1070
   271
1070
     3
1070
    41
1040
0.15
1002
}
  0
ARC
  5
520
100
AcDbEntity
  8
HIDDEN_LINE
100
AcDbCircle
 10
9.646896
 20
4.558696
 30
0.0
 40
0.4375
100
AcDbArc
 50
315.0
 51
135.0
  0
CIRCLE
  5
521
100
AcDbEntity
  8
HIDDEN_LINE
100
AcDbCircle
 10
9.646896
 20
4.558696
 30
0.0
 40
0.1685
  0
CIRCLE
  5
522
100
AcDbEntity
  8
HIDDEN_LINE
100
AcDbCircle
 10
9.646896
 20
4.558696
 30
0.0
 40
0.2
  0
LINE
  5
523
100
AcDbEntity
  8
HIDDEN_LINE
100
AcDbLine
 10
8.712537
 20
4.243055
 30
0.0
 11
9.337537
 21
4.868055
 31
0.0
  0
LINE
  5
524
100
AcDbEntity
  8
HIDDEN_LINE
100
AcDbLine
 10
9.331256
 20
3.624336
 30
0.0
 11
9.956256
 21
4.249336
 31
0.0
  0
LINE
  5
525
100
AcDbEntity
  8
0
100
AcDbLine
 10
0.246014
 20
5.000599
 30
0.0
 11
0.22909
 21
5.000628
 31
0.0
  0
LINE
  5
526
100
AcDbEntity
  8
0
100
AcDbLine
 10
2.85409
 20
3.496196
 30
0.0
 11
2.85409
 21
4.376333
 31
0.0
  0
ARC
  5
527
100
AcDbEntity
  8
0
100
AcDbCircle
 10
0.24609
 20
5.045599
 30
0.0
 40
0.045
100
AcDbArc
 50
269.903258
 51
0.0
  0
LINE
  5
52C
100
AcDbEntity
  8
HIDDEN_LINE
100
AcDbLine
 10
1.738565
 20
4.075442
 30
0.0
 11
2.72959
 21
4.647611
 31
0.0
  0
LINE
  5
52D
100
AcDbEntity
  8
HIDDEN_LINE
100
AcDbLine
 10
0.35359
 20
5.96978
 30
0.0
 11
1.344616
 21
6.541949
 31
0.0
  0
LINE
  5
52E
100
AcDbEntity
  8
HIDDEN_LINE
100
AcDbLine
 10
2.72959
 20
5.968412
 30
0.0
 11
1.736196
 21
6.541949
 31
0.0
  0
LINE
  5
52F
100
AcDbEntity
  8
HIDDEN_LINE
100
AcDbLine
 10
1.344616
 20
4.075442
 30
0.0
 11
0.35359
 21
4.647611
 31
0.0
  0
LINE
  5
530
100
AcDbEntity
  8
HIDDEN_LINE
100
AcDbLine
 10
1.407116
 20
6.558696
 30
0.0
 11
1.673696
 21
6.558696
 31
0.0
  0
LINE
  5
531
100
AcDbEntity
  8
HIDDEN_LINE
100
AcDbLine
 10
1.407116
 20
4.058696
 30
0.0
 11
1.676065
 21
4.058696
 31
0.0
  0
ARC
  5
532
100
AcDbEntity
  8
HIDDEN_LINE
100
AcDbCircle
 10
2.66709
 20
5.860159
 30
0.0
 40
0.125
100
AcDbArc
 50
360.0
 51
60.0
  0
ARC
  5
533
100
AcDbEntity
  8
HIDDEN_LINE
100
AcDbCircle
 10
1.673696
 20
6.433696
 30
0.0
 40
0.125
100
AcDbArc
 50
60.0
 51
90.0
  0
ARC
  5
534
100
AcDbEntity
  8
HIDDEN_LINE
100
AcDbCircle
 10
1.407116
 20
6.433696
 30
0.0
 40
0.125
100
AcDbArc
 50
90.0
 51
120.0
  0
ARC
  5
535
100
AcDbEntity
  8
HIDDEN_LINE
100
AcDbCircle
 10
0.41609
 20
5.861527
 30
0.0
 40
0.125
100
AcDbArc
 50
120.0
 51
180.0
  0
ARC
  5
536
100
AcDbEntity
  8
HIDDEN_LINE
100
AcDbCircle
 10
0.41609
 20
4.755864
 30
0.0
 40
0.125
100
AcDbArc
 50
180.0
 51
240.0
  0
ARC
  5
537
100
AcDbEntity
  8
HIDDEN_LINE
100
AcDbCircle
 10
1.407116
 20
4.183696
 30
0.0
 40
0.125
100
AcDbArc
 50
240.0
 51
270.0
  0
ARC
  5
538
100
AcDbEntity
  8
HIDDEN_LINE
100
AcDbCircle
 10
1.676065
 20
4.183696
 30
0.0
 40
0.125
100
AcDbArc
 50
270.0
 51
300.0
  0
ARC
  5
539
100
AcDbEntity
  8
HIDDEN_LINE
100
AcDbCircle
 10
2.66709
 20
4.755864
 30
0.0
 40
0.125
100
AcDbArc
 50
300.0
 51
0.0
  0
LEADER
  5
53A
100
AcDbEntity
  8
DIMS_TEXT
100
AcDbLeader
  3
STANDARD
 73
     0
 40
0.65
 41
1.0
 76
     3
 10
1.063116
 20
4.838382
 30
0.0
 10
-0.086714
 20
7.851902
 30
0.0
 10
-0.233677
 20
7.851902
 30
0.0
 77
   256
340
53B
1001
ACAD
1000
DSTYLE
1002
{
1070
    78
1070
     4
1070
   140
1040
0.15
1070
   271
1070
     3
1070
    41
1040
0.15
1002
}
  0
MTEXT
  5
53B
102
{ACAD_REACTORS
330
53A
102
}
100
AcDbEntity
  8
DIMS_TEXT
100
AcDbMText
 10
-0.323677
 20
7.851902
 30
0.0
 40
0.15
 41
0.0
 71
     6
 72
     1
  1
\A1;SPANNER\PWRENCH\PHOLES
  0
MTEXT
  5
53D
100
AcDbEntity
  8
DIMS_TEXT
100
AcDbMText
 10
6.120903
 20
4.488199
 30
0.0
 40
0.15
 41
0.0
 71
     4
 72
     1
  1
\A1;PIPE\PPLUG
  0
LINE
  5
549
100
AcDbEntity
  8
HIDDEN_LINE
100
AcDbLine
 10
7.521896
 20
6.847696
 30
0.0
 11
8.021896
 21
6.847696
 31
0.0
  0
LINE
  5
54A
100
AcDbEntity
  8
HIDDEN_LINE
100
AcDbLine
 10
7.521896
 20
6.519696
 30
0.0
 11
8.021896
 21
6.519696
 31
0.0
  0
LINE
  5
54B
100
AcDbEntity
  8
HIDDEN_LINE
100
AcDbLine
 10
7.521896
 20
4.097696
 30
0.0
 11
8.021896
 21
4.097696
 31
0.0
  0
LINE
  5
54C
100
AcDbEntity
  8
HIDDEN_LINE
100
AcDbLine
 10
7.521896
 20
3.769696
 30
0.0
 11
8.021896
 21
3.769696
 31
0.0
  0
LINE
  5
54D
100
AcDbEntity
  8
HIDDEN_LINE
100
AcDbLine
 10
11.935896
 20
1.433696
 30
0.0
 11
11.935896
 21
0.933696
 31
0.0
  0
LINE
  5
54E
100
AcDbEntity
  8
HIDDEN_LINE
100
AcDbLine
 10
11.607896
 20
1.433696
 30
0.0
 11
11.607896
 21
0.933696
 31
0.0
  0
LINE
  5
54F
100
AcDbEntity
  8
HIDDEN_LINE
100
AcDbLine
 10
9.185896
 20
1.433696
 30
0.0
 11
9.185896
 21
0.933696
 31
0.0
  0
LINE
  5
550
100
AcDbEntity
  8
HIDDEN_LINE
100
AcDbLine
 10
8.857896
 20
1.433696
 30
0.0
 11
8.857896
 21
0.933696
 31
0.0
  0
LINE
  5
551
100
AcDbEntity
  8
HIDDEN_LINE
100
AcDbLine
 10
2.51659
 20
1.433696
 30
0.0
 11
2.51659
 21
0.933696
 31
0.0
  0
LINE
  5
552
100
AcDbEntity
  8
HIDDEN_LINE
100
AcDbLine
 10
2.18859
 20
1.433696
 30
0.0
 11
2.18859
 21
0.933696
 31
0.0
  0
LINE
  5
553
100
AcDbEntity
  8
HIDDEN_LINE
100
AcDbLine
 10
0.89259
 20
1.433696
 30
0.0
 11
0.89259
 21
0.933696
 31
0.0
  0
LINE
  5
554
100
AcDbEntity
  8
HIDDEN_LINE
100
AcDbLine
 10
0.56459
 20
1.433696
 30
0.0
 11
0.56459
 21
0.933696
 31
0.0
  0
LINE
  5
555
100
AcDbEntity
  8
HIDDEN_LINE
100
AcDbLine
 10
12.771896
 20
6.847696
 30
0.0
 11
13.271896
 21
6.847696
 31
0.0
  0
LINE
  5
556
100
AcDbEntity
  8
HIDDEN_LINE
100
AcDbLine
 10
12.771896
 20
6.519696
 30
0.0
 11
13.271896
 21
6.519696
 31
0.0
  0
LINE
  5
557
100
AcDbEntity
  8
HIDDEN_LINE
100
AcDbLine
 10
12.771896
 20
4.097696
 30
0.0
 11
13.271896
 21
4.097696
 31
0.0
  0
LINE
  5
558
100
AcDbEntity
  8
HIDDEN_LINE
100
AcDbLine
 10
12.771896
 20
3.769696
 30
0.0
 11
13.271896
 21
3.769696
 31
0.0
  0
LINE
  5
55A
100
AcDbEntity
  8
HIDDEN_LINE
100
AcDbLine
 10
2.85409
 20
3.769696
 30
0.0
 11
0.22909
 21
3.769696
 31
0.0
  0
LINE
  5
55B
100
AcDbEntity
  8
HIDDEN_LINE
100
AcDbLine
 10
2.85409
 20
4.097696
 30
0.0
 11
0.22909
 21
4.097696
 31
0.0
  0
LINE
  5
55C
100
AcDbEntity
  8
HIDDEN_LINE
100
AcDbLine
 10
2.85409
 20
6.519696
 30
0.0
 11
0.22909
 21
6.519696
 31
0.0
  0
LINE
  5
55D
100
AcDbEntity
  8
HIDDEN_LINE
100
AcDbLine
 10
2.85409
 20
6.847696
 30
0.0
 11
0.22909
 21
6.847696
 31
0.0
  0
LINE
  5
55E
100
AcDbEntity
  8
HIDDEN_LINE
100
AcDbLine
 10
0.33856
 20
3.496196
 30
0.0
 11
1.16559
 21
3.496196
 31
0.0
  0
LINE
  5
55F
100
AcDbEntity
  8
HIDDEN_LINE
100
AcDbLine
 10
2.744621
 20
3.496196
 30
0.0
 11
1.91559
 21
3.496196
 31
0.0
  0
ARC
  5
561
100
AcDbEntity
  8
HIDDEN_LINE
100
AcDbCircle
 10
1.91559
 20
3.371196
 30
0.0
 40
0.125
100
AcDbArc
 50
90.0
 51
150.0
  0
ARC
  5
562
100
AcDbEntity
  8
HIDDEN_LINE
100
AcDbCircle
 10
1.16559
 20
3.371196
 30
0.0
 40
0.125
100
AcDbArc
 50
30.0
 51
90.0
  0
ARC
  5
568
100
AcDbEntity
  8
0
100
AcDbCircle
 10
1.16559
 20
3.371196
 30
0.0
 40
0.125
100
AcDbArc
 50
0.0
 51
30.0
  0
ARC
  5
569
100
AcDbEntity
  8
0
100
AcDbCircle
 10
1.91559
 20
3.371196
 30
0.0
 40
0.125
100
AcDbArc
 50
150.0
 51
180.0
  0
LINE
  5
56A
100
AcDbEntity
  8
HIDDEN_LINE
100
AcDbLine
 10
0.338115
 20
7.120696
 30
0.0
 11
2.745065
 21
7.120696
 31
0.0
  0
LEADER
  5
574
100
AcDbEntity
  8
DIMS_TEXT
100
AcDbLeader
  3
STANDARD
 76
     2
 10
9.545981
 20
4.598048
 30
0.0
 10
6.725846
 20
4.504449
 30
0.0
 77
   256
1001
ACAD
1000
DSTYLE
1002
{
1070
    78
1070
     4
1070
   140
1040
0.15
1070
   271
1070
     3
1070
    41
1040
0.15
1002
}
  0
TEXT
  5
58C
100
AcDbEntity
  8
DIMS_TEXT
100
AcDbText
 10
12.807966
 20
-3.311579
 30
0.0
 40
0.2
  1
  C122          135633           2:1
 41
0.7
100
AcDbText
  0
TEXT
  5
58D
100
AcDbEntity
  8
DIMS_TEXT
100
AcDbText
 10
12.745462
 20
-2.406339
 30
0.0
 40
0.14
  1
Tel. (508) 278-2422      Fax (508) 278-7863
 41
0.9
100
AcDbText
  0
TEXT
  5
58E
100
AcDbEntity
  8
DIMS_TEXT
100
AcDbText
 10
12.877812
 20
-1.770782
 30
0.0
 40
0.15
  1
Counter Rotating Right Angle Gear Drive
 41
0.9
100
AcDbText
  0
TEXT
  5
58F
100
AcDbEntity
  8
DIMS_TEXT
100
AcDbText
 10
13.606547
 20
-1.311384
 30
0.0
 40
0.3
  1
 MITRPAK
 41
1.5
100
AcDbText
  0
LINE
  5
590
100
AcDbEntity
  8
DIMS_TEXT
100
AcDbLine
 10
12.710181
 20
-2.831546
 30
0.0
 11
17.933551
 21
-2.831546
 31
0.0
  0
LINE
  5
591
100
AcDbEntity
  8
DIMS_TEXT
100
AcDbLine
 10
12.710181
 20
-2.497964
 30
0.0
 11
17.933551
 21
-2.497964
 31
0.0
  0
LINE
  5
592
100
AcDbEntity
  8
DIMS_TEXT
100
AcDbLine
 10
12.710181
 20
-2.172519
 30
0.0
 11
17.933551
 21
-2.172519
 31
0.0
  0
LINE
  5
593
100
AcDbEntity
  8
DIMS_TEXT
100
AcDbLine
 10
12.710181
 20
-1.847073
 30
0.0
 11
17.933551
 21
-1.847073
 31
0.0
  0
LINE
  5
594
100
AcDbEntity
  8
DIMS_TEXT
100
AcDbLine
 10
12.710181
 20
-1.423993
 30
0.0
 11
17.933551
 21
-1.423993
 31
0.0
  0
TEXT
  5
595
100
AcDbEntity
  8
DIMS_TEXT
100
AcDbText
 10
12.799817
 20
-2.766457
 30
0.0
 40
0.19
  1
MODEL   PART NUMBER   RATIO
100
AcDbText
  0
LWPOLYLINE
  5
596
100
AcDbEntity
  8
DIMS_TEXT
100
AcDbPolyline
 90
        4
 70
     1
 43
0.0
 10
12.710181
 20
-0.90328
 10
17.933551
 20
-0.90328
 10
17.933551
 20
-3.441757
 10
12.710181
 20
-3.441757
  0
TEXT
  5
597
100
AcDbEntity
  8
DIMS_TEXT
100
AcDbText
 10
12.745462
 20
-2.082529
 30
0.0
 40
0.15
  1
Uxbridge, MA 01569              U.S.A.
100
AcDbText
  0
LINE
  5
598
100
AcDbEntity
  8
DIMS_TEXT
100
AcDbLine
 10
14.038432
 20
-2.497964
 30
0.0
 11
14.038432
 21
-3.441757
 31
0.0
  0
LINE
  5
599
100
AcDbEntity
  8
DIMS_TEXT
100
AcDbLine
 10
16.727531
 20
-2.497964
 30
0.0
 11
16.727531
 21
-3.441757
 31
0.0
  0
VIEWPORT
  5
3E2
100
AcDbEntity
 67
     1
  8
0
100
AcDbViewport
 10
9.680233
 20
4.5
 30
0.0
 40
19.360465
 41
9.0
 68
    -1
 69
     1
1001
ACAD
1000
MVIEW
1002
{
1070
    16
1010
0.0
1020
0.0
1030
0.0
1010
0.0
1020
0.0
1030
1.0
1040
0.0
1040
9.0
1040
9.680233
1040
4.5
1040
50.0
1040
0.0
1040
0.0
1070
     0
1070
   100
1070
     1
1070
     1
1070
     0
1070
     0
1070
     0
1070
     0
1040
0.0
1040
0.0
1040
0.0
1040
0.5
1040
0.5
1040
0.5
1040
0.5
1070
     0
1002
{
1002
}
1002
}
  0
ENDSEC
  0
SECTION
  2
OBJECTS
  0
DICTIONARY
  5
C
100
AcDbDictionary
  3
ACAD_GROUP
350
D
  3
ACAD_MLINESTYLE
350
1B
  0
DICTIONARY
  5
D
102
{ACAD_REACTORS
330
C
102
}
100
AcDbDictionary
  0
DICTIONARY
  5
1B
102
{ACAD_REACTORS
330
C
102
}
100
AcDbDictionary
  3
STANDARD
350
1C
  0
MLINESTYLE
  5
1C
102
{ACAD_REACTORS
330
1B
102
}
100
AcDbMlineStyle
  2
STANDARD
 70
     0
  3

 62
   256
 51
90.0
 52
90.0
 71
     2
 49
0.5
 62
   256
  6
BYLAYER
 49
-0.5
 62
   256
  6
BYLAYER
  0
ENDSEC
  0
EOF
