  0
SECTION
  2
HEADER
  9
$ACADVER
  1
AC1014
  9
$ACADMAINTVER
 70
     0
  9
$DWGCODEPAGE
  3
ANSI_1252
  9
$INSBASE
 10
0.0
 20
0.0
 30
0.0
  9
$EXTMIN
 10
0.979859
 20
-1.302362
 30
0.0
  9
$EXTMAX
 10
17.749593
 20
9.476963
 30
0.0
  9
$LIMMIN
 10
0.0
 20
0.0
  9
$LIMMAX
 10
12.0
 20
9.0
  9
$ORTHOMODE
 70
     1
  9
$REGENMODE
 70
     1
  9
$FILLMODE
 70
     1
  9
$QTEXTMODE
 70
     0
  9
$MIRRTEXT
 70
     1
  9
$DRAGMODE
 70
     2
  9
$LTSCALE
 40
1.0
  9
$OSMODE
 70
   288
  9
$ATTMODE
 70
     1
  9
$TEXTSIZE
 40
0.15
  9
$TRACEWID
 40
0.05
  9
$TEXTSTYLE
  7
STANDARD
  9
$CLAYER
  8
HIDDEN_LINE
  9
$CELTYPE
  6
BYLAYER
  9
$CECOLOR
 62
   256
  9
$CELTSCALE
 40
1.0
  9
$DELOBJ
 70
     1
  9
$DISPSILH
 70
     0
  9
$DIMSCALE
 40
1.0
  9
$DIMASZ
 40
0.15
  9
$DIMEXO
 40
0.0625
  9
$DIMDLI
 40
0.38
  9
$DIMRND
 40
0.0
  9
$DIMDLE
 40
0.0
  9
$DIMEXE
 40
0.18
  9
$DIMTP
 40
0.0
  9
$DIMTM
 40
0.0
  9
$DIMTXT
 40
0.12
  9
$DIMCEN
 40
0.09
  9
$DIMTSZ
 40
0.0
  9
$DIMTOL
 70
     0
  9
$DIMLIM
 70
     0
  9
$DIMTIH
 70
     1
  9
$DIMTOH
 70
     1
  9
$DIMSE1
 70
     0
  9
$DIMSE2
 70
     0
  9
$DIMTAD
 70
     0
  9
$DIMZIN
 70
     4
  9
$DIMBLK
  1

  9
$DIMASO
 70
     1
  9
$DIMSHO
 70
     1
  9
$DIMPOST
  1

  9
$DIMAPOST
  1

  9
$DIMALT
 70
     0
  9
$DIMALTD
 70
     2
  9
$DIMALTF
 40
25.4
  9
$DIMLFAC
 40
1.0
  9
$DIMTOFL
 70
     0
  9
$DIMTVP
 40
0.0
  9
$DIMTIX
 70
     0
  9
$DIMSOXD
 70
     0
  9
$DIMSAH
 70
     0
  9
$DIMBLK1
  1

  9
$DIMBLK2
  1

  9
$DIMSTYLE
  2
STANDARD
  9
$DIMCLRD
 70
     0
  9
$DIMCLRE
 70
     0
  9
$DIMCLRT
 70
     0
  9
$DIMTFAC
 40
1.0
  9
$DIMGAP
 40
0.09
  9
$DIMJUST
 70
     0
  9
$DIMSD1
 70
     0
  9
$DIMSD2
 70
     0
  9
$DIMTOLJ
 70
     1
  9
$DIMTZIN
 70
     0
  9
$DIMALTZ
 70
     0
  9
$DIMALTTZ
 70
     0
  9
$DIMFIT
 70
     3
  9
$DIMUPT
 70
     0
  9
$DIMUNIT
 70
     2
  9
$DIMDEC
 70
     3
  9
$DIMTDEC
 70
     4
  9
$DIMALTU
 70
     2
  9
$DIMALTTD
 70
     2
  9
$DIMTXSTY
  7
STANDARD
  9
$DIMAUNIT
 70
     0
  9
$LUNITS
 70
     2
  9
$LUPREC
 70
     4
  9
$SKETCHINC
 40
0.1
  9
$FILLETRAD
 40
0.062
  9
$AUNITS
 70
     0
  9
$AUPREC
 70
     0
  9
$MENU
  1
acad
  9
$ELEVATION
 40
0.0
  9
$PELEVATION
 40
0.0
  9
$THICKNESS
 40
0.0
  9
$LIMCHECK
 70
     0
  9
$BLIPMODE
 70
     0
  9
$CHAMFERA
 40
0.03
  9
$CHAMFERB
 40
0.03
  9
$CHAMFERC
 40
1.0
  9
$CHAMFERD
 40
0.0
  9
$SKPOLY
 70
     0
  9
$TDCREATE
 40
2451957.662983101
  9
$TDUPDATE
 40
2452207.471006365
  9
$TDINDWG
 40
0.0686810185
  9
$TDUSRTIMER
 40
0.0686810185
  9
$USRTIMER
 70
     1
  9
$ANGBASE
 50
0.0
  9
$ANGDIR
 70
     0
  9
$PDMODE
 70
     0
  9
$PDSIZE
 40
0.0
  9
$PLINEWID
 40
0.0
  9
$COORDS
 70
     1
  9
$SPLFRAME
 70
     0
  9
$SPLINETYPE
 70
     6
  9
$SPLINESEGS
 70
     8
  9
$ATTDIA
 70
     0
  9
$ATTREQ
 70
     1
  9
$HANDLING
 70
     1
  9
$HANDSEED
  5
430
  9
$SURFTAB1
 70
     6
  9
$SURFTAB2
 70
     6
  9
$SURFTYPE
 70
     6
  9
$SURFU
 70
     6
  9
$SURFV
 70
     6
  9
$UCSNAME
  2

  9
$UCSORG
 10
0.0
 20
0.0
 30
0.0
  9
$UCSXDIR
 10
1.0
 20
0.0
 30
0.0
  9
$UCSYDIR
 10
0.0
 20
1.0
 30
0.0
  9
$PUCSNAME
  2

  9
$PUCSORG
 10
0.0
 20
0.0
 30
0.0
  9
$PUCSXDIR
 10
1.0
 20
0.0
 30
0.0
  9
$PUCSYDIR
 10
0.0
 20
1.0
 30
0.0
  9
$USERI1
 70
     0
  9
$USERI2
 70
     0
  9
$USERI3
 70
     0
  9
$USERI4
 70
     0
  9
$USERI5
 70
     0
  9
$USERR1
 40
0.0
  9
$USERR2
 40
0.0
  9
$USERR3
 40
0.0
  9
$USERR4
 40
0.0
  9
$USERR5
 40
0.0
  9
$WORLDVIEW
 70
     1
  9
$SHADEDGE
 70
     3
  9
$SHADEDIF
 70
    70
  9
$TILEMODE
 70
     1
  9
$MAXACTVP
 70
    48
  9
$PINSBASE
 10
0.0
 20
0.0
 30
0.0
  9
$PLIMCHECK
 70
     0
  9
$PEXTMIN
 10
1.000000E+20
 20
1.000000E+20
 30
1.000000E+20
  9
$PEXTMAX
 10
-1.000000E+20
 20
-1.000000E+20
 30
-1.000000E+20
  9
$PLIMMIN
 10
0.0
 20
0.0
  9
$PLIMMAX
 10
12.0
 20
9.0
  9
$UNITMODE
 70
     0
  9
$VISRETAIN
 70
     1
  9
$PLINEGEN
 70
     0
  9
$PSLTSCALE
 70
     1
  9
$TREEDEPTH
 70
  3020
  9
$PICKSTYLE
 70
     1
  9
$CMLSTYLE
  2
STANDARD
  9
$CMLJUST
 70
     0
  9
$CMLSCALE
 40
1.0
  9
$PROXYGRAPHICS
 70
     1
  9
$MEASUREMENT
 70
     0
  0
ENDSEC
  0
SECTION
  2
CLASSES
  0
CLASS
  1
LWPOLYLINE
  2
AcDbPolyline
  3
"AutoCAD"
 90
        0
280
     0
281
     1
  0
ENDSEC
  0
SECTION
  2
TABLES
  0
TABLE
  2
VPORT
  5
8
100
AcDbSymbolTable
 70
     1
  0
VPORT
  5
42C
100
AcDbSymbolTableRecord
100
AcDbViewportTableRecord
  2
*ACTIVE
 70
     0
 10
0.0
 20
0.0
 11
1.0
 21
1.0
 12
12.476567
 22
4.010622
 13
0.0
 23
0.0
 14
0.5
 24
0.5
 15
0.5
 25
0.5
 16
0.0
 26
0.0
 36
1.0
 17
0.0
 27
0.0
 37
0.0
 40
11.791297
 41
2.151163
 42
50.0
 43
0.0
 44
0.0
 50
0.0
 51
0.0
 71
     0
 72
   100
 73
     1
 74
     1
 75
     0
 76
     0
 77
     0
 78
     0
  0
ENDTAB
  0
TABLE
  2
LTYPE
  5
5
100
AcDbSymbolTable
 70
     3
  0
LTYPE
  5
12
100
AcDbSymbolTableRecord
100
AcDbLinetypeTableRecord
  2
BYBLOCK
 70
     0
  3

 72
    65
 73
     0
 40
0.0
  0
LTYPE
  5
13
100
AcDbSymbolTableRecord
100
AcDbLinetypeTableRecord
  2
BYLAYER
 70
     0
  3

 72
    65
 73
     0
 40
0.0
  0
LTYPE
  5
14
100
AcDbSymbolTableRecord
100
AcDbLinetypeTableRecord
  2
CONTINUOUS
 70
     0
  3
Solid line
 72
    65
 73
     0
 40
0.0
  0
LTYPE
  5
20
100
AcDbSymbolTableRecord
100
AcDbLinetypeTableRecord
  2
CENTER
 70
     0
  3
Center ____ _ ____ _ ____ _ ____ _ ____ _ ____
 72
    65
 73
     4
 40
2.0
 49
1.25
 74
     0
 49
-0.25
 74
     0
 49
0.25
 74
     0
 49
-0.25
 74
     0
  0
LTYPE
  5
21
100
AcDbSymbolTableRecord
100
AcDbLinetypeTableRecord
  2
HIDDEN2
 70
     0
  3
Hidden (.5x) _ _ _ _ _ _ _ _ _ _ _ _ _ _ _ _ _
 72
    65
 73
     2
 40
0.1875
 49
0.125
 74
     0
 49
-0.0625
 74
     0
  0
ENDTAB
  0
TABLE
  2
LAYER
  5
2
100
AcDbSymbolTable
 70
     6
  0
LAYER
  5
E
100
AcDbSymbolTableRecord
100
AcDbLayerTableRecord
  2
0
 70
     0
 62
     7
  6
CONTINUOUS
  0
LAYER
  5
22
100
AcDbSymbolTableRecord
100
AcDbLayerTableRecord
  2
TB
 70
     0
 62
     7
  6
CONTINUOUS
  0
LAYER
  5
23
100
AcDbSymbolTableRecord
100
AcDbLayerTableRecord
  2
CTR_LINES
 70
     0
 62
     1
  6
CENTER
  0
LAYER
  5
24
100
AcDbSymbolTableRecord
100
AcDbLayerTableRecord
  2
HIDDEN_LINE
 70
     0
 62
     4
  6
HIDDEN2
  0
LAYER
  5
170
100
AcDbSymbolTableRecord
100
AcDbLayerTableRecord
  2
DIMS_TEXT
 70
     0
 62
     3
  6
CONTINUOUS
  0
LAYER
  5
19C
100
AcDbSymbolTableRecord
100
AcDbLayerTableRecord
  2
DEFPOINTS
 70
     0
 62
     7
  6
CONTINUOUS
  0
ENDTAB
  0
TABLE
  2
STYLE
  5
3
100
AcDbSymbolTable
 70
     1
  0
STYLE
  5
F
100
AcDbSymbolTableRecord
100
AcDbTextStyleTableRecord
  2
STANDARD
 70
     0
 40
0.0
 41
1.0
 50
0.0
 71
     0
 42
0.15
  3
romans.shx
  4

  0
ENDTAB
  0
TABLE
  2
VIEW
  5
6
100
AcDbSymbolTable
 70
     0
  0
ENDTAB
  0
TABLE
  2
UCS
  5
7
100
AcDbSymbolTable
 70
     0
  0
ENDTAB
  0
TABLE
  2
APPID
  5
9
100
AcDbSymbolTable
 70
     1
  0
APPID
  5
10
100
AcDbSymbolTableRecord
100
AcDbRegAppTableRecord
  2
ACAD
 70
     0
  0
ENDTAB
  0
TABLE
  2
DIMSTYLE
  5
A
100
AcDbSymbolTable
 70
     1
  0
DIMSTYLE
105
1D
102
{ACAD_REACTORS
330
1A1
330
1E1
330
1FE
330
233
330
259
330
273
330
28C
330
2B1
330
2CA
330
2E2
330
2FA
330
320
330
346
330
360
330
37C
330
38A
102
}
100
AcDbSymbolTableRecord
100
AcDbDimStyleTableRecord
  2
STANDARD
 70
     0
  3

  4

  5

  6

  7

 40
1.0
 41
0.18
 42
0.0625
 43
0.38
 44
0.18
 45
0.0
 46
0.0
 47
0.0
 48
0.0
140
0.18
141
0.09
142
0.0
143
25.4
144
1.0
145
0.0
146
1.0
147
0.09
 71
     0
 72
     0
 73
     1
 74
     1
 75
     0
 76
     0
 77
     0
 78
     0
170
     0
171
     2
172
     0
173
     0
174
     0
175
     0
176
     0
177
     0
178
     0
270
     2
271
     4
272
     4
273
     2
274
     2
340
F
275
     0
280
     0
281
     0
282
     0
283
     1
284
     0
285
     0
286
     0
287
     3
288
     0
  0
ENDTAB
  0
TABLE
  2
BLOCK_RECORD
  5
1
100
AcDbSymbolTable
 70
    18
  0
BLOCK_RECORD
  5
18
100
AcDbSymbolTableRecord
100
AcDbBlockTableRecord
  2
*MODEL_SPACE
  0
BLOCK_RECORD
  5
15
100
AcDbSymbolTableRecord
100
AcDbBlockTableRecord
  2
*PAPER_SPACE
  0
BLOCK_RECORD
  5
25
100
AcDbSymbolTableRecord
100
AcDbBlockTableRecord
  2
625THSG
  0
BLOCK_RECORD
  5
192
100
AcDbSymbolTableRecord
100
AcDbBlockTableRecord
  2
*D1
  0
BLOCK_RECORD
  5
1D6
100
AcDbSymbolTableRecord
100
AcDbBlockTableRecord
  2
*D2
  0
BLOCK_RECORD
  5
1F1
100
AcDbSymbolTableRecord
100
AcDbBlockTableRecord
  2
*D3
  0
BLOCK_RECORD
  5
226
100
AcDbSymbolTableRecord
100
AcDbBlockTableRecord
  2
*D4
  0
BLOCK_RECORD
  5
24C
100
AcDbSymbolTableRecord
100
AcDbBlockTableRecord
  2
*D5
  0
BLOCK_RECORD
  5
266
100
AcDbSymbolTableRecord
100
AcDbBlockTableRecord
  2
*D6
  0
BLOCK_RECORD
  5
280
100
AcDbSymbolTableRecord
100
AcDbBlockTableRecord
  2
*D7
  0
BLOCK_RECORD
  5
2A4
100
AcDbSymbolTableRecord
100
AcDbBlockTableRecord
  2
*D8
  0
BLOCK_RECORD
  5
2BD
100
AcDbSymbolTableRecord
100
AcDbBlockTableRecord
  2
*D9
  0
BLOCK_RECORD
  5
2D7
100
AcDbSymbolTableRecord
100
AcDbBlockTableRecord
  2
*D10
  0
BLOCK_RECORD
  5
2ED
100
AcDbSymbolTableRecord
100
AcDbBlockTableRecord
  2
*D11
  0
BLOCK_RECORD
  5
313
100
AcDbSymbolTableRecord
100
AcDbBlockTableRecord
  2
*D12
  0
BLOCK_RECORD
  5
339
100
AcDbSymbolTableRecord
100
AcDbBlockTableRecord
  2
*D13
  0
BLOCK_RECORD
  5
353
100
AcDbSymbolTableRecord
100
AcDbBlockTableRecord
  2
*D14
  0
BLOCK_RECORD
  5
36F
100
AcDbSymbolTableRecord
100
AcDbBlockTableRecord
  2
*D15
  0
BLOCK_RECORD
  5
37D
100
AcDbSymbolTableRecord
100
AcDbBlockTableRecord
  2
*D16
  0
BLOCK_RECORD
  5
40C
100
AcDbSymbolTableRecord
100
AcDbBlockTableRecord
  2
TITLE_BLOCK
  0
ENDTAB
  0
ENDSEC
  0
SECTION
  2
BLOCKS
  0
BLOCK
  5
19
100
AcDbEntity
  8
0
100
AcDbBlockBegin
  2
*MODEL_SPACE
 70
     0
 10
0.0
 20
0.0
 30
0.0
  3
*MODEL_SPACE
  1

  0
ENDBLK
  5
1A
100
AcDbEntity
  8
0
100
AcDbBlockEnd
  0
BLOCK
  5
16
100
AcDbEntity
 67
     1
  8
0
100
AcDbBlockBegin
  2
*PAPER_SPACE
 70
     0
 10
0.0
 20
0.0
 30
0.0
  3
*PAPER_SPACE
  1

  0
ENDBLK
  5
17
100
AcDbEntity
 67
     1
  8
0
100
AcDbBlockEnd
  0
BLOCK
  5
AF
100
AcDbEntity
  8
0
100
AcDbBlockBegin
  2
625THSG
 70
     0
 10
0.0
 20
0.0
 30
0.0
  3
625THSG
  1

  0
LINE
  5
26
100
AcDbEntity
  8
CTR_LINES
100
AcDbLine
 10
1.525714
 20
-1.096546
 30
0.0
 11
6.232401
 21
-1.096546
 31
0.0
  0
LINE
  5
27
100
AcDbEntity
  8
CTR_LINES
100
AcDbLine
 10
1.525714
 20
1.153454
 30
0.0
 11
6.232401
 21
1.153454
 31
0.0
  0
LINE
  5
28
100
AcDbEntity
  8
CTR_LINES
100
AcDbLine
 10
1.525714
 20
0.028454
 30
0.0
 11
6.272381
 21
0.028454
 31
0.0
  0
LINE
  5
29
100
AcDbEntity
  8
CTR_LINES
100
AcDbLine
 10
3.592146
 20
-0.565546
 30
0.0
 11
6.232401
 21
-0.565546
 31
0.0
  0
LINE
  5
2A
100
AcDbEntity
  8
0
100
AcDbLine
 10
4.381349
 20
0.528454
 30
0.0
 11
5.569349
 21
0.528454
 31
0.0
  0
ARC
  5
2B
100
AcDbEntity
  8
0
100
AcDbCircle
 10
5.50336
 20
-0.596546
 30
0.0
 40
0.125
100
AcDbArc
 50
90.0
 51
180.0
  0
LINE
  5
2C
100
AcDbEntity
  8
0
100
AcDbLine
 10
4.377364
 20
0.965454
 30
0.0
 11
5.569349
 21
0.965454
 31
0.0
  0
ARC
  5
2D
100
AcDbEntity
  8
0
100
AcDbCircle
 10
5.502364
 20
-1.033546
 30
0.0
 40
0.125
100
AcDbArc
 50
90.0
 51
187.238508
  0
LINE
  5
2E
100
AcDbEntity
  8
CTR_LINES
100
AcDbLine
 10
-3.73287
 20
-4.198658
 30
0.0
 11
-3.73287
 21
1.650605
 31
0.0
  0
LINE
  5
2F
100
AcDbEntity
  8
CTR_LINES
100
AcDbLine
 10
-3.73287
 20
-4.198658
 30
0.0
 11
-3.73287
 21
2.376347
 31
0.0
  0
LINE
  5
30
100
AcDbEntity
  8
CTR_LINES
100
AcDbLine
 10
-2.35787
 20
-4.198658
 30
0.0
 11
-2.35787
 21
1.650605
 31
0.0
  0
CIRCLE
  5
31
100
AcDbEntity
  8
0
100
AcDbCircle
 10
-3.04537
 20
0.028454
 30
0.0
 40
0.689
  0
LINE
  5
32
100
AcDbEntity
  8
0
100
AcDbLine
 10
-4.04537
 20
1.372454
 30
0.0
 11
-4.04537
 21
-3.221546
 31
0.0
  0
LINE
  5
33
100
AcDbEntity
  8
0
100
AcDbLine
 10
-2.04537
 20
1.372454
 30
0.0
 11
-2.04537
 21
-3.221546
 31
0.0
  0
LINE
  5
34
100
AcDbEntity
  8
CTR_LINES
100
AcDbLine
 10
-3.04537
 20
-5.617495
 30
0.0
 11
-3.04537
 21
4.580782
 31
0.0
  0
ARC
  5
35
100
AcDbEntity
  8
0
100
AcDbCircle
 10
4.412349
 20
-0.565546
 30
0.0
 40
0.375
100
AcDbArc
 50
48.205216
 51
228.205216
  0
LINE
  5
36
100
AcDbEntity
  8
CTR_LINES
100
AcDbLine
 10
4.412349
 20
1.056343
 30
0.0
 11
4.412349
 21
-0.908945
 31
0.0
  0
LINE
  5
37
100
AcDbEntity
  8
CTR_LINES
100
AcDbLine
 10
2.756349
 20
2.457104
 30
0.0
 11
2.756349
 21
-1.642811
 31
0.0
  0
LINE
  5
38
100
AcDbEntity
  8
CTR_LINES
100
AcDbLine
 10
5.006349
 20
1.056343
 30
0.0
 11
5.006349
 21
-1.642811
 31
0.0
  0
LINE
  5
39
100
AcDbEntity
  8
CTR_LINES
100
AcDbLine
 10
3.881349
 20
1.947147
 30
0.0
 11
3.881349
 21
-4.159881
 31
0.0
  0
LINE
  5
3A
100
AcDbEntity
  8
0
100
AcDbLine
 10
1.756349
 20
1.528454
 30
0.0
 11
1.756349
 21
-1.471546
 31
0.0
  0
LINE
  5
3B
100
AcDbEntity
  8
0
100
AcDbLine
 10
-3.29537
 20
-2.847546
 30
0.0
 11
-3.29537
 21
-1.533546
 31
0.0
  0
LINE
  5
3C
100
AcDbEntity
  8
0
100
AcDbLine
 10
-2.79537
 20
-2.847546
 30
0.0
 11
-2.79537
 21
-1.533546
 31
0.0
  0
LINE
  5
3D
100
AcDbEntity
  8
0
100
AcDbLine
 10
-3.35737
 20
-2.909546
 30
0.0
 11
-2.73337
 21
-2.909546
 31
0.0
  0
ARC
  5
3E
100
AcDbEntity
  8
0
100
AcDbCircle
 10
-3.35737
 20
-2.847546
 30
0.0
 40
0.062
100
AcDbArc
 50
270.0
 51
0.0
  0
LINE
  5
3F
100
AcDbEntity
  8
0
100
AcDbLine
 10
-4.04537
 20
-3.221546
 30
0.0
 11
-2.04537
 21
-3.221546
 31
0.0
  0
LINE
  5
40
100
AcDbEntity
  8
0
100
AcDbLine
 10
-4.04537
 20
-3.221546
 30
0.0
 11
-4.04537
 21
-2.971546
 31
0.0
  0
LINE
  5
41
100
AcDbEntity
  8
0
100
AcDbLine
 10
-3.35737
 20
-2.909546
 30
0.0
 11
-3.98337
 21
-2.909546
 31
0.0
  0
ARC
  5
42
100
AcDbEntity
  8
0
100
AcDbCircle
 10
-3.98337
 20
-2.971546
 30
0.0
 40
0.062
100
AcDbArc
 50
90.0
 51
180.0
  0
LINE
  5
43
100
AcDbEntity
  8
0
100
AcDbLine
 10
-2.10737
 20
-2.909546
 30
0.0
 11
-2.73337
 21
-2.909546
 31
0.0
  0
ARC
  5
44
100
AcDbEntity
  8
0
100
AcDbCircle
 10
-2.73337
 20
-2.847546
 30
0.0
 40
0.062
100
AcDbArc
 50
180.0
 51
270.0
  0
LINE
  5
45
100
AcDbEntity
  8
0
100
AcDbLine
 10
-2.04537
 20
-3.221546
 30
0.0
 11
-2.04537
 21
-2.971546
 31
0.0
  0
ARC
  5
46
100
AcDbEntity
  8
0
100
AcDbCircle
 10
-2.10737
 20
-2.971546
 30
0.0
 40
0.062
100
AcDbArc
 50
0.0
 51
90.0
  0
LINE
  5
47
100
AcDbEntity
  8
CTR_LINES
100
AcDbLine
 10
-4.346892
 20
-1.096546
 30
0.0
 11
-1.695238
 21
-1.096546
 31
0.0
  0
LINE
  5
48
100
AcDbEntity
  8
0
100
AcDbLine
 10
-3.35737
 20
-1.471546
 30
0.0
 11
-2.73337
 21
-1.471546
 31
0.0
  0
ARC
  5
49
100
AcDbEntity
  8
0
100
AcDbCircle
 10
-3.35737
 20
-1.533546
 30
0.0
 40
0.062
100
AcDbArc
 50
0.0
 51
90.0
  0
CIRCLE
  5
4A
100
AcDbEntity
  8
0
100
AcDbCircle
 10
-3.73287
 20
-1.096546
 30
0.0
 40
0.1325
  0
LINE
  5
4B
100
AcDbEntity
  8
0
100
AcDbLine
 10
-4.10787
 20
-1.471546
 30
0.0
 11
-4.10787
 21
-0.720073
 31
0.0
  0
ARC
  5
4C
100
AcDbEntity
  8
0
100
AcDbCircle
 10
-3.88937
 20
-1.315546
 30
0.0
 40
0.156
100
AcDbArc
 50
180.0
 51
270.0
  0
LINE
  5
4D
100
AcDbEntity
  8
0
100
AcDbLine
 10
-4.10787
 20
-1.471546
 30
0.0
 11
-3.35737
 21
-1.471546
 31
0.0
  0
ARC
  5
4E
100
AcDbEntity
  8
0
100
AcDbCircle
 10
-4.10737
 20
-0.658075
 30
0.0
 40
0.062
100
AcDbArc
 50
270.0
 51
0.0
  0
LINE
  5
4F
100
AcDbEntity
  8
0
100
AcDbLine
 10
-4.10787
 20
-0.720075
 30
0.0
 11
-4.10737
 21
-0.720075
 31
0.0
  0
CIRCLE
  5
50
100
AcDbEntity
  8
0
100
AcDbCircle
 10
-2.35787
 20
-1.096546
 30
0.0
 40
0.1325
  0
LINE
  5
51
100
AcDbEntity
  8
0
100
AcDbLine
 10
-1.98287
 20
-1.471546
 30
0.0
 11
-1.98287
 21
-0.178888
 31
0.0
  0
LINE
  5
52
100
AcDbEntity
  8
0
100
AcDbLine
 10
-1.98287
 20
-1.471546
 30
0.0
 11
-1.98287
 21
-0.178888
 31
0.0
  0
LINE
  5
53
100
AcDbEntity
  8
0
100
AcDbLine
 10
-1.98287
 20
-1.471546
 30
0.0
 11
-1.98287
 21
-0.178888
 31
0.0
  0
LINE
  5
54
100
AcDbEntity
  8
0
100
AcDbLine
 10
-2.73337
 20
-1.471546
 30
0.0
 11
-1.98287
 21
-1.471546
 31
0.0
  0
ARC
  5
55
100
AcDbEntity
  8
0
100
AcDbCircle
 10
-2.73337
 20
-1.533546
 30
0.0
 40
0.062
100
AcDbArc
 50
90.0
 51
180.0
  0
ARC
  5
56
100
AcDbEntity
  8
0
100
AcDbCircle
 10
-2.20137
 20
-1.315546
 30
0.0
 40
0.156
100
AcDbArc
 50
270.0
 51
0.0
  0
ARC
  5
57
100
AcDbEntity
  8
0
100
AcDbCircle
 10
-1.98337
 20
-0.116888
 30
0.0
 40
0.062
100
AcDbArc
 50
180.0
 51
270.0
  0
LINE
  5
58
100
AcDbEntity
  8
0
100
AcDbLine
 10
-1.98337
 20
-0.178888
 30
0.0
 11
-1.98287
 21
-0.178888
 31
0.0
  0
LINE
  5
59
100
AcDbEntity
  8
0
100
AcDbLine
 10
1.756349
 20
-1.471546
 30
0.0
 11
2.006349
 21
-1.471546
 31
0.0
  0
LINE
  5
5A
100
AcDbEntity
  8
0
100
AcDbLine
 10
3.381349
 20
-1.596546
 30
0.0
 11
3.381349
 21
-2.784546
 31
0.0
  0
LINE
  5
5B
100
AcDbEntity
  8
0
100
AcDbLine
 10
4.381349
 20
-1.596546
 30
0.0
 11
4.381349
 21
-2.784546
 31
0.0
  0
LINE
  5
5C
100
AcDbEntity
  8
0
100
AcDbLine
 10
2.944349
 20
-1.592561
 30
0.0
 11
2.944349
 21
-2.784546
 31
0.0
  0
LINE
  5
5D
100
AcDbEntity
  8
0
100
AcDbLine
 10
4.818349
 20
-1.592561
 30
0.0
 11
4.818349
 21
-2.784546
 31
0.0
  0
LINE
  5
5E
100
AcDbEntity
  8
0
100
AcDbLine
 10
2.381349
 20
-3.221546
 30
0.0
 11
5.381349
 21
-3.221546
 31
0.0
  0
LINE
  5
5F
100
AcDbEntity
  8
0
100
AcDbLine
 10
3.256349
 20
-2.909546
 30
0.0
 11
2.443349
 21
-2.909546
 31
0.0
  0
ARC
  5
60
100
AcDbEntity
  8
0
100
AcDbCircle
 10
2.819349
 20
-2.784546
 30
0.0
 40
0.125
100
AcDbArc
 50
270.0
 51
0.0
  0
LINE
  5
61
100
AcDbEntity
  8
0
100
AcDbLine
 10
2.381349
 20
-2.971546
 30
0.0
 11
2.381349
 21
-3.221546
 31
0.0
  0
ARC
  5
62
100
AcDbEntity
  8
0
100
AcDbCircle
 10
2.443349
 20
-2.971546
 30
0.0
 40
0.062
100
AcDbArc
 50
90.0
 51
180.0
  0
ARC
  5
63
100
AcDbEntity
  8
0
100
AcDbCircle
 10
3.256349
 20
-2.784546
 30
0.0
 40
0.125
100
AcDbArc
 50
270.0
 51
0.0
  0
LINE
  5
64
100
AcDbEntity
  8
0
100
AcDbLine
 10
4.506349
 20
-2.909546
 30
0.0
 11
5.319349
 21
-2.909546
 31
0.0
  0
ARC
  5
65
100
AcDbEntity
  8
0
100
AcDbCircle
 10
4.506349
 20
-2.784546
 30
0.0
 40
0.125
100
AcDbArc
 50
180.0
 51
270.0
  0
LINE
  5
66
100
AcDbEntity
  8
0
100
AcDbLine
 10
5.381349
 20
-2.971546
 30
0.0
 11
5.381349
 21
-3.221546
 31
0.0
  0
ARC
  5
67
100
AcDbEntity
  8
0
100
AcDbCircle
 10
4.943349
 20
-2.784546
 30
0.0
 40
0.125
100
AcDbArc
 50
180.0
 51
270.0
  0
ARC
  5
68
100
AcDbEntity
  8
0
100
AcDbCircle
 10
5.319349
 20
-2.971546
 30
0.0
 40
0.062
100
AcDbArc
 50
0.0
 51
90.0
  0
LINE
  5
69
100
AcDbEntity
  8
0
100
AcDbLine
 10
2.384338
 20
-1.049296
 30
0.0
 11
2.384338
 21
-0.596546
 31
0.0
  0
LINE
  5
6A
100
AcDbEntity
  8
0
100
AcDbLine
 10
2.068349
 20
-1.033546
 30
0.0
 11
2.068349
 21
-0.596546
 31
0.0
  0
ARC
  5
6B
100
AcDbEntity
  8
0
100
AcDbCircle
 10
2.193349
 20
-1.033546
 30
0.0
 40
0.125
100
AcDbArc
 50
90.0
 51
180.0
  0
ARC
  5
6C
100
AcDbEntity
  8
0
100
AcDbCircle
 10
2.260334
 20
-1.033546
 30
0.0
 40
0.125
100
AcDbArc
 50
352.761492
 51
90.0
  0
CIRCLE
  5
6D
100
AcDbEntity
  8
0
100
AcDbCircle
 10
2.756349
 20
-1.096546
 30
0.0
 40
0.1325
  0
CIRCLE
  5
6E
100
AcDbEntity
  8
0
100
AcDbCircle
 10
2.756349
 20
-1.096546
 30
0.0
 40
0.375
  0
LINE
  5
6F
100
AcDbEntity
  8
0
100
AcDbLine
 10
3.256349
 20
-1.471546
 30
0.0
 11
2.756349
 21
-1.471546
 31
0.0
  0
ARC
  5
70
100
AcDbEntity
  8
0
100
AcDbCircle
 10
2.819349
 20
-1.592561
 30
0.0
 40
0.125
100
AcDbArc
 50
0.0
 51
97.238508
  0
LINE
  5
71
100
AcDbEntity
  8
0
100
AcDbLine
 10
2.068349
 20
-1.409546
 30
0.0
 11
2.068349
 21
-1.033546
 31
0.0
  0
ARC
  5
72
100
AcDbEntity
  8
0
100
AcDbCircle
 10
2.006349
 20
-1.409546
 30
0.0
 40
0.062
100
AcDbArc
 50
270.0
 51
0.0
  0
ARC
  5
73
100
AcDbEntity
  8
0
100
AcDbCircle
 10
3.256349
 20
-1.596546
 30
0.0
 40
0.125
100
AcDbArc
 50
0.0
 51
90.0
  0
ARC
  5
74
100
AcDbEntity
  8
0
100
AcDbCircle
 10
2.259338
 20
-0.596546
 30
0.0
 40
0.125
100
AcDbArc
 50
0.0
 51
90.0
  0
ARC
  5
75
100
AcDbEntity
  8
0
100
AcDbCircle
 10
2.193349
 20
-0.596546
 30
0.0
 40
0.125
100
AcDbArc
 50
90.0
 51
180.0
  0
LINE
  5
76
100
AcDbEntity
  8
0
100
AcDbLine
 10
2.193349
 20
-0.908546
 30
0.0
 11
2.260334
 21
-0.908546
 31
0.0
  0
LINE
  5
77
100
AcDbEntity
  8
0
100
AcDbLine
 10
2.193349
 20
-0.471546
 30
0.0
 11
2.259338
 21
-0.471546
 31
0.0
  0
LINE
  5
78
100
AcDbEntity
  8
0
100
AcDbLine
 10
4.756425
 20
-1.376122
 30
0.0
 11
4.162425
 21
-0.845122
 31
0.0
  0
LINE
  5
79
100
AcDbEntity
  8
0
100
AcDbLine
 10
5.37836
 20
-1.049296
 30
0.0
 11
5.37836
 21
-0.596546
 31
0.0
  0
CIRCLE
  5
7A
100
AcDbEntity
  8
0
100
AcDbCircle
 10
5.006349
 20
-1.096546
 30
0.0
 40
0.1325
  0
ARC
  5
7B
100
AcDbEntity
  8
0
100
AcDbCircle
 10
5.006349
 20
-1.096546
 30
0.0
 40
0.375
100
AcDbArc
 50
228.205216
 51
48.205216
  0
LINE
  5
7C
100
AcDbEntity
  8
0
100
AcDbLine
 10
4.506349
 20
-1.471546
 30
0.0
 11
5.006349
 21
-1.471546
 31
0.0
  0
ARC
  5
7D
100
AcDbEntity
  8
0
100
AcDbCircle
 10
4.506349
 20
-1.596546
 30
0.0
 40
0.125
100
AcDbArc
 50
90.0
 51
180.0
  0
ARC
  5
7E
100
AcDbEntity
  8
0
100
AcDbCircle
 10
4.943349
 20
-1.592561
 30
0.0
 40
0.125
100
AcDbArc
 50
82.761492
 51
180.0
  0
CIRCLE
  5
7F
100
AcDbEntity
  8
0
100
AcDbCircle
 10
4.412349
 20
-0.565546
 30
0.0
 40
0.1685
  0
LINE
  5
80
100
AcDbEntity
  8
0
100
AcDbLine
 10
4.662273
 20
-0.28597
 30
0.0
 11
5.256273
 21
-0.81697
 31
0.0
  0
LINE
  5
81
100
AcDbEntity
  8
CTR_LINES
100
AcDbLine
 10
-4.346892
 20
1.153454
 30
0.0
 11
-1.695238
 21
1.153454
 31
0.0
  0
LINE
  5
82
100
AcDbEntity
  8
CTR_LINES
100
AcDbLine
 10
-4.346892
 20
0.028454
 30
0.0
 11
-1.695238
 21
0.028454
 31
0.0
  0
LINE
  5
83
100
AcDbEntity
  8
0
100
AcDbLine
 10
-1.98287
 20
1.528454
 30
0.0
 11
-4.10787
 21
1.528454
 31
0.0
  0
LINE
  5
84
100
AcDbEntity
  8
0
100
AcDbLine
 10
-4.10787
 20
0.778595
 30
0.0
 11
-4.10787
 21
1.528454
 31
0.0
  0
ARC
  5
85
100
AcDbEntity
  8
0
100
AcDbCircle
 10
-4.10737
 20
0.716597
 30
0.0
 40
0.062
100
AcDbArc
 50
0.0
 51
90.0
  0
LINE
  5
86
100
AcDbEntity
  8
0
100
AcDbLine
 10
-4.10787
 20
0.778597
 30
0.0
 11
-4.10737
 21
0.778597
 31
0.0
  0
CIRCLE
  5
87
100
AcDbEntity
  8
0
100
AcDbCircle
 10
-3.73287
 20
1.153454
 30
0.0
 40
0.1325
  0
ARC
  5
88
100
AcDbEntity
  8
0
100
AcDbCircle
 10
-3.88937
 20
1.372454
 30
0.0
 40
0.156
100
AcDbArc
 50
90.0
 51
180.0
  0
LINE
  5
89
100
AcDbEntity
  8
0
100
AcDbLine
 10
-1.98287
 20
0.778597
 30
0.0
 11
-1.98287
 21
1.528454
 31
0.0
  0
LINE
  5
8A
100
AcDbEntity
  8
0
100
AcDbLine
 10
-1.98287
 20
0.778597
 30
0.0
 11
-1.98287
 21
1.528454
 31
0.0
  0
LINE
  5
8B
100
AcDbEntity
  8
0
100
AcDbLine
 10
-1.98287
 20
0.778597
 30
0.0
 11
-1.98287
 21
1.528454
 31
0.0
  0
ARC
  5
8C
100
AcDbEntity
  8
0
100
AcDbCircle
 10
-1.98337
 20
0.716597
 30
0.0
 40
0.062
100
AcDbArc
 50
90.0
 51
180.0
  0
LINE
  5
8D
100
AcDbEntity
  8
0
100
AcDbLine
 10
-1.98337
 20
0.778597
 30
0.0
 11
-1.98287
 21
0.778597
 31
0.0
  0
CIRCLE
  5
8E
100
AcDbEntity
  8
0
100
AcDbCircle
 10
-2.35787
 20
1.153454
 30
0.0
 40
0.1325
  0
ARC
  5
8F
100
AcDbEntity
  8
0
100
AcDbCircle
 10
-2.20137
 20
1.372454
 30
0.0
 40
0.156
100
AcDbArc
 50
0.0
 51
90.0
  0
LINE
  5
90
100
AcDbEntity
  8
0
100
AcDbLine
 10
2.006349
 20
1.528454
 30
0.0
 11
1.756349
 21
1.528454
 31
0.0
  0
CIRCLE
  5
91
100
AcDbEntity
  8
0
100
AcDbCircle
 10
3.881349
 20
1.153454
 30
0.0
 40
0.375
  0
LINE
  5
92
100
AcDbEntity
  8
0
100
AcDbLine
 10
3.509338
 20
1.106204
 30
0.0
 11
3.509338
 21
0.653454
 31
0.0
  0
LINE
  5
93
100
AcDbEntity
  8
0
100
AcDbLine
 10
2.068349
 20
1.090454
 30
0.0
 11
2.068349
 21
0.653454
 31
0.0
  0
LINE
  5
94
100
AcDbEntity
  8
0
100
AcDbLine
 10
2.193349
 20
0.528454
 30
0.0
 11
3.384338
 21
0.528454
 31
0.0
  0
ARC
  5
95
100
AcDbEntity
  8
0
100
AcDbCircle
 10
2.193349
 20
0.653454
 30
0.0
 40
0.125
100
AcDbArc
 50
180.0
 51
270.0
  0
ARC
  5
96
100
AcDbEntity
  8
0
100
AcDbCircle
 10
3.384338
 20
0.653454
 30
0.0
 40
0.125
100
AcDbArc
 50
270.0
 51
0.0
  0
LINE
  5
97
100
AcDbEntity
  8
0
100
AcDbLine
 10
2.193349
 20
0.965454
 30
0.0
 11
3.385334
 21
0.965454
 31
0.0
  0
LINE
  5
98
100
AcDbEntity
  8
0
100
AcDbLine
 10
2.068349
 20
1.466454
 30
0.0
 11
2.068349
 21
1.090454
 31
0.0
  0
ARC
  5
99
100
AcDbEntity
  8
0
100
AcDbCircle
 10
2.193349
 20
1.090454
 30
0.0
 40
0.125
100
AcDbArc
 50
180.0
 51
270.0
  0
ARC
  5
9A
100
AcDbEntity
  8
0
100
AcDbCircle
 10
2.006349
 20
1.466454
 30
0.0
 40
0.062
100
AcDbArc
 50
0.0
 51
90.0
  0
ARC
  5
9B
100
AcDbEntity
  8
0
100
AcDbCircle
 10
3.385334
 20
1.090454
 30
0.0
 40
0.125
100
AcDbArc
 50
270.0
 51
7.238508
  0
LINE
  5
9C
100
AcDbEntity
  8
0
100
AcDbLine
 10
4.256349
 20
1.153454
 30
0.0
 11
4.256349
 21
0.653454
 31
0.0
  0
ARC
  5
9D
100
AcDbEntity
  8
0
100
AcDbCircle
 10
4.381349
 20
0.653454
 30
0.0
 40
0.125
100
AcDbArc
 50
180.0
 51
270.0
  0
CIRCLE
  5
9E
100
AcDbEntity
  8
0
100
AcDbCircle
 10
3.881349
 20
1.153454
 30
0.0
 40
0.1325
  0
ARC
  5
9F
100
AcDbEntity
  8
0
100
AcDbCircle
 10
4.377364
 20
1.090454
 30
0.0
 40
0.125
100
AcDbArc
 50
172.761492
 51
270.0
  0
LINE
  5
A0
100
AcDbEntity
  8
0
100
AcDbLine
 10
6.006349
 20
1.528454
 30
0.0
 11
6.006349
 21
-1.471546
 31
0.0
  0
LINE
  5
A1
100
AcDbEntity
  8
0
100
AcDbLine
 10
5.694349
 20
-1.033546
 30
0.0
 11
5.694349
 21
-0.596546
 31
0.0
  0
ARC
  5
A2
100
AcDbEntity
  8
0
100
AcDbCircle
 10
5.569349
 20
-1.033546
 30
0.0
 40
0.125
100
AcDbArc
 50
0.0
 51
90.0
  0
LINE
  5
A3
100
AcDbEntity
  8
0
100
AcDbLine
 10
5.694349
 20
-1.033546
 30
0.0
 11
5.694349
 21
-1.409546
 31
0.0
  0
LINE
  5
A4
100
AcDbEntity
  8
0
100
AcDbLine
 10
5.756349
 20
-1.471546
 30
0.0
 11
6.006349
 21
-1.471546
 31
0.0
  0
ARC
  5
A5
100
AcDbEntity
  8
0
100
AcDbCircle
 10
5.756349
 20
-1.409546
 30
0.0
 40
0.062
100
AcDbArc
 50
180.0
 51
270.0
  0
ARC
  5
A6
100
AcDbEntity
  8
0
100
AcDbCircle
 10
5.569349
 20
-0.596546
 30
0.0
 40
0.125
100
AcDbArc
 50
0.0
 51
90.0
  0
LINE
  5
A7
100
AcDbEntity
  8
0
100
AcDbLine
 10
5.502364
 20
-0.908546
 30
0.0
 11
5.569349
 21
-0.908546
 31
0.0
  0
LINE
  5
A8
100
AcDbEntity
  8
0
100
AcDbLine
 10
5.50336
 20
-0.471546
 30
0.0
 11
5.569349
 21
-0.471546
 31
0.0
  0
LINE
  5
A9
100
AcDbEntity
  8
0
100
AcDbLine
 10
5.694349
 20
0.653454
 30
0.0
 11
5.694349
 21
1.090454
 31
0.0
  0
ARC
  5
AA
100
AcDbEntity
  8
0
100
AcDbCircle
 10
5.569349
 20
0.653454
 30
0.0
 40
0.125
100
AcDbArc
 50
270.0
 51
0.0
  0
LINE
  5
AB
100
AcDbEntity
  8
0
100
AcDbLine
 10
5.694349
 20
1.090454
 30
0.0
 11
5.694349
 21
1.466454
 31
0.0
  0
ARC
  5
AC
100
AcDbEntity
  8
0
100
AcDbCircle
 10
5.569349
 20
1.090454
 30
0.0
 40
0.125
100
AcDbArc
 50
270.0
 51
0.0
  0
LINE
  5
AD
100
AcDbEntity
  8
0
100
AcDbLine
 10
5.756349
 20
1.528454
 30
0.0
 11
6.006349
 21
1.528454
 31
0.0
  0
ARC
  5
AE
100
AcDbEntity
  8
0
100
AcDbCircle
 10
5.756349
 20
1.466454
 30
0.0
 40
0.062
100
AcDbArc
 50
90.0
 51
180.0
  0
ENDBLK
  5
B0
100
AcDbEntity
  8
0
100
AcDbBlockEnd
  0
BLOCK
  5
1BC
100
AcDbEntity
  8
0
100
AcDbBlockBegin
  2
*D1
 70
     1
 10
0.0
 20
0.0
 30
0.0
  3
*D1
  1

  0
LINE
  5
1BD
100
AcDbEntity
  8
0
  6
BYBLOCK
 62
     0
100
AcDbLine
 10
14.742914
 20
5.970016
 30
0.0
 11
15.25253
 21
5.970016
 31
0.0
  0
LINE
  5
1BE
100
AcDbEntity
  8
0
  6
BYBLOCK
 62
     0
100
AcDbLine
 10
14.742914
 20
6.156016
 30
0.0
 11
15.25253
 21
6.156016
 31
0.0
  0
LINE
  5
1BF
100
AcDbEntity
  8
0
  6
BYBLOCK
 62
     0
100
AcDbLine
 10
15.07253
 20
5.820016
 30
0.0
 11
15.07253
 21
5.670016
 31
0.0
  0
LINE
  5
1C0
100
AcDbEntity
  8
0
  6
BYBLOCK
 62
     0
100
AcDbLine
 10
15.07253
 20
6.306016
 30
0.0
 11
15.07253
 21
6.883339
 31
0.0
  0
LINE
  5
1C1
100
AcDbEntity
  8
0
  6
BYBLOCK
 62
     0
100
AcDbLine
 10
15.07253
 20
6.883339
 30
0.0
 11
15.22253
 21
6.883339
 31
0.0
  0
SOLID
  5
1C2
100
AcDbEntity
  8
0
  6
BYBLOCK
 62
     0
100
AcDbTrace
 10
15.04753
 20
5.820016
 30
0.0
 11
15.09753
 21
5.820016
 31
0.0
 12
15.07253
 22
5.970016
 32
0.0
 13
15.07253
 23
5.970016
 33
0.0
  0
SOLID
  5
1C3
100
AcDbEntity
  8
0
  6
BYBLOCK
 62
     0
100
AcDbTrace
 10
15.04753
 20
6.306016
 30
0.0
 11
15.09753
 21
6.306016
 31
0.0
 12
15.07253
 22
6.156016
 32
0.0
 13
15.07253
 23
6.156016
 33
0.0
  0
MTEXT
  5
1C4
100
AcDbEntity
  8
0
  6
BYBLOCK
 62
     0
100
AcDbMText
 10
15.869673
 20
6.883339
 30
0.0
 40
0.12
 41
0.0
 71
     5
 72
     1
  1
\A1;.187 X .093\PKEYWAY\PTYP.
  0
POINT
  5
1C5
100
AcDbEntity
  8
DEFPOINTS
  6
BYBLOCK
 62
     0
100
AcDbPoint
 10
14.680414
 20
5.970016
 30
0.0
  0
POINT
  5
1C6
100
AcDbEntity
  8
DEFPOINTS
  6
BYBLOCK
 62
     0
100
AcDbPoint
 10
14.680414
 20
6.156016
 30
0.0
  0
POINT
  5
1C7
100
AcDbEntity
  8
DEFPOINTS
  6
BYBLOCK
 62
     0
100
AcDbPoint
 10
15.07253
 20
6.156016
 30
0.0
  0
ENDBLK
  5
1C8
100
AcDbEntity
  8
0
100
AcDbBlockEnd
  0
BLOCK
  5
1E2
100
AcDbEntity
  8
0
100
AcDbBlockBegin
  2
*D2
 70
     1
 10
0.0
 20
0.0
 30
0.0
  3
*D2
  1

  0
LINE
  5
1E3
100
AcDbEntity
  8
0
  6
BYBLOCK
 62
     0
100
AcDbLine
 10
13.001523
 20
3.973154
 30
0.0
 11
12.851523
 21
3.973154
 31
0.0
  0
LINE
  5
1E4
100
AcDbEntity
  8
0
  6
BYBLOCK
 62
     0
100
AcDbLine
 10
12.851523
 20
3.973154
 30
0.0
 11
12.341724
 21
4.706099
 31
0.0
  0
MTEXT
  5
1E5
100
AcDbEntity
  8
0
  6
BYBLOCK
 62
     0
100
AcDbMText
 10
13.617237
 20
3.973154
 30
0.0
 40
0.12
 41
0.0
 71
     5
 72
     1
  1
\A1;\U+2205.265 THRU\PX 3
  0
SOLID
  5
1E6
100
AcDbEntity
  8
0
  6
BYBLOCK
 62
     0
100
AcDbTrace
 10
12.362248
 20
4.720374
 30
0.0
 11
12.3212
 21
4.691824
 31
0.0
 12
12.256073
 22
4.829241
 32
0.0
 13
12.256073
 23
4.829241
 33
0.0
  0
LINE
  5
1E7
100
AcDbEntity
  8
0
  6
BYBLOCK
 62
     0
100
AcDbLine
 10
12.090414
 20
4.938016
 30
0.0
 11
12.270414
 21
4.938016
 31
0.0
  0
LINE
  5
1E8
100
AcDbEntity
  8
0
  6
BYBLOCK
 62
     0
100
AcDbLine
 10
12.180414
 20
4.848016
 30
0.0
 11
12.180414
 21
5.028016
 31
0.0
  0
POINT
  5
1E9
100
AcDbEntity
  8
DEFPOINTS
  6
BYBLOCK
 62
     0
100
AcDbPoint
 10
12.256073
 20
4.829241
 30
0.0
  0
POINT
  5
1EA
100
AcDbEntity
  8
DEFPOINTS
  6
BYBLOCK
 62
     0
100
AcDbPoint
 10
12.104756
 20
5.046791
 30
0.0
  0
ENDBLK
  5
1EB
100
AcDbEntity
  8
0
100
AcDbBlockEnd
  0
BLOCK
  5
219
100
AcDbEntity
  8
0
100
AcDbBlockBegin
  2
*D3
 70
     1
 10
0.0
 20
0.0
 30
0.0
  3
*D3
  1

  0
LINE
  5
21A
100
AcDbEntity
  8
0
  6
BYBLOCK
 62
     0
100
AcDbLine
 10
12.555914
 20
3.125016
 30
0.0
 11
13.217584
 21
3.125016
 31
0.0
  0
LINE
  5
21B
100
AcDbEntity
  8
0
  6
BYBLOCK
 62
     0
100
AcDbLine
 10
12.617914
 20
2.813016
 30
0.0
 11
13.217584
 21
2.813016
 31
0.0
  0
LINE
  5
21C
100
AcDbEntity
  8
0
  6
BYBLOCK
 62
     0
100
AcDbLine
 10
13.037584
 20
3.275016
 30
0.0
 11
13.037584
 21
3.425016
 31
0.0
  0
LINE
  5
21D
100
AcDbEntity
  8
0
  6
BYBLOCK
 62
     0
100
AcDbLine
 10
13.037584
 20
2.663016
 30
0.0
 11
13.037584
 21
2.135619
 31
0.0
  0
LINE
  5
21E
100
AcDbEntity
  8
0
  6
BYBLOCK
 62
     0
100
AcDbLine
 10
13.037584
 20
2.135619
 30
0.0
 11
12.887584
 21
2.135619
 31
0.0
  0
SOLID
  5
21F
100
AcDbEntity
  8
0
  6
BYBLOCK
 62
     0
100
AcDbTrace
 10
13.012584
 20
3.275016
 30
0.0
 11
13.062584
 21
3.275016
 31
0.0
 12
13.037584
 22
3.125016
 32
0.0
 13
13.037584
 23
3.125016
 33
0.0
  0
SOLID
  5
220
100
AcDbEntity
  8
0
  6
BYBLOCK
 62
     0
100
AcDbTrace
 10
13.012584
 20
2.663016
 30
0.0
 11
13.062584
 21
2.663016
 31
0.0
 12
13.037584
 22
2.813016
 32
0.0
 13
13.037584
 23
2.813016
 33
0.0
  0
MTEXT
  5
221
100
AcDbEntity
  8
0
  6
BYBLOCK
 62
     0
100
AcDbMText
 10
12.626156
 20
2.135619
 30
0.0
 40
0.12
 41
0.0
 71
     5
 72
     1
  1
\A1;.31\PTYP.
  0
POINT
  5
222
100
AcDbEntity
  8
DEFPOINTS
  6
BYBLOCK
 62
     0
100
AcDbPoint
 10
12.493414
 20
3.125016
 30
0.0
  0
POINT
  5
223
100
AcDbEntity
  8
DEFPOINTS
  6
BYBLOCK
 62
     0
100
AcDbPoint
 10
12.555414
 20
2.813016
 30
0.0
  0
POINT
  5
224
100
AcDbEntity
  8
DEFPOINTS
  6
BYBLOCK
 62
     0
100
AcDbPoint
 10
13.037584
 20
2.813016
 30
0.0
  0
ENDBLK
  5
225
100
AcDbEntity
  8
0
100
AcDbBlockEnd
  0
BLOCK
  5
240
100
AcDbEntity
  8
0
100
AcDbBlockBegin
  2
*D4
 70
     1
 10
0.0
 20
0.0
 30
0.0
  3
*D4
  1

  0
LINE
  5
241
100
AcDbEntity
  8
0
  6
BYBLOCK
 62
     0
100
AcDbLine
 10
11.367914
 20
1.280516
 30
0.0
 11
11.367914
 21
0.547862
 31
0.0
  0
LINE
  5
242
100
AcDbEntity
  8
0
  6
BYBLOCK
 62
     0
100
AcDbLine
 10
10.742914
 20
1.280516
 30
0.0
 11
10.742914
 21
0.547862
 31
0.0
  0
LINE
  5
243
100
AcDbEntity
  8
0
  6
BYBLOCK
 62
     0
100
AcDbLine
 10
11.217914
 20
0.727862
 30
0.0
 11
10.892914
 21
0.727862
 31
0.0
  0
LINE
  5
244
100
AcDbEntity
  8
0
  6
BYBLOCK
 62
     0
100
AcDbLine
 10
10.742914
 20
0.727862
 30
0.0
 11
10.254137
 21
0.727862
 31
0.0
  0
SOLID
  5
245
100
AcDbEntity
  8
0
  6
BYBLOCK
 62
     0
100
AcDbTrace
 10
11.217914
 20
0.752862
 30
0.0
 11
11.217914
 21
0.702862
 31
0.0
 12
11.367914
 22
0.727862
 32
0.0
 13
11.367914
 23
0.727862
 33
0.0
  0
SOLID
  5
246
100
AcDbEntity
  8
0
  6
BYBLOCK
 62
     0
100
AcDbTrace
 10
10.892914
 20
0.752862
 30
0.0
 11
10.892914
 21
0.702862
 31
0.0
 12
10.742914
 22
0.727862
 32
0.0
 13
10.742914
 23
0.727862
 33
0.0
  0
MTEXT
  5
247
100
AcDbEntity
  8
0
  6
BYBLOCK
 62
     0
100
AcDbMText
 10
9.926994
 20
0.727862
 30
0.0
 40
0.12
 41
0.0
 71
     5
 72
     1
  1
\A1;\U+2205.625\PTYP.
  0
POINT
  5
248
100
AcDbEntity
  8
DEFPOINTS
  6
BYBLOCK
 62
     0
100
AcDbPoint
 10
11.367914
 20
1.343016
 30
0.0
  0
POINT
  5
249
100
AcDbEntity
  8
DEFPOINTS
  6
BYBLOCK
 62
     0
100
AcDbPoint
 10
10.742914
 20
1.343016
 30
0.0
  0
POINT
  5
24A
100
AcDbEntity
  8
DEFPOINTS
  6
BYBLOCK
 62
     0
100
AcDbPoint
 10
10.742914
 20
0.727862
 30
0.0
  0
ENDBLK
  5
24B
100
AcDbEntity
  8
0
100
AcDbBlockEnd
  0
BLOCK
  5
25A
100
AcDbEntity
  8
0
100
AcDbBlockBegin
  2
*D5
 70
     1
 10
0.0
 20
0.0
 30
0.0
  3
*D5
  1

  0
LINE
  5
25B
100
AcDbEntity
  8
0
  6
BYBLOCK
 62
     0
100
AcDbLine
 10
10.710414
 20
1.313016
 30
0.0
 11
8.924835
 21
1.313016
 31
0.0
  0
LINE
  5
25C
100
AcDbEntity
  8
0
  6
BYBLOCK
 62
     0
100
AcDbLine
 10
9.492914
 20
2.813016
 30
0.0
 11
8.924835
 21
2.813016
 31
0.0
  0
LINE
  5
25D
100
AcDbEntity
  8
0
  6
BYBLOCK
 62
     0
100
AcDbLine
 10
9.104835
 20
1.463016
 30
0.0
 11
9.104835
 21
1.813016
 31
0.0
  0
LINE
  5
25E
100
AcDbEntity
  8
0
  6
BYBLOCK
 62
     0
100
AcDbLine
 10
9.104835
 20
2.663016
 30
0.0
 11
9.104835
 21
2.313016
 31
0.0
  0
SOLID
  5
25F
100
AcDbEntity
  8
0
  6
BYBLOCK
 62
     0
100
AcDbTrace
 10
9.079835
 20
1.463016
 30
0.0
 11
9.129835
 21
1.463016
 31
0.0
 12
9.104835
 22
1.313016
 32
0.0
 13
9.104835
 23
1.313016
 33
0.0
  0
SOLID
  5
260
100
AcDbEntity
  8
0
  6
BYBLOCK
 62
     0
100
AcDbTrace
 10
9.079835
 20
2.663016
 30
0.0
 11
9.129835
 21
2.663016
 31
0.0
 12
9.104835
 22
2.813016
 32
0.0
 13
9.104835
 23
2.813016
 33
0.0
  0
MTEXT
  5
261
100
AcDbEntity
  8
0
  6
BYBLOCK
 62
     0
100
AcDbMText
 10
9.104835
 20
2.063016
 30
0.0
 40
0.12
 41
0.0
 71
     5
 72
     1
  1
\A1;1.500\PTYP.
  0
POINT
  5
262
100
AcDbEntity
  8
DEFPOINTS
  6
BYBLOCK
 62
     0
100
AcDbPoint
 10
10.772914
 20
1.313016
 30
0.0
  0
POINT
  5
263
100
AcDbEntity
  8
DEFPOINTS
  6
BYBLOCK
 62
     0
100
AcDbPoint
 10
9.555414
 20
2.813016
 30
0.0
  0
POINT
  5
264
100
AcDbEntity
  8
DEFPOINTS
  6
BYBLOCK
 62
     0
100
AcDbPoint
 10
9.104835
 20
2.813016
 30
0.0
  0
ENDBLK
  5
265
100
AcDbEntity
  8
0
100
AcDbBlockEnd
  0
BLOCK
  5
28D
100
AcDbEntity
  8
0
100
AcDbBlockBegin
  2
*D6
 70
     1
 10
0.0
 20
0.0
 30
0.0
  3
*D6
  1

  0
LINE
  5
28E
100
AcDbEntity
  8
0
  6
BYBLOCK
 62
     0
100
AcDbLine
 10
8.930414
 20
7.625516
 30
0.0
 11
8.930414
 21
8.179021
 31
0.0
  0
LINE
  5
28F
100
AcDbEntity
  8
0
  6
BYBLOCK
 62
     0
100
AcDbLine
 10
11.055414
 20
7.783432
 30
0.0
 11
11.055414
 21
8.179021
 31
0.0
  0
LINE
  5
290
100
AcDbEntity
  8
0
  6
BYBLOCK
 62
     0
100
AcDbLine
 10
9.080414
 20
7.999021
 30
0.0
 11
9.662914
 21
7.999021
 31
0.0
  0
LINE
  5
291
100
AcDbEntity
  8
0
  6
BYBLOCK
 62
     0
100
AcDbLine
 10
10.905414
 20
7.999021
 30
0.0
 11
10.322914
 21
7.999021
 31
0.0
  0
SOLID
  5
292
100
AcDbEntity
  8
0
  6
BYBLOCK
 62
     0
100
AcDbTrace
 10
9.080414
 20
8.024021
 30
0.0
 11
9.080414
 21
7.974021
 31
0.0
 12
8.930414
 22
7.999021
 32
0.0
 13
8.930414
 23
7.999021
 33
0.0
  0
SOLID
  5
293
100
AcDbEntity
  8
0
  6
BYBLOCK
 62
     0
100
AcDbTrace
 10
10.905414
 20
8.024021
 30
0.0
 11
10.905414
 21
7.974021
 31
0.0
 12
11.055414
 22
7.999021
 32
0.0
 13
11.055414
 23
7.999021
 33
0.0
  0
MTEXT
  5
294
100
AcDbEntity
  8
0
  6
BYBLOCK
 62
     0
100
AcDbMText
 10
9.992914
 20
7.999021
 30
0.0
 40
0.12
 41
0.0
 71
     5
 72
     1
  1
\A1;2.125\PTYP.
  0
POINT
  5
295
100
AcDbEntity
  8
DEFPOINTS
  6
BYBLOCK
 62
     0
100
AcDbPoint
 10
8.930414
 20
7.563016
 30
0.0
  0
POINT
  5
296
100
AcDbEntity
  8
DEFPOINTS
  6
BYBLOCK
 62
     0
100
AcDbPoint
 10
11.055414
 20
7.720932
 30
0.0
  0
POINT
  5
297
100
AcDbEntity
  8
DEFPOINTS
  6
BYBLOCK
 62
     0
100
AcDbPoint
 10
11.055414
 20
7.999021
 30
0.0
  0
ENDBLK
  5
298
100
AcDbEntity
  8
0
100
AcDbBlockEnd
  0
BLOCK
  5
2B2
100
AcDbEntity
  8
0
100
AcDbBlockBegin
  2
*D7
 70
     1
 10
0.0
 20
0.0
 30
0.0
  3
*D7
  1

  0
LINE
  5
2B3
100
AcDbEntity
  8
0
  6
BYBLOCK
 62
     0
100
AcDbLine
 10
12.180414
 20
7.153405
 30
0.0
 11
12.180414
 21
8.179021
 31
0.0
  0
LINE
  5
2B4
100
AcDbEntity
  8
0
  6
BYBLOCK
 62
     0
100
AcDbLine
 10
11.205414
 20
7.999021
 30
0.0
 11
11.296486
 21
7.999021
 31
0.0
  0
LINE
  5
2B5
100
AcDbEntity
  8
0
  6
BYBLOCK
 62
     0
100
AcDbLine
 10
12.030414
 20
7.999021
 30
0.0
 11
11.939343
 21
7.999021
 31
0.0
  0
SOLID
  5
2B6
100
AcDbEntity
  8
0
  6
BYBLOCK
 62
     0
100
AcDbTrace
 10
11.205414
 20
8.024021
 30
0.0
 11
11.205414
 21
7.974021
 31
0.0
 12
11.055414
 22
7.999021
 32
0.0
 13
11.055414
 23
7.999021
 33
0.0
  0
SOLID
  5
2B7
100
AcDbEntity
  8
0
  6
BYBLOCK
 62
     0
100
AcDbTrace
 10
12.030414
 20
8.024021
 30
0.0
 11
12.030414
 21
7.974021
 31
0.0
 12
12.180414
 22
7.999021
 32
0.0
 13
12.180414
 23
7.999021
 33
0.0
  0
MTEXT
  5
2B8
100
AcDbEntity
  8
0
  6
BYBLOCK
 62
     0
100
AcDbMText
 10
11.617914
 20
7.999021
 30
0.0
 40
0.12
 41
0.0
 71
     5
 72
     1
  1
\A1;1.125\PTYP.
  0
POINT
  5
2B9
100
AcDbEntity
  8
DEFPOINTS
  6
BYBLOCK
 62
     0
100
AcDbPoint
 10
11.055414
 20
7.720932
 30
0.0
  0
POINT
  5
2BA
100
AcDbEntity
  8
DEFPOINTS
  6
BYBLOCK
 62
     0
100
AcDbPoint
 10
12.180414
 20
7.090905
 30
0.0
  0
POINT
  5
2BB
100
AcDbEntity
  8
DEFPOINTS
  6
BYBLOCK
 62
     0
100
AcDbPoint
 10
12.180414
 20
7.999021
 30
0.0
  0
ENDBLK
  5
2BC
100
AcDbEntity
  8
0
100
AcDbBlockEnd
  0
BLOCK
  5
2A5
100
AcDbEntity
  8
0
100
AcDbBlockBegin
  2
*D8
 70
     1
 10
0.0
 20
0.0
 30
0.0
  3
*D8
  1

  0
LINE
  5
2A6
100
AcDbEntity
  8
0
  6
BYBLOCK
 62
     0
100
AcDbLine
 10
7.430414
 20
6.408016
 30
0.0
 11
7.430414
 21
8.793675
 31
0.0
  0
LINE
  5
2A7
100
AcDbEntity
  8
0
  6
BYBLOCK
 62
     0
100
AcDbLine
 10
14.680414
 20
6.408016
 30
0.0
 11
14.680414
 21
8.793675
 31
0.0
  0
LINE
  5
2A8
100
AcDbEntity
  8
0
  6
BYBLOCK
 62
     0
100
AcDbLine
 10
7.580414
 20
8.613675
 30
0.0
 11
10.725414
 21
8.613675
 31
0.0
  0
LINE
  5
2A9
100
AcDbEntity
  8
0
  6
BYBLOCK
 62
     0
100
AcDbLine
 10
14.530414
 20
8.613675
 30
0.0
 11
11.385414
 21
8.613675
 31
0.0
  0
SOLID
  5
2AA
100
AcDbEntity
  8
0
  6
BYBLOCK
 62
     0
100
AcDbTrace
 10
7.580414
 20
8.638675
 30
0.0
 11
7.580414
 21
8.588675
 31
0.0
 12
7.430414
 22
8.613675
 32
0.0
 13
7.430414
 23
8.613675
 33
0.0
  0
SOLID
  5
2AB
100
AcDbEntity
  8
0
  6
BYBLOCK
 62
     0
100
AcDbTrace
 10
14.530414
 20
8.638675
 30
0.0
 11
14.530414
 21
8.588675
 31
0.0
 12
14.680414
 22
8.613675
 32
0.0
 13
14.680414
 23
8.613675
 33
0.0
  0
MTEXT
  5
2AC
100
AcDbEntity
  8
0
  6
BYBLOCK
 62
     0
100
AcDbMText
 10
11.055414
 20
8.613675
 30
0.0
 40
0.12
 41
0.0
 71
     5
 72
     1
  1
\A1;7.250
  0
POINT
  5
2AD
100
AcDbEntity
  8
DEFPOINTS
  6
BYBLOCK
 62
     0
100
AcDbPoint
 10
7.430414
 20
6.345516
 30
0.0
  0
POINT
  5
2AE
100
AcDbEntity
  8
DEFPOINTS
  6
BYBLOCK
 62
     0
100
AcDbPoint
 10
14.680414
 20
6.345516
 30
0.0
  0
POINT
  5
2AF
100
AcDbEntity
  8
DEFPOINTS
  6
BYBLOCK
 62
     0
100
AcDbPoint
 10
14.680414
 20
8.613675
 30
0.0
  0
ENDBLK
  5
2B0
100
AcDbEntity
  8
0
100
AcDbBlockEnd
  0
BLOCK
  5
2CB
100
AcDbEntity
  8
0
100
AcDbBlockBegin
  2
*D9
 70
     1
 10
0.0
 20
0.0
 30
0.0
  3
*D9
  1

  0
LINE
  5
2CC
100
AcDbEntity
  8
0
  6
BYBLOCK
 62
     0
100
AcDbLine
 10
7.153154
 20
6.063016
 30
0.0
 11
6.634131
 21
6.063016
 31
0.0
  0
LINE
  5
2CD
100
AcDbEntity
  8
0
  6
BYBLOCK
 62
     0
100
AcDbLine
 10
8.63728
 20
7.188016
 30
0.0
 11
6.634131
 21
7.188016
 31
0.0
  0
LINE
  5
2CE
100
AcDbEntity
  8
0
  6
BYBLOCK
 62
     0
100
AcDbLine
 10
6.814131
 20
6.213016
 30
0.0
 11
6.814131
 21
6.375516
 31
0.0
  0
LINE
  5
2CF
100
AcDbEntity
  8
0
  6
BYBLOCK
 62
     0
100
AcDbLine
 10
6.814131
 20
7.038016
 30
0.0
 11
6.814131
 21
6.875516
 31
0.0
  0
SOLID
  5
2D0
100
AcDbEntity
  8
0
  6
BYBLOCK
 62
     0
100
AcDbTrace
 10
6.789131
 20
6.213016
 30
0.0
 11
6.839131
 21
6.213016
 31
0.0
 12
6.814131
 22
6.063016
 32
0.0
 13
6.814131
 23
6.063016
 33
0.0
  0
SOLID
  5
2D1
100
AcDbEntity
  8
0
  6
BYBLOCK
 62
     0
100
AcDbTrace
 10
6.789131
 20
7.038016
 30
0.0
 11
6.839131
 21
7.038016
 31
0.0
 12
6.814131
 22
7.188016
 32
0.0
 13
6.814131
 23
7.188016
 33
0.0
  0
MTEXT
  5
2D2
100
AcDbEntity
  8
0
  6
BYBLOCK
 62
     0
100
AcDbMText
 10
6.814131
 20
6.625516
 30
0.0
 40
0.12
 41
0.0
 71
     5
 72
     1
  1
\A1;1.125\PTYP.
  0
POINT
  5
2D3
100
AcDbEntity
  8
DEFPOINTS
  6
BYBLOCK
 62
     0
100
AcDbPoint
 10
7.215654
 20
6.063016
 30
0.0
  0
POINT
  5
2D4
100
AcDbEntity
  8
DEFPOINTS
  6
BYBLOCK
 62
     0
100
AcDbPoint
 10
8.69978
 20
7.188016
 30
0.0
  0
POINT
  5
2D5
100
AcDbEntity
  8
DEFPOINTS
  6
BYBLOCK
 62
     0
100
AcDbPoint
 10
6.814131
 20
7.188016
 30
0.0
  0
ENDBLK
  5
2D6
100
AcDbEntity
  8
0
100
AcDbBlockEnd
  0
BLOCK
  5
2E3
100
AcDbEntity
  8
0
100
AcDbBlockBegin
  2
*D10
 70
     1
 10
0.0
 20
0.0
 30
0.0
  3
*D10
  1

  0
LINE
  5
2E4
100
AcDbEntity
  8
0
  6
BYBLOCK
 62
     0
100
AcDbLine
 10
5.117387
 20
4.018257
 30
0.0
 11
4.967387
 21
4.018257
 31
0.0
  0
LINE
  5
2E5
100
AcDbEntity
  8
0
  6
BYBLOCK
 62
     0
100
AcDbLine
 10
4.967387
 20
4.018257
 30
0.0
 11
4.213905
 21
4.74228
 31
0.0
  0
MTEXT
  5
2E6
100
AcDbEntity
  8
0
  6
BYBLOCK
 62
     0
100
AcDbMText
 10
5.733102
 20
4.018257
 30
0.0
 40
0.12
 41
0.0
 71
     5
 72
     1
  1
\A1;\U+2205.265 THRU\PX 4\PTYP.
  0
SOLID
  5
2E7
100
AcDbEntity
  8
0
  6
BYBLOCK
 62
     0
100
AcDbTrace
 10
4.231227
 20
4.760307
 30
0.0
 11
4.196583
 21
4.724254
 31
0.0
 12
4.105745
 22
4.846211
 32
0.0
 13
4.105745
 23
4.846211
 33
0.0
  0
LINE
  5
2E8
100
AcDbEntity
  8
0
  6
BYBLOCK
 62
     0
100
AcDbLine
 10
3.920205
 20
4.938016
 30
0.0
 11
4.100205
 21
4.938016
 31
0.0
  0
LINE
  5
2E9
100
AcDbEntity
  8
0
  6
BYBLOCK
 62
     0
100
AcDbLine
 10
4.010205
 20
4.848016
 30
0.0
 11
4.010205
 21
5.028016
 31
0.0
  0
POINT
  5
2EA
100
AcDbEntity
  8
DEFPOINTS
  6
BYBLOCK
 62
     0
100
AcDbPoint
 10
4.105745
 20
4.846211
 30
0.0
  0
POINT
  5
2EB
100
AcDbEntity
  8
DEFPOINTS
  6
BYBLOCK
 62
     0
100
AcDbPoint
 10
3.914664
 20
5.029821
 30
0.0
  0
ENDBLK
  5
2EC
100
AcDbEntity
  8
0
100
AcDbBlockEnd
  0
BLOCK
  5
307
100
AcDbEntity
  8
0
100
AcDbBlockBegin
  2
*D11
 70
     1
 10
0.0
 20
0.0
 30
0.0
  3
*D11
  1

  0
LINE
  5
308
100
AcDbEntity
  8
0
  6
BYBLOCK
 62
     0
100
AcDbLine
 10
4.735337
 20
6.063016
 30
0.0
 11
5.063271
 21
6.063016
 31
0.0
  0
LINE
  5
309
100
AcDbEntity
  8
0
  6
BYBLOCK
 62
     0
100
AcDbLine
 10
4.735337
 20
7.188016
 30
0.0
 11
5.063271
 21
7.188016
 31
0.0
  0
LINE
  5
30A
100
AcDbEntity
  8
0
  6
BYBLOCK
 62
     0
100
AcDbLine
 10
4.883271
 20
6.213016
 30
0.0
 11
4.883271
 21
6.375516
 31
0.0
  0
LINE
  5
30B
100
AcDbEntity
  8
0
  6
BYBLOCK
 62
     0
100
AcDbLine
 10
4.883271
 20
7.038016
 30
0.0
 11
4.883271
 21
6.875516
 31
0.0
  0
SOLID
  5
30C
100
AcDbEntity
  8
0
  6
BYBLOCK
 62
     0
100
AcDbTrace
 10
4.858271
 20
6.213016
 30
0.0
 11
4.908271
 21
6.213016
 31
0.0
 12
4.883271
 22
6.063016
 32
0.0
 13
4.883271
 23
6.063016
 33
0.0
  0
SOLID
  5
30D
100
AcDbEntity
  8
0
  6
BYBLOCK
 62
     0
100
AcDbTrace
 10
4.858271
 20
7.038016
 30
0.0
 11
4.908271
 21
7.038016
 31
0.0
 12
4.883271
 22
7.188016
 32
0.0
 13
4.883271
 23
7.188016
 33
0.0
  0
MTEXT
  5
30E
100
AcDbEntity
  8
0
  6
BYBLOCK
 62
     0
100
AcDbMText
 10
4.883271
 20
6.625516
 30
0.0
 40
0.12
 41
0.0
 71
     5
 72
     1
  1
\A1;1.125\PTYP.
  0
POINT
  5
30F
100
AcDbEntity
  8
DEFPOINTS
  6
BYBLOCK
 62
     0
100
AcDbPoint
 10
4.672837
 20
6.063016
 30
0.0
  0
POINT
  5
310
100
AcDbEntity
  8
DEFPOINTS
  6
BYBLOCK
 62
     0
100
AcDbPoint
 10
4.672837
 20
7.188016
 30
0.0
  0
POINT
  5
311
100
AcDbEntity
  8
DEFPOINTS
  6
BYBLOCK
 62
     0
100
AcDbPoint
 10
4.883271
 20
7.188016
 30
0.0
  0
ENDBLK
  5
312
100
AcDbEntity
  8
0
100
AcDbBlockEnd
  0
BLOCK
  5
32D
100
AcDbEntity
  8
0
100
AcDbBlockBegin
  2
*D12
 70
     1
 10
0.0
 20
0.0
 30
0.0
  3
*D12
  1

  0
LINE
  5
32E
100
AcDbEntity
  8
0
  6
BYBLOCK
 62
     0
100
AcDbLine
 10
3.322705
 20
7.880472
 30
0.0
 11
3.322705
 21
8.326004
 31
0.0
  0
LINE
  5
32F
100
AcDbEntity
  8
0
  6
BYBLOCK
 62
     0
100
AcDbLine
 10
4.010205
 20
7.747667
 30
0.0
 11
4.010205
 21
8.326004
 31
0.0
  0
LINE
  5
330
100
AcDbEntity
  8
0
  6
BYBLOCK
 62
     0
100
AcDbLine
 10
3.472705
 20
8.146004
 30
0.0
 11
3.860205
 21
8.146004
 31
0.0
  0
LINE
  5
331
100
AcDbEntity
  8
0
  6
BYBLOCK
 62
     0
100
AcDbLine
 10
4.010205
 20
8.146004
 30
0.0
 11
4.625483
 21
8.146004
 31
0.0
  0
SOLID
  5
332
100
AcDbEntity
  8
0
  6
BYBLOCK
 62
     0
100
AcDbTrace
 10
3.472705
 20
8.171004
 30
0.0
 11
3.472705
 21
8.121004
 31
0.0
 12
3.322705
 22
8.146004
 32
0.0
 13
3.322705
 23
8.146004
 33
0.0
  0
SOLID
  5
333
100
AcDbEntity
  8
0
  6
BYBLOCK
 62
     0
100
AcDbTrace
 10
3.860205
 20
8.171004
 30
0.0
 11
3.860205
 21
8.121004
 31
0.0
 12
4.010205
 22
8.146004
 32
0.0
 13
4.010205
 23
8.146004
 33
0.0
  0
MTEXT
  5
334
100
AcDbEntity
  8
0
  6
BYBLOCK
 62
     0
100
AcDbMText
 10
4.895483
 20
8.146004
 30
0.0
 40
0.12
 41
0.0
 71
     5
 72
     1
  1
\A1;.687\PTYP.
  0
POINT
  5
335
100
AcDbEntity
  8
DEFPOINTS
  6
BYBLOCK
 62
     0
100
AcDbPoint
 10
3.322705
 20
7.817972
 30
0.0
  0
POINT
  5
336
100
AcDbEntity
  8
DEFPOINTS
  6
BYBLOCK
 62
     0
100
AcDbPoint
 10
4.010205
 20
7.685167
 30
0.0
  0
POINT
  5
337
100
AcDbEntity
  8
DEFPOINTS
  6
BYBLOCK
 62
     0
100
AcDbPoint
 10
4.010205
 20
8.146004
 30
0.0
  0
ENDBLK
  5
338
100
AcDbEntity
  8
0
100
AcDbBlockEnd
  0
BLOCK
  5
347
100
AcDbEntity
  8
0
100
AcDbBlockBegin
  2
*D13
 70
     1
 10
0.0
 20
0.0
 30
0.0
  3
*D13
  1

  0
LINE
  5
348
100
AcDbEntity
  8
0
  6
BYBLOCK
 62
     0
100
AcDbLine
 10
4.385205
 20
7.625516
 30
0.0
 11
4.385205
 21
8.814068
 31
0.0
  0
LINE
  5
349
100
AcDbEntity
  8
0
  6
BYBLOCK
 62
     0
100
AcDbLine
 10
3.322705
 20
7.880472
 30
0.0
 11
3.322705
 21
8.814068
 31
0.0
  0
LINE
  5
34A
100
AcDbEntity
  8
0
  6
BYBLOCK
 62
     0
100
AcDbLine
 10
4.535205
 20
8.634068
 30
0.0
 11
4.685205
 21
8.634068
 31
0.0
  0
LINE
  5
34B
100
AcDbEntity
  8
0
  6
BYBLOCK
 62
     0
100
AcDbLine
 10
3.172705
 20
8.634068
 30
0.0
 11
3.022705
 21
8.634068
 31
0.0
  0
SOLID
  5
34C
100
AcDbEntity
  8
0
  6
BYBLOCK
 62
     0
100
AcDbTrace
 10
4.535205
 20
8.659068
 30
0.0
 11
4.535205
 21
8.609068
 31
0.0
 12
4.385205
 22
8.634068
 32
0.0
 13
4.385205
 23
8.634068
 33
0.0
  0
SOLID
  5
34D
100
AcDbEntity
  8
0
  6
BYBLOCK
 62
     0
100
AcDbTrace
 10
3.172705
 20
8.659068
 30
0.0
 11
3.172705
 21
8.609068
 31
0.0
 12
3.322705
 22
8.634068
 32
0.0
 13
3.322705
 23
8.634068
 33
0.0
  0
MTEXT
  5
34E
100
AcDbEntity
  8
0
  6
BYBLOCK
 62
     0
100
AcDbMText
 10
3.853955
 20
8.634068
 30
0.0
 40
0.12
 41
0.0
 71
     5
 72
     1
  1
\A1;1.063\PTYP.
  0
POINT
  5
34F
100
AcDbEntity
  8
DEFPOINTS
  6
BYBLOCK
 62
     0
100
AcDbPoint
 10
4.385205
 20
7.563016
 30
0.0
  0
POINT
  5
350
100
AcDbEntity
  8
DEFPOINTS
  6
BYBLOCK
 62
     0
100
AcDbPoint
 10
3.322705
 20
7.817972
 30
0.0
  0
POINT
  5
351
100
AcDbEntity
  8
DEFPOINTS
  6
BYBLOCK
 62
     0
100
AcDbPoint
 10
3.322705
 20
8.634068
 30
0.0
  0
ENDBLK
  5
352
100
AcDbEntity
  8
0
100
AcDbBlockEnd
  0
BLOCK
  5
354
100
AcDbEntity
  8
0
100
AcDbBlockBegin
  2
*D14
 70
     1
 10
0.0
 20
0.0
 30
0.0
  3
*D14
  1

  0
LINE
  5
355
100
AcDbEntity
  8
0
  6
BYBLOCK
 62
     0
100
AcDbLine
 10
4.385205
 20
7.625516
 30
0.0
 11
4.385205
 21
9.476963
 31
0.0
  0
LINE
  5
356
100
AcDbEntity
  8
0
  6
BYBLOCK
 62
     0
100
AcDbLine
 10
2.260205
 20
7.625516
 30
0.0
 11
2.260205
 21
9.476963
 31
0.0
  0
LINE
  5
357
100
AcDbEntity
  8
0
  6
BYBLOCK
 62
     0
100
AcDbLine
 10
4.235205
 20
9.296963
 30
0.0
 11
3.652705
 21
9.296963
 31
0.0
  0
LINE
  5
358
100
AcDbEntity
  8
0
  6
BYBLOCK
 62
     0
100
AcDbLine
 10
2.410205
 20
9.296963
 30
0.0
 11
2.992705
 21
9.296963
 31
0.0
  0
SOLID
  5
359
100
AcDbEntity
  8
0
  6
BYBLOCK
 62
     0
100
AcDbTrace
 10
4.235205
 20
9.321963
 30
0.0
 11
4.235205
 21
9.271963
 31
0.0
 12
4.385205
 22
9.296963
 32
0.0
 13
4.385205
 23
9.296963
 33
0.0
  0
SOLID
  5
35A
100
AcDbEntity
  8
0
  6
BYBLOCK
 62
     0
100
AcDbTrace
 10
2.410205
 20
9.321963
 30
0.0
 11
2.410205
 21
9.271963
 31
0.0
 12
2.260205
 22
9.296963
 32
0.0
 13
2.260205
 23
9.296963
 33
0.0
  0
MTEXT
  5
35B
100
AcDbEntity
  8
0
  6
BYBLOCK
 62
     0
100
AcDbMText
 10
3.322705
 20
9.296963
 30
0.0
 40
0.12
 41
0.0
 71
     5
 72
     1
  1
\A1;2.125
  0
POINT
  5
35C
100
AcDbEntity
  8
DEFPOINTS
  6
BYBLOCK
 62
     0
100
AcDbPoint
 10
4.385205
 20
7.563016
 30
0.0
  0
POINT
  5
35D
100
AcDbEntity
  8
DEFPOINTS
  6
BYBLOCK
 62
     0
100
AcDbPoint
 10
2.260205
 20
7.563016
 30
0.0
  0
POINT
  5
35E
100
AcDbEntity
  8
DEFPOINTS
  6
BYBLOCK
 62
     0
100
AcDbPoint
 10
2.260205
 20
9.296963
 30
0.0
  0
ENDBLK
  5
35F
100
AcDbEntity
  8
0
100
AcDbBlockEnd
  0
BLOCK
  5
370
100
AcDbEntity
  8
0
100
AcDbBlockBegin
  2
*D15
 70
     1
 10
0.0
 20
0.0
 30
0.0
  3
*D15
  1

  0
LINE
  5
371
100
AcDbEntity
  8
0
  6
BYBLOCK
 62
     0
100
AcDbLine
 10
2.260205
 20
2.813016
 30
0.0
 11
1.655953
 21
2.813016
 31
0.0
  0
LINE
  5
372
100
AcDbEntity
  8
0
  6
BYBLOCK
 62
     0
100
AcDbLine
 10
1.958683
 20
6.063016
 30
0.0
 11
1.655953
 21
6.063016
 31
0.0
  0
LINE
  5
373
100
AcDbEntity
  8
0
  6
BYBLOCK
 62
     0
100
AcDbLine
 10
1.835953
 20
2.963016
 30
0.0
 11
1.835953
 21
4.288016
 31
0.0
  0
LINE
  5
374
100
AcDbEntity
  8
0
  6
BYBLOCK
 62
     0
100
AcDbLine
 10
1.835953
 20
5.913016
 30
0.0
 11
1.835953
 21
4.588016
 31
0.0
  0
SOLID
  5
375
100
AcDbEntity
  8
0
  6
BYBLOCK
 62
     0
100
AcDbTrace
 10
1.810953
 20
2.963016
 30
0.0
 11
1.860953
 21
2.963016
 31
0.0
 12
1.835953
 22
2.813016
 32
0.0
 13
1.835953
 23
2.813016
 33
0.0
  0
SOLID
  5
376
100
AcDbEntity
  8
0
  6
BYBLOCK
 62
     0
100
AcDbTrace
 10
1.810953
 20
5.913016
 30
0.0
 11
1.860953
 21
5.913016
 31
0.0
 12
1.835953
 22
6.063016
 32
0.0
 13
1.835953
 23
6.063016
 33
0.0
  0
MTEXT
  5
377
100
AcDbEntity
  8
0
  6
BYBLOCK
 62
     0
100
AcDbMText
 10
1.835953
 20
4.438016
 30
0.0
 40
0.12
 41
0.0
 71
     5
 72
     1
  1
\A1;3.250
  0
POINT
  5
378
100
AcDbEntity
  8
DEFPOINTS
  6
BYBLOCK
 62
     0
100
AcDbPoint
 10
2.322705
 20
2.813016
 30
0.0
  0
POINT
  5
379
100
AcDbEntity
  8
DEFPOINTS
  6
BYBLOCK
 62
     0
100
AcDbPoint
 10
2.021183
 20
6.063016
 30
0.0
  0
POINT
  5
37A
100
AcDbEntity
  8
DEFPOINTS
  6
BYBLOCK
 62
     0
100
AcDbPoint
 10
1.835953
 20
6.063016
 30
0.0
  0
ENDBLK
  5
37B
100
AcDbEntity
  8
0
100
AcDbBlockEnd
  0
BLOCK
  5
397
100
AcDbEntity
  8
0
100
AcDbBlockBegin
  2
*D16
 70
     1
 10
0.0
 20
0.0
 30
0.0
  3
*D16
  1

  0
LINE
  5
398
100
AcDbEntity
  8
0
  6
BYBLOCK
 62
     0
100
AcDbLine
 10
2.977705
 20
1.313016
 30
0.0
 11
1.087019
 21
1.313016
 31
0.0
  0
LINE
  5
399
100
AcDbEntity
  8
0
  6
BYBLOCK
 62
     0
100
AcDbLine
 10
2.197705
 20
7.563016
 30
0.0
 11
1.087019
 21
7.563016
 31
0.0
  0
LINE
  5
39A
100
AcDbEntity
  8
0
  6
BYBLOCK
 62
     0
100
AcDbLine
 10
1.267019
 20
1.463016
 30
0.0
 11
1.267019
 21
5.201279
 31
0.0
  0
LINE
  5
39B
100
AcDbEntity
  8
0
  6
BYBLOCK
 62
     0
100
AcDbLine
 10
1.267019
 20
7.413016
 30
0.0
 11
1.267019
 21
5.501279
 31
0.0
  0
SOLID
  5
39C
100
AcDbEntity
  8
0
  6
BYBLOCK
 62
     0
100
AcDbTrace
 10
1.242019
 20
1.463016
 30
0.0
 11
1.292019
 21
1.463016
 31
0.0
 12
1.267019
 22
1.313016
 32
0.0
 13
1.267019
 23
1.313016
 33
0.0
  0
SOLID
  5
39D
100
AcDbEntity
  8
0
  6
BYBLOCK
 62
     0
100
AcDbTrace
 10
1.242019
 20
7.413016
 30
0.0
 11
1.292019
 21
7.413016
 31
0.0
 12
1.267019
 22
7.563016
 32
0.0
 13
1.267019
 23
7.563016
 33
0.0
  0
MTEXT
  5
39E
100
AcDbEntity
  8
0
  6
BYBLOCK
 62
     0
100
AcDbMText
 10
1.267019
 20
5.351279
 30
0.0
 40
0.12
 41
0.0
 71
     5
 72
     1
  1
\A1;6.25
  0
POINT
  5
39F
100
AcDbEntity
  8
DEFPOINTS
  6
BYBLOCK
 62
     0
100
AcDbPoint
 10
3.040205
 20
1.313016
 30
0.0
  0
POINT
  5
3A0
100
AcDbEntity
  8
DEFPOINTS
  6
BYBLOCK
 62
     0
100
AcDbPoint
 10
2.260205
 20
7.563016
 30
0.0
  0
POINT
  5
3A1
100
AcDbEntity
  8
DEFPOINTS
  6
BYBLOCK
 62
     0
100
AcDbPoint
 10
1.267019
 20
7.563016
 30
0.0
  0
ENDBLK
  5
3A2
100
AcDbEntity
  8
0
100
AcDbBlockEnd
  0
BLOCK
  5
41B
100
AcDbEntity
  8
0
100
AcDbBlockBegin
  2
TITLE_BLOCK
 70
     0
 10
0.0
 20
0.0
 30
0.0
  3
TITLE_BLOCK
  1

  0
TEXT
  5
40D
100
AcDbEntity
  8
DIMS_TEXT
100
AcDbText
 10
-2.625251
 20
-1.013129
 30
0.0
 40
0.2
  1
HAR121   135818(C1)/135817(C2)   1:1
 41
0.7
100
AcDbText
  0
TEXT
  5
40E
100
AcDbEntity
  8
DIMS_TEXT
100
AcDbText
 10
-2.687755
 20
-0.107889
 30
0.0
 40
0.15
  1
Tel. (508) 278-2422     Fax (508) 278-7863
 41
0.9
100
AcDbText
  0
TEXT
  5
40F
100
AcDbEntity
  8
DIMS_TEXT
100
AcDbText
 10
-2.413383
 20
0.524379
 30
0.0
 40
0.2
  1
Two Way Right Angle Gear Drive
 41
0.9
100
AcDbText
  0
TEXT
  5
410
100
AcDbEntity
  8
DIMS_TEXT
100
AcDbText
 10
-1.826671
 20
0.987066
 30
0.0
 40
0.3
  1
 MITRPAK
 41
1.5
100
AcDbText
  0
LINE
  5
411
100
AcDbEntity
  8
DIMS_TEXT
100
AcDbLine
 10
-2.723037
 20
-0.533096
 30
0.0
 11
2.500333
 21
-0.533096
 31
0.0
  0
LINE
  5
412
100
AcDbEntity
  8
DIMS_TEXT
100
AcDbLine
 10
-2.723037
 20
-0.199514
 30
0.0
 11
2.500333
 21
-0.199514
 31
0.0
  0
LINE
  5
413
100
AcDbEntity
  8
DIMS_TEXT
100
AcDbLine
 10
-2.723037
 20
0.125931
 30
0.0
 11
2.500333
 21
0.125931
 31
0.0
  0
LINE
  5
414
100
AcDbEntity
  8
DIMS_TEXT
100
AcDbLine
 10
-2.723037
 20
0.451377
 30
0.0
 11
2.500333
 21
0.451377
 31
0.0
  0
LINE
  5
415
100
AcDbEntity
  8
DIMS_TEXT
100
AcDbLine
 10
-2.723037
 20
0.874457
 30
0.0
 11
2.500333
 21
0.874457
 31
0.0
  0
TEXT
  5
416
100
AcDbEntity
  8
DIMS_TEXT
100
AcDbText
 10
-2.6334
 20
-0.468007
 30
0.0
 40
0.2
  1
MODEL   PART NUMBER  RATIO
100
AcDbText
  0
LWPOLYLINE
  5
417
100
AcDbEntity
  8
DIMS_TEXT
100
AcDbPolyline
 90
        4
 70
     1
 43
0.0
 10
-2.723037
 20
1.39517
 10
2.500333
 20
1.39517
 10
2.500333
 20
-1.143307
 10
-2.723037
 20
-1.143307
  0
TEXT
  5
418
100
AcDbEntity
  8
DIMS_TEXT
100
AcDbText
 10
-2.687755
 20
0.215921
 30
0.0
 40
0.15
  1
Uxbridge, MA 01569              U.S.A.
100
AcDbText
  0
LINE
  5
419
100
AcDbEntity
  8
DIMS_TEXT
100
AcDbLine
 10
-1.394785
 20
-0.199514
 30
0.0
 11
-1.394785
 21
-1.143307
 31
0.0
  0
LINE
  5
41A
100
AcDbEntity
  8
DIMS_TEXT
100
AcDbLine
 10
1.294313
 20
-0.199514
 30
0.0
 11
1.294313
 21
-1.143307
 31
0.0
  0
ENDBLK
  5
41C
100
AcDbEntity
  8
0
100
AcDbBlockEnd
  0
ENDSEC
  0
SECTION
  2
ENTITIES
  0
LINE
  5
B2
100
AcDbEntity
  8
CTR_LINES
100
AcDbLine
 10
11.873598
 20
4.938016
 30
0.0
 11
12.455841
 21
4.938016
 31
0.0
  0
LINE
  5
B3
100
AcDbEntity
  8
CTR_LINES
100
AcDbLine
 10
8.69978
 20
7.188016
 30
0.0
 11
11.873598
 21
7.188016
 31
0.0
  0
LINE
  5
B4
100
AcDbEntity
  8
CTR_LINES
100
AcDbLine
 10
7.215654
 20
6.063016
 30
0.0
 11
14.909579
 21
6.063016
 31
0.0
  0
LINE
  5
B6
100
AcDbEntity
  8
0
100
AcDbLine
 10
11.555414
 20
6.563016
 30
0.0
 11
12.743414
 21
6.563016
 31
0.0
  0
ARC
  5
B7
100
AcDbEntity
  8
0
100
AcDbCircle
 10
12.677426
 20
5.438016
 30
0.0
 40
0.125
100
AcDbArc
 50
90.0
 51
180.0
  0
LINE
  5
B8
100
AcDbEntity
  8
0
100
AcDbLine
 10
11.551429
 20
7.000016
 30
0.0
 11
12.743414
 21
7.000016
 31
0.0
  0
ARC
  5
B9
100
AcDbEntity
  8
0
100
AcDbCircle
 10
12.676429
 20
5.001016
 30
0.0
 40
0.125
100
AcDbArc
 50
90.0
 51
187.238508
  0
LINE
  5
BC
100
AcDbEntity
  8
CTR_LINES
100
AcDbLine
 10
4.010205
 20
6.864055
 30
0.0
 11
4.010205
 21
7.685167
 31
0.0
  0
CIRCLE
  5
BD
100
AcDbEntity
  8
0
100
AcDbCircle
 10
3.322705
 20
6.063016
 30
0.0
 40
0.689
  0
LINE
  5
BE
100
AcDbEntity
  8
0
100
AcDbLine
 10
2.322705
 20
7.407016
 30
0.0
 11
2.322705
 21
4.719016
 31
0.0
  0
LINE
  5
BF
100
AcDbEntity
  8
0
100
AcDbLine
 10
4.322705
 20
7.407016
 30
0.0
 11
4.322705
 21
4.719016
 31
0.0
  0
LINE
  5
C0
100
AcDbEntity
  8
CTR_LINES
100
AcDbLine
 10
3.322705
 20
1.182028
 30
0.0
 11
3.322705
 21
7.817972
 31
0.0
  0
LINE
  5
C4
100
AcDbEntity
  8
CTR_LINES
100
AcDbLine
 10
12.180414
 20
7.090905
 30
0.0
 11
12.180414
 21
4.707373
 31
0.0
  0
LINE
  5
C5
100
AcDbEntity
  8
CTR_LINES
100
AcDbLine
 10
11.055414
 20
7.720932
 30
0.0
 11
11.055414
 21
1.099078
 31
0.0
  0
LINE
  5
C6
100
AcDbEntity
  8
0
100
AcDbLine
 10
8.930414
 20
7.563016
 30
0.0
 11
8.930414
 21
4.563016
 31
0.0
  0
LINE
  5
C7
100
AcDbEntity
  8
0
100
AcDbLine
 10
3.072705
 20
3.187016
 30
0.0
 11
3.072705
 21
4.501016
 31
0.0
  0
LINE
  5
C8
100
AcDbEntity
  8
0
100
AcDbLine
 10
3.572705
 20
3.187016
 30
0.0
 11
3.572705
 21
4.501016
 31
0.0
  0
LINE
  5
C9
100
AcDbEntity
  8
0
100
AcDbLine
 10
3.010705
 20
3.125016
 30
0.0
 11
3.634705
 21
3.125016
 31
0.0
  0
ARC
  5
CA
100
AcDbEntity
  8
0
100
AcDbCircle
 10
3.010705
 20
3.187016
 30
0.0
 40
0.062
100
AcDbArc
 50
270.0
 51
0.0
  0
LINE
  5
CB
100
AcDbEntity
  8
0
100
AcDbLine
 10
2.322705
 20
2.813016
 30
0.0
 11
4.322705
 21
2.813016
 31
0.0
  0
LINE
  5
CC
100
AcDbEntity
  8
0
100
AcDbLine
 10
2.322705
 20
2.813016
 30
0.0
 11
2.322705
 21
3.063016
 31
0.0
  0
LINE
  5
CD
100
AcDbEntity
  8
0
100
AcDbLine
 10
3.010705
 20
3.125016
 30
0.0
 11
2.384705
 21
3.125016
 31
0.0
  0
ARC
  5
CE
100
AcDbEntity
  8
0
100
AcDbCircle
 10
2.384705
 20
3.063016
 30
0.0
 40
0.062
100
AcDbArc
 50
90.0
 51
180.0
  0
LINE
  5
CF
100
AcDbEntity
  8
0
100
AcDbLine
 10
4.260705
 20
3.125016
 30
0.0
 11
3.634705
 21
3.125016
 31
0.0
  0
ARC
  5
D0
100
AcDbEntity
  8
0
100
AcDbCircle
 10
3.634705
 20
3.187016
 30
0.0
 40
0.062
100
AcDbArc
 50
180.0
 51
270.0
  0
LINE
  5
D1
100
AcDbEntity
  8
0
100
AcDbLine
 10
4.322705
 20
2.813016
 30
0.0
 11
4.322705
 21
3.063016
 31
0.0
  0
ARC
  5
D2
100
AcDbEntity
  8
0
100
AcDbCircle
 10
4.260705
 20
3.063016
 30
0.0
 40
0.062
100
AcDbArc
 50
0.0
 51
90.0
  0
LINE
  5
D4
100
AcDbEntity
  8
0
100
AcDbLine
 10
3.010705
 20
4.563016
 30
0.0
 11
3.634705
 21
4.563016
 31
0.0
  0
ARC
  5
D5
100
AcDbEntity
  8
0
100
AcDbCircle
 10
3.010705
 20
4.501016
 30
0.0
 40
0.062
100
AcDbArc
 50
0.0
 51
90.0
  0
CIRCLE
  5
D6
100
AcDbEntity
  8
0
100
AcDbCircle
 10
2.635205
 20
4.938016
 30
0.0
 40
0.1325
  0
LINE
  5
D7
100
AcDbEntity
  8
0
100
AcDbLine
 10
2.260205
 20
4.563016
 30
0.0
 11
2.260205
 21
5.855674
 31
0.0
  0
ARC
  5
D8
100
AcDbEntity
  8
0
100
AcDbCircle
 10
2.478705
 20
4.719016
 30
0.0
 40
0.156
100
AcDbArc
 50
180.0
 51
270.0
  0
LINE
  5
D9
100
AcDbEntity
  8
0
100
AcDbLine
 10
2.260205
 20
4.563016
 30
0.0
 11
3.010705
 21
4.563016
 31
0.0
  0
LINE
  5
DB
100
AcDbEntity
  8
0
100
AcDbLine
 10
2.260205
 20
5.314487
 30
0.0
 11
2.260705
 21
5.314487
 31
0.0
  0
CIRCLE
  5
DC
100
AcDbEntity
  8
0
100
AcDbCircle
 10
4.010205
 20
4.938016
 30
0.0
 40
0.1325
  0
LINE
  5
DD
100
AcDbEntity
  8
0
100
AcDbLine
 10
4.385205
 20
4.563016
 30
0.0
 11
4.385205
 21
5.314487
 31
0.0
  0
LINE
  5
DE
100
AcDbEntity
  8
0
100
AcDbLine
 10
4.385205
 20
4.563016
 30
0.0
 11
4.385205
 21
5.314487
 31
0.0
  0
LINE
  5
DF
100
AcDbEntity
  8
0
100
AcDbLine
 10
4.385205
 20
4.563016
 30
0.0
 11
4.385205
 21
5.314487
 31
0.0
  0
LINE
  5
E0
100
AcDbEntity
  8
0
100
AcDbLine
 10
3.634705
 20
4.563016
 30
0.0
 11
4.385205
 21
4.563016
 31
0.0
  0
ARC
  5
E1
100
AcDbEntity
  8
0
100
AcDbCircle
 10
3.634705
 20
4.501016
 30
0.0
 40
0.062
100
AcDbArc
 50
90.0
 51
180.0
  0
ARC
  5
E2
100
AcDbEntity
  8
0
100
AcDbCircle
 10
4.166705
 20
4.719016
 30
0.0
 40
0.156
100
AcDbArc
 50
270.0
 51
0.0
  0
LINE
  5
E5
100
AcDbEntity
  8
0
100
AcDbLine
 10
8.930414
 20
4.563016
 30
0.0
 11
9.180414
 21
4.563016
 31
0.0
  0
LINE
  5
E6
100
AcDbEntity
  8
0
100
AcDbLine
 10
10.555414
 20
4.438016
 30
0.0
 11
10.555414
 21
3.250016
 31
0.0
  0
LINE
  5
E7
100
AcDbEntity
  8
0
100
AcDbLine
 10
11.555414
 20
4.438016
 30
0.0
 11
11.555414
 21
3.250016
 31
0.0
  0
LINE
  5
E8
100
AcDbEntity
  8
0
100
AcDbLine
 10
10.118414
 20
4.442001
 30
0.0
 11
10.118414
 21
3.250016
 31
0.0
  0
LINE
  5
E9
100
AcDbEntity
  8
0
100
AcDbLine
 10
11.992414
 20
4.442001
 30
0.0
 11
11.992414
 21
3.250016
 31
0.0
  0
LINE
  5
EA
100
AcDbEntity
  8
0
100
AcDbLine
 10
9.555414
 20
2.813016
 30
0.0
 11
12.555414
 21
2.813016
 31
0.0
  0
LINE
  5
EB
100
AcDbEntity
  8
0
100
AcDbLine
 10
10.430414
 20
3.125016
 30
0.0
 11
9.617414
 21
3.125016
 31
0.0
  0
ARC
  5
EC
100
AcDbEntity
  8
0
100
AcDbCircle
 10
9.993414
 20
3.250016
 30
0.0
 40
0.125
100
AcDbArc
 50
270.0
 51
0.0
  0
LINE
  5
ED
100
AcDbEntity
  8
0
100
AcDbLine
 10
9.555414
 20
3.063016
 30
0.0
 11
9.555414
 21
2.813016
 31
0.0
  0
ARC
  5
EE
100
AcDbEntity
  8
0
100
AcDbCircle
 10
9.617414
 20
3.063016
 30
0.0
 40
0.062
100
AcDbArc
 50
90.0
 51
180.0
  0
ARC
  5
EF
100
AcDbEntity
  8
0
100
AcDbCircle
 10
10.430414
 20
3.250016
 30
0.0
 40
0.125
100
AcDbArc
 50
270.0
 51
0.0
  0
LINE
  5
F0
100
AcDbEntity
  8
0
100
AcDbLine
 10
11.680414
 20
3.125016
 30
0.0
 11
12.493414
 21
3.125016
 31
0.0
  0
ARC
  5
F1
100
AcDbEntity
  8
0
100
AcDbCircle
 10
11.680414
 20
3.250016
 30
0.0
 40
0.125
100
AcDbArc
 50
180.0
 51
270.0
  0
LINE
  5
F2
100
AcDbEntity
  8
0
100
AcDbLine
 10
12.555414
 20
3.063016
 30
0.0
 11
12.555414
 21
2.813016
 31
0.0
  0
ARC
  5
F3
100
AcDbEntity
  8
0
100
AcDbCircle
 10
12.117414
 20
3.250016
 30
0.0
 40
0.125
100
AcDbArc
 50
180.0
 51
270.0
  0
ARC
  5
F4
100
AcDbEntity
  8
0
100
AcDbCircle
 10
12.493414
 20
3.063016
 30
0.0
 40
0.062
100
AcDbArc
 50
0.0
 51
90.0
  0
LINE
  5
F5
100
AcDbEntity
  8
0
100
AcDbLine
 10
9.558403
 20
4.985266
 30
0.0
 11
9.558403
 21
5.438016
 31
0.0
  0
LINE
  5
F6
100
AcDbEntity
  8
0
100
AcDbLine
 10
9.242414
 20
5.001016
 30
0.0
 11
9.242414
 21
5.438016
 31
0.0
  0
ARC
  5
F7
100
AcDbEntity
  8
0
100
AcDbCircle
 10
9.367414
 20
5.001016
 30
0.0
 40
0.125
100
AcDbArc
 50
90.0
 51
180.0
  0
ARC
  5
F8
100
AcDbEntity
  8
0
100
AcDbCircle
 10
9.434399
 20
5.001016
 30
0.0
 40
0.125
100
AcDbArc
 50
352.761492
 51
90.0
  0
CIRCLE
  5
F9
100
AcDbEntity
  8
0
100
AcDbCircle
 10
9.930414
 20
4.938016
 30
0.0
 40
0.1325
  0
CIRCLE
  5
FA
100
AcDbEntity
  8
0
100
AcDbCircle
 10
9.930414
 20
4.938016
 30
0.0
 40
0.375
  0
LINE
  5
FB
100
AcDbEntity
  8
0
100
AcDbLine
 10
10.430414
 20
4.563016
 30
0.0
 11
9.930414
 21
4.563016
 31
0.0
  0
ARC
  5
FC
100
AcDbEntity
  8
0
100
AcDbCircle
 10
9.993414
 20
4.442001
 30
0.0
 40
0.125
100
AcDbArc
 50
0.0
 51
97.238508
  0
LINE
  5
FD
100
AcDbEntity
  8
0
100
AcDbLine
 10
9.242414
 20
4.625016
 30
0.0
 11
9.242414
 21
5.001016
 31
0.0
  0
ARC
  5
FE
100
AcDbEntity
  8
0
100
AcDbCircle
 10
9.180414
 20
4.625016
 30
0.0
 40
0.062
100
AcDbArc
 50
270.0
 51
0.0
  0
ARC
  5
FF
100
AcDbEntity
  8
0
100
AcDbCircle
 10
10.430414
 20
4.438016
 30
0.0
 40
0.125
100
AcDbArc
 50
0.0
 51
90.0
  0
ARC
  5
100
100
AcDbEntity
  8
0
100
AcDbCircle
 10
9.433403
 20
5.438016
 30
0.0
 40
0.125
100
AcDbArc
 50
0.0
 51
90.0
  0
ARC
  5
101
100
AcDbEntity
  8
0
100
AcDbCircle
 10
9.367414
 20
5.438016
 30
0.0
 40
0.125
100
AcDbArc
 50
90.0
 51
180.0
  0
LINE
  5
102
100
AcDbEntity
  8
0
100
AcDbLine
 10
9.367414
 20
5.126016
 30
0.0
 11
9.434399
 21
5.126016
 31
0.0
  0
LINE
  5
103
100
AcDbEntity
  8
0
100
AcDbLine
 10
9.367414
 20
5.563016
 30
0.0
 11
9.433403
 21
5.563016
 31
0.0
  0
LINE
  5
105
100
AcDbEntity
  8
0
100
AcDbLine
 10
12.552426
 20
4.985266
 30
0.0
 11
12.552426
 21
5.438016
 31
0.0
  0
CIRCLE
  5
106
100
AcDbEntity
  8
0
100
AcDbCircle
 10
12.180414
 20
4.938016
 30
0.0
 40
0.1325
  0
LINE
  5
108
100
AcDbEntity
  8
0
100
AcDbLine
 10
11.680414
 20
4.563016
 30
0.0
 11
12.180414
 21
4.563016
 31
0.0
  0
ARC
  5
109
100
AcDbEntity
  8
0
100
AcDbCircle
 10
11.680414
 20
4.438016
 30
0.0
 40
0.125
100
AcDbArc
 50
90.0
 51
180.0
  0
ARC
  5
10A
100
AcDbEntity
  8
0
100
AcDbCircle
 10
12.117414
 20
4.442001
 30
0.0
 40
0.125
100
AcDbArc
 50
82.761492
 51
180.0
  0
LINE
  5
10D
100
AcDbEntity
  8
CTR_LINES
100
AcDbLine
 10
3.706393
 20
7.188016
 30
0.0
 11
4.672837
 21
7.188016
 31
0.0
  0
LINE
  5
10E
100
AcDbEntity
  8
CTR_LINES
100
AcDbLine
 10
2.021183
 20
6.063016
 30
0.0
 11
4.672837
 21
6.063016
 31
0.0
  0
LINE
  5
10F
100
AcDbEntity
  8
0
100
AcDbLine
 10
4.385205
 20
7.563016
 30
0.0
 11
2.260205
 21
7.563016
 31
0.0
  0
LINE
  5
110
100
AcDbEntity
  8
0
100
AcDbLine
 10
2.260205
 20
6.813157
 30
0.0
 11
2.260205
 21
7.563016
 31
0.0
  0
ARC
  5
111
100
AcDbEntity
  8
0
100
AcDbCircle
 10
2.260705
 20
6.751159
 30
0.0
 40
0.062
100
AcDbArc
 50
0.0
 51
90.0
  0
LINE
  5
112
100
AcDbEntity
  8
0
100
AcDbLine
 10
2.260205
 20
6.813159
 30
0.0
 11
2.260705
 21
6.813159
 31
0.0
  0
CIRCLE
  5
113
100
AcDbEntity
  8
0
100
AcDbCircle
 10
2.635205
 20
7.188016
 30
0.0
 40
0.1325
  0
ARC
  5
114
100
AcDbEntity
  8
0
100
AcDbCircle
 10
2.478705
 20
7.407016
 30
0.0
 40
0.156
100
AcDbArc
 50
90.0
 51
180.0
  0
LINE
  5
115
100
AcDbEntity
  8
0
100
AcDbLine
 10
4.385205
 20
6.813159
 30
0.0
 11
4.385205
 21
7.563016
 31
0.0
  0
LINE
  5
116
100
AcDbEntity
  8
0
100
AcDbLine
 10
4.385205
 20
6.813159
 30
0.0
 11
4.385205
 21
7.563016
 31
0.0
  0
LINE
  5
117
100
AcDbEntity
  8
0
100
AcDbLine
 10
4.385205
 20
6.813159
 30
0.0
 11
4.385205
 21
7.563016
 31
0.0
  0
ARC
  5
118
100
AcDbEntity
  8
0
100
AcDbCircle
 10
4.384705
 20
6.751159
 30
0.0
 40
0.062
100
AcDbArc
 50
90.0
 51
180.0
  0
LINE
  5
119
100
AcDbEntity
  8
0
100
AcDbLine
 10
4.384705
 20
6.813159
 30
0.0
 11
4.385205
 21
6.813159
 31
0.0
  0
CIRCLE
  5
11A
100
AcDbEntity
  8
0
100
AcDbCircle
 10
4.010205
 20
7.188016
 30
0.0
 40
0.1325
  0
ARC
  5
11B
100
AcDbEntity
  8
0
100
AcDbCircle
 10
4.166705
 20
7.407016
 30
0.0
 40
0.156
100
AcDbArc
 50
0.0
 51
90.0
  0
LINE
  5
11C
100
AcDbEntity
  8
0
100
AcDbLine
 10
9.180414
 20
7.563016
 30
0.0
 11
8.930414
 21
7.563016
 31
0.0
  0
CIRCLE
  5
11D
100
AcDbEntity
  8
0
100
AcDbCircle
 10
11.055414
 20
7.188016
 30
0.0
 40
0.375
  0
LINE
  5
11E
100
AcDbEntity
  8
0
100
AcDbLine
 10
10.683403
 20
7.140766
 30
0.0
 11
10.683403
 21
6.688016
 31
0.0
  0
LINE
  5
11F
100
AcDbEntity
  8
0
100
AcDbLine
 10
9.242414
 20
7.125016
 30
0.0
 11
9.242414
 21
6.688016
 31
0.0
  0
LINE
  5
120
100
AcDbEntity
  8
0
100
AcDbLine
 10
9.367414
 20
6.563016
 30
0.0
 11
10.558403
 21
6.563016
 31
0.0
  0
ARC
  5
121
100
AcDbEntity
  8
0
100
AcDbCircle
 10
9.367414
 20
6.688016
 30
0.0
 40
0.125
100
AcDbArc
 50
180.0
 51
270.0
  0
ARC
  5
122
100
AcDbEntity
  8
0
100
AcDbCircle
 10
10.558403
 20
6.688016
 30
0.0
 40
0.125
100
AcDbArc
 50
270.0
 51
0.0
  0
LINE
  5
123
100
AcDbEntity
  8
0
100
AcDbLine
 10
9.367414
 20
7.000016
 30
0.0
 11
10.559399
 21
7.000016
 31
0.0
  0
LINE
  5
124
100
AcDbEntity
  8
0
100
AcDbLine
 10
9.242414
 20
7.501016
 30
0.0
 11
9.242414
 21
7.125016
 31
0.0
  0
ARC
  5
125
100
AcDbEntity
  8
0
100
AcDbCircle
 10
9.367414
 20
7.125016
 30
0.0
 40
0.125
100
AcDbArc
 50
180.0
 51
270.0
  0
ARC
  5
126
100
AcDbEntity
  8
0
100
AcDbCircle
 10
9.180414
 20
7.501016
 30
0.0
 40
0.062
100
AcDbArc
 50
0.0
 51
90.0
  0
ARC
  5
127
100
AcDbEntity
  8
0
100
AcDbCircle
 10
10.559399
 20
7.125016
 30
0.0
 40
0.125
100
AcDbArc
 50
270.0
 51
7.238508
  0
LINE
  5
128
100
AcDbEntity
  8
0
100
AcDbLine
 10
11.430414
 20
7.188016
 30
0.0
 11
11.430414
 21
6.688016
 31
0.0
  0
ARC
  5
129
100
AcDbEntity
  8
0
100
AcDbCircle
 10
11.555414
 20
6.688016
 30
0.0
 40
0.125
100
AcDbArc
 50
180.0
 51
270.0
  0
CIRCLE
  5
12A
100
AcDbEntity
  8
0
100
AcDbCircle
 10
11.055414
 20
7.188016
 30
0.0
 40
0.1325
  0
ARC
  5
12B
100
AcDbEntity
  8
0
100
AcDbCircle
 10
11.551429
 20
7.125016
 30
0.0
 40
0.125
100
AcDbArc
 50
172.761492
 51
270.0
  0
LINE
  5
12C
100
AcDbEntity
  8
0
100
AcDbLine
 10
13.180414
 20
7.563016
 30
0.0
 11
13.180414
 21
4.563016
 31
0.0
  0
LINE
  5
12D
100
AcDbEntity
  8
0
100
AcDbLine
 10
12.868414
 20
5.001016
 30
0.0
 11
12.868414
 21
5.438016
 31
0.0
  0
ARC
  5
12E
100
AcDbEntity
  8
0
100
AcDbCircle
 10
12.743414
 20
5.001016
 30
0.0
 40
0.125
100
AcDbArc
 50
0.0
 51
90.0
  0
LINE
  5
12F
100
AcDbEntity
  8
0
100
AcDbLine
 10
12.868414
 20
5.001016
 30
0.0
 11
12.868414
 21
4.625016
 31
0.0
  0
LINE
  5
130
100
AcDbEntity
  8
0
100
AcDbLine
 10
12.930414
 20
4.563016
 30
0.0
 11
13.180414
 21
4.563016
 31
0.0
  0
ARC
  5
131
100
AcDbEntity
  8
0
100
AcDbCircle
 10
12.930414
 20
4.625016
 30
0.0
 40
0.062
100
AcDbArc
 50
180.0
 51
270.0
  0
ARC
  5
132
100
AcDbEntity
  8
0
100
AcDbCircle
 10
12.743414
 20
5.438016
 30
0.0
 40
0.125
100
AcDbArc
 50
0.0
 51
90.0
  0
LINE
  5
133
100
AcDbEntity
  8
0
100
AcDbLine
 10
12.676429
 20
5.126016
 30
0.0
 11
12.743414
 21
5.126016
 31
0.0
  0
LINE
  5
134
100
AcDbEntity
  8
0
100
AcDbLine
 10
12.677426
 20
5.563016
 30
0.0
 11
12.743414
 21
5.563016
 31
0.0
  0
LINE
  5
135
100
AcDbEntity
  8
0
100
AcDbLine
 10
12.868414
 20
6.688016
 30
0.0
 11
12.868414
 21
7.125016
 31
0.0
  0
ARC
  5
136
100
AcDbEntity
  8
0
100
AcDbCircle
 10
12.743414
 20
6.688016
 30
0.0
 40
0.125
100
AcDbArc
 50
270.0
 51
0.0
  0
LINE
  5
137
100
AcDbEntity
  8
0
100
AcDbLine
 10
12.868414
 20
7.125016
 30
0.0
 11
12.868414
 21
7.501016
 31
0.0
  0
ARC
  5
138
100
AcDbEntity
  8
0
100
AcDbCircle
 10
12.743414
 20
7.125016
 30
0.0
 40
0.125
100
AcDbArc
 50
270.0
 51
0.0
  0
LINE
  5
139
100
AcDbEntity
  8
0
100
AcDbLine
 10
12.930414
 20
7.563016
 30
0.0
 11
13.180414
 21
7.563016
 31
0.0
  0
ARC
  5
13A
100
AcDbEntity
  8
0
100
AcDbCircle
 10
12.930414
 20
7.501016
 30
0.0
 40
0.062
100
AcDbArc
 50
90.0
 51
180.0
  0
CIRCLE
  5
143
100
AcDbEntity
  8
0
100
AcDbCircle
 10
3.322705
 20
6.063016
 30
0.0
 40
0.3125
  0
ARC
  5
144
100
AcDbEntity
  8
0
100
AcDbCircle
 10
3.322705
 20
6.063016
 30
0.0
 40
0.2825
100
AcDbArc
 50
19.220441
 51
340.779559
  0
CIRCLE
  5
145
100
AcDbEntity
  8
0
100
AcDbCircle
 10
3.659533
 20
6.413568
 30
0.0
 40
0.09375
  0
CIRCLE
  5
146
100
AcDbEntity
  8
0
100
AcDbCircle
 10
2.985876
 20
5.712464
 30
0.0
 40
0.09375
  0
LINE
  5
147
100
AcDbEntity
  8
0
100
AcDbLine
 10
3.635205
 20
1.343016
 30
0.0
 11
3.635205
 21
2.813016
 31
0.0
  0
LINE
  5
148
100
AcDbEntity
  8
0
100
AcDbLine
 10
3.010205
 20
1.343016
 30
0.0
 11
3.010205
 21
2.813016
 31
0.0
  0
LINE
  5
14A
100
AcDbEntity
  8
0
100
AcDbLine
 10
11.367914
 20
2.813016
 30
0.0
 11
11.367914
 21
1.343016
 31
0.0
  0
LINE
  5
14B
100
AcDbEntity
  8
0
100
AcDbLine
 10
10.742914
 20
2.813016
 30
0.0
 11
10.742914
 21
1.343016
 31
0.0
  0
LINE
  5
14C
100
AcDbEntity
  8
0
100
AcDbLine
 10
7.460414
 20
6.375516
 30
0.0
 11
8.930414
 21
6.375516
 31
0.0
  0
LINE
  5
14D
100
AcDbEntity
  8
0
100
AcDbLine
 10
7.460414
 20
5.750516
 30
0.0
 11
8.930414
 21
5.750516
 31
0.0
  0
LINE
  5
14E
100
AcDbEntity
  8
0
100
AcDbLine
 10
7.430414
 20
6.345516
 30
0.0
 11
7.430414
 21
5.780516
 31
0.0
  0
LINE
  5
14F
100
AcDbEntity
  8
0
100
AcDbLine
 10
3.040205
 20
1.313016
 30
0.0
 11
3.605205
 21
1.313016
 31
0.0
  0
LINE
  5
150
100
AcDbEntity
  8
0
100
AcDbLine
 10
14.680414
 20
6.345516
 30
0.0
 11
14.680414
 21
5.780516
 31
0.0
  0
LINE
  5
151
100
AcDbEntity
  8
0
100
AcDbLine
 10
10.772914
 20
1.313016
 30
0.0
 11
11.337914
 21
1.313016
 31
0.0
  0
LINE
  5
155
100
AcDbEntity
  8
0
100
AcDbLine
 10
13.180414
 20
5.750516
 30
0.0
 11
14.650414
 21
5.750516
 31
0.0
  0
LINE
  5
156
100
AcDbEntity
  8
0
100
AcDbLine
 10
13.180414
 20
6.375516
 30
0.0
 11
14.650414
 21
6.375516
 31
0.0
  0
LINE
  5
157
100
AcDbEntity
  8
0
100
AcDbLine
 10
11.337914
 20
1.313016
 30
0.0
 11
11.367914
 21
1.343016
 31
0.0
  0
LINE
  5
158
100
AcDbEntity
  8
0
100
AcDbLine
 10
10.772914
 20
1.313016
 30
0.0
 11
10.742914
 21
1.343016
 31
0.0
  0
LINE
  5
159
100
AcDbEntity
  8
0
100
AcDbLine
 10
10.742914
 20
1.343016
 30
0.0
 11
10.962414
 21
1.343016
 31
0.0
  0
LINE
  5
15A
100
AcDbEntity
  8
0
100
AcDbLine
 10
14.650414
 20
6.375516
 30
0.0
 11
14.680414
 21
6.345516
 31
0.0
  0
LINE
  5
15B
100
AcDbEntity
  8
0
100
AcDbLine
 10
14.650414
 20
5.750516
 30
0.0
 11
14.680414
 21
5.780516
 31
0.0
  0
LINE
  5
15C
100
AcDbEntity
  8
0
100
AcDbLine
 10
14.650414
 20
5.750516
 30
0.0
 11
14.650414
 21
5.970016
 31
0.0
  0
LINE
  5
15D
100
AcDbEntity
  8
0
100
AcDbLine
 10
7.460414
 20
6.375516
 30
0.0
 11
7.430414
 21
6.345516
 31
0.0
  0
LINE
  5
15E
100
AcDbEntity
  8
0
100
AcDbLine
 10
7.460414
 20
5.750516
 30
0.0
 11
7.430414
 21
5.780516
 31
0.0
  0
LINE
  5
15F
100
AcDbEntity
  8
0
100
AcDbLine
 10
7.460414
 20
5.750516
 30
0.0
 11
7.460414
 21
5.970016
 31
0.0
  0
LINE
  5
160
100
AcDbEntity
  8
0
100
AcDbLine
 10
3.635205
 20
1.343016
 30
0.0
 11
3.605205
 21
1.313016
 31
0.0
  0
LINE
  5
161
100
AcDbEntity
  8
0
100
AcDbLine
 10
3.040205
 20
1.313016
 30
0.0
 11
3.010205
 21
1.343016
 31
0.0
  0
LINE
  5
162
100
AcDbEntity
  8
0
100
AcDbLine
 10
3.010205
 20
1.343016
 30
0.0
 11
3.635205
 21
1.343016
 31
0.0
  0
LINE
  5
163
100
AcDbEntity
  8
0
100
AcDbLine
 10
7.430414
 20
6.156016
 30
0.0
 11
8.695414
 21
6.156016
 31
0.0
  0
LINE
  5
164
100
AcDbEntity
  8
0
100
AcDbLine
 10
7.430414
 20
5.970016
 30
0.0
 11
8.695414
 21
5.970016
 31
0.0
  0
LINE
  5
165
100
AcDbEntity
  8
0
100
AcDbLine
 10
11.148414
 20
2.578346
 30
0.0
 11
11.148414
 21
1.313016
 31
0.0
  0
LINE
  5
166
100
AcDbEntity
  8
0
100
AcDbLine
 10
10.962414
 20
2.578346
 30
0.0
 11
10.962414
 21
1.313016
 31
0.0
  0
LINE
  5
167
100
AcDbEntity
  8
0
100
AcDbLine
 10
3.524705
 20
6.156016
 30
0.0
 11
3.621046
 21
6.156016
 31
0.0
  0
LINE
  5
168
100
AcDbEntity
  8
0
100
AcDbLine
 10
3.524705
 20
5.970016
 30
0.0
 11
3.621046
 21
5.970016
 31
0.0
  0
LINE
  5
169
100
AcDbEntity
  8
HIDDEN_LINE
100
AcDbLine
 10
3.525205
 20
1.313016
 30
0.0
 11
3.525205
 21
2.313016
 31
0.0
  0
ARC
  5
16F
100
AcDbEntity
  8
HIDDEN_LINE
100
AcDbCircle
 10
3.900205
 20
2.313016
 30
0.0
 40
0.375
100
AcDbArc
 50
134.964349
 51
180.0
  0
LINE
  5
171
100
AcDbEntity
  8
0
100
AcDbLine
 10
10.962414
 20
2.578346
 30
0.0
 11
11.148414
 21
2.578346
 31
0.0
  0
LINE
  5
172
100
AcDbEntity
  8
0
100
AcDbLine
 10
11.148414
 20
1.343016
 30
0.0
 11
11.367914
 21
1.343016
 31
0.0
  0
LINE
  5
173
100
AcDbEntity
  8
0
100
AcDbLine
 10
13.415414
 20
6.156016
 30
0.0
 11
13.415414
 21
5.970016
 31
0.0
  0
LINE
  5
174
100
AcDbEntity
  8
0
100
AcDbLine
 10
8.695414
 20
6.156016
 30
0.0
 11
8.695414
 21
5.970016
 31
0.0
  0
LINE
  5
175
100
AcDbEntity
  8
0
100
AcDbLine
 10
7.460414
 20
6.156016
 30
0.0
 11
7.460414
 21
6.375516
 31
0.0
  0
LINE
  5
176
100
AcDbEntity
  8
0
100
AcDbLine
 10
13.415414
 20
6.156016
 30
0.0
 11
14.680414
 21
6.156016
 31
0.0
  0
LINE
  5
177
100
AcDbEntity
  8
0
100
AcDbLine
 10
13.415414
 20
5.970016
 30
0.0
 11
14.680414
 21
5.970016
 31
0.0
  0
LINE
  5
178
100
AcDbEntity
  8
0
100
AcDbLine
 10
14.650414
 20
6.156016
 30
0.0
 11
14.650414
 21
6.375516
 31
0.0
  0
LINE
  5
179
100
AcDbEntity
  8
0
100
AcDbLine
 10
3.524705
 20
5.970016
 30
0.0
 11
3.524705
 21
6.156016
 31
0.0
  0
DIMENSION
  5
1A1
100
AcDbEntity
  8
DIMS_TEXT
100
AcDbDimension
  2
*D1
 10
15.07253
 20
6.156016
 30
0.0
 11
15.869673
 21
6.883339
 31
0.0
 70
   160
  1
.187 X .093\PKEYWAY\PTYP.
  3
STANDARD
100
AcDbAlignedDimension
 13
14.680414
 23
5.970016
 33
0.0
 14
14.680414
 24
6.156016
 34
0.0
 50
90.0
100
AcDbRotatedDimension
1001
ACAD
1000
DSTYLE
1002
{
1070
    78
1070
     4
1070
   140
1040
0.12
1070
   271
1070
     3
1070
    41
1040
0.15
1002
}
  0
CIRCLE
  5
1C9
100
AcDbEntity
  8
0
100
AcDbCircle
 10
12.180414
 20
4.938016
 30
0.0
 40
0.375
  0
DIMENSION
  5
1E1
100
AcDbEntity
  8
DIMS_TEXT
100
AcDbDimension
  2
*D2
 10
12.104756
 20
5.046791
 30
0.0
 11
13.617237
 21
3.973154
 31
0.0
 70
   163
  1
<> THRU\PX 3
  3
STANDARD
100
AcDbDiametricDimension
 15
12.256073
 25
4.829241
 35
0.0
 40
0.0
1001
ACAD
1000
DSTYLE
1002
{
1070
    78
1070
     4
1070
   288
1070
     1
1070
   140
1040
0.12
1070
   271
1070
     3
1070
    41
1040
0.15
1002
}
  0
DIMENSION
  5
1FE
100
AcDbEntity
  8
DIMS_TEXT
100
AcDbDimension
  2
*D3
 10
13.037584
 20
2.813016
 30
0.0
 11
12.626156
 21
2.135619
 31
0.0
 70
   160
  1
.31\PTYP.
  3
STANDARD
100
AcDbAlignedDimension
 13
12.493414
 23
3.125016
 33
0.0
 14
12.555414
 24
2.813016
 34
0.0
 50
90.0
100
AcDbRotatedDimension
1001
ACAD
1000
DSTYLE
1002
{
1070
    78
1070
     4
1070
   140
1040
0.12
1070
   271
1070
     3
1070
    41
1040
0.15
1002
}
  0
DIMENSION
  5
233
100
AcDbEntity
  8
DIMS_TEXT
100
AcDbDimension
  2
*D4
 10
10.742914
 20
0.727862
 30
0.0
 11
9.926994
 21
0.727862
 31
0.0
 70
   160
  1
%%C<>\PTYP.
  3
STANDARD
100
AcDbAlignedDimension
 13
11.367914
 23
1.343016
 33
0.0
 14
10.742914
 24
1.343016
 34
0.0
100
AcDbRotatedDimension
1001
ACAD
1000
DSTYLE
1002
{
1070
    78
1070
     4
1070
   140
1040
0.12
1070
   271
1070
     3
1070
    41
1040
0.15
1002
}
  0
DIMENSION
  5
259
100
AcDbEntity
  8
DIMS_TEXT
100
AcDbDimension
  2
*D5
 10
9.104835
 20
2.813016
 30
0.0
 11
9.104835
 21
2.063016
 31
0.0
 70
    32
  1
<>\PTYP.
  3
STANDARD
100
AcDbAlignedDimension
 13
10.772914
 23
1.313016
 33
0.0
 14
9.555414
 24
2.813016
 34
0.0
 50
90.0
100
AcDbRotatedDimension
1001
ACAD
1000
DSTYLE
1002
{
1070
    78
1070
     4
1070
   140
1040
0.12
1070
   271
1070
     3
1070
    41
1040
0.15
1002
}
  0
DIMENSION
  5
273
100
AcDbEntity
  8
DIMS_TEXT
100
AcDbDimension
  2
*D6
 10
11.055414
 20
7.999021
 30
0.0
 11
9.992914
 21
7.999021
 31
0.0
 70
   160
  1
<>\PTYP.
  3
STANDARD
100
AcDbAlignedDimension
 13
8.930414
 23
7.563016
 33
0.0
 14
11.055414
 24
7.720932
 34
0.0
100
AcDbRotatedDimension
1001
ACAD
1000
DSTYLE
1002
{
1070
    78
1070
     4
1070
   140
1040
0.12
1070
   271
1070
     3
1070
    41
1040
0.15
1002
}
  0
DIMENSION
  5
28C
100
AcDbEntity
  8
DIMS_TEXT
100
AcDbDimension
  2
*D7
 10
12.180414
 20
7.999021
 30
0.0
 11
11.617914
 21
7.999021
 31
0.0
 70
    32
  1
1.125\PTYP.
  3
STANDARD
100
AcDbAlignedDimension
 13
11.055414
 23
7.720932
 33
0.0
 14
12.180414
 24
7.090905
 34
0.0
100
AcDbRotatedDimension
1001
ACAD
1000
DSTYLE
1002
{
1070
    78
1070
     4
1070
   140
1040
0.12
1070
    75
1070
     1
1070
   287
1070
     4
1070
   271
1070
     3
1070
    41
1040
0.15
1002
}
  0
DIMENSION
  5
2B1
100
AcDbEntity
  8
DIMS_TEXT
100
AcDbDimension
  2
*D8
 10
14.680414
 20
8.613675
 30
0.0
 11
11.055414
 21
8.613675
 31
0.0
 70
    32
  3
STANDARD
100
AcDbAlignedDimension
 13
7.430414
 23
6.345516
 33
0.0
 14
14.680414
 24
6.345516
 34
0.0
100
AcDbRotatedDimension
1001
ACAD
1000
DSTYLE
1002
{
1070
    78
1070
     4
1070
   140
1040
0.12
1070
   271
1070
     3
1070
    41
1040
0.15
1002
}
  0
DIMENSION
  5
2CA
100
AcDbEntity
  8
DIMS_TEXT
100
AcDbDimension
  2
*D9
 10
6.814131
 20
7.188016
 30
0.0
 11
6.814131
 21
6.625516
 31
0.0
 70
    32
  1
<>\PTYP.
  3
STANDARD
100
AcDbAlignedDimension
 13
7.215654
 23
6.063016
 33
0.0
 14
8.69978
 24
7.188016
 34
0.0
 50
90.0
100
AcDbRotatedDimension
1001
ACAD
1000
DSTYLE
1002
{
1070
    78
1070
     4
1070
   140
1040
0.12
1070
   271
1070
     3
1070
    41
1040
0.15
1002
}
  0
DIMENSION
  5
2E2
100
AcDbEntity
  8
DIMS_TEXT
100
AcDbDimension
  2
*D10
 10
3.914664
 20
5.029821
 30
0.0
 11
5.733102
 21
4.018257
 31
0.0
 70
   163
  1
<> THRU\PX 4\PTYP.
  3
STANDARD
100
AcDbDiametricDimension
 15
4.105745
 25
4.846211
 35
0.0
 40
0.0
1001
ACAD
1000
DSTYLE
1002
{
1070
    78
1070
     4
1070
   288
1070
     1
1070
   140
1040
0.12
1070
   271
1070
     3
1070
    41
1040
0.15
1002
}
  0
DIMENSION
  5
2FA
100
AcDbEntity
  8
DIMS_TEXT
100
AcDbDimension
  2
*D11
 10
4.883271
 20
7.188016
 30
0.0
 11
4.883271
 21
6.625516
 31
0.0
 70
   160
  1
<>\PTYP.
  3
STANDARD
100
AcDbAlignedDimension
 13
4.672837
 23
6.063016
 33
0.0
 14
4.672837
 24
7.188016
 34
0.0
 50
90.0
100
AcDbRotatedDimension
1001
ACAD
1000
DSTYLE
1002
{
1070
    78
1070
     4
1070
   140
1040
0.12
1070
   271
1070
     3
1070
    41
1040
0.15
1002
}
  0
DIMENSION
  5
320
100
AcDbEntity
  8
DIMS_TEXT
100
AcDbDimension
  2
*D12
 10
4.010205
 20
8.146004
 30
0.0
 11
4.895483
 21
8.146004
 31
0.0
 70
   160
  1
.687\PTYP.
  3
STANDARD
100
AcDbAlignedDimension
 13
3.322705
 23
7.817972
 33
0.0
 14
4.010205
 24
7.685167
 34
0.0
100
AcDbRotatedDimension
1001
ACAD
1000
DSTYLE
1002
{
1070
    78
1070
     4
1070
   140
1040
0.12
1070
   271
1070
     3
1070
    41
1040
0.15
1002
}
  0
DIMENSION
  5
346
100
AcDbEntity
  8
DIMS_TEXT
100
AcDbDimension
  2
*D13
 10
3.322705
 20
8.634068
 30
0.0
 11
3.853955
 21
8.634068
 31
0.0
 70
    32
  1
<>\PTYP.
  3
STANDARD
100
AcDbAlignedDimension
 13
4.385205
 23
7.563016
 33
0.0
 14
3.322705
 24
7.817972
 34
0.0
100
AcDbRotatedDimension
1001
ACAD
1000
DSTYLE
1002
{
1070
    78
1070
     4
1070
   140
1040
0.12
1070
   271
1070
     3
1070
    41
1040
0.15
1002
}
  0
DIMENSION
  5
360
100
AcDbEntity
  8
DIMS_TEXT
100
AcDbDimension
  2
*D14
 10
2.260205
 20
9.296963
 30
0.0
 11
3.322705
 21
9.296963
 31
0.0
 70
    32
  3
STANDARD
100
AcDbAlignedDimension
 13
4.385205
 23
7.563016
 33
0.0
 14
2.260205
 24
7.563016
 34
0.0
100
AcDbRotatedDimension
1001
ACAD
1000
DSTYLE
1002
{
1070
    78
1070
     4
1070
   140
1040
0.12
1070
   271
1070
     3
1070
    41
1040
0.15
1002
}
  0
DIMENSION
  5
37C
100
AcDbEntity
  8
DIMS_TEXT
100
AcDbDimension
  2
*D15
 10
1.835953
 20
6.063016
 30
0.0
 11
1.835953
 21
4.438016
 31
0.0
 70
    32
  3
STANDARD
100
AcDbAlignedDimension
 13
2.322705
 23
2.813016
 33
0.0
 14
2.021183
 24
6.063016
 34
0.0
 50
90.0
100
AcDbRotatedDimension
1001
ACAD
1000
DSTYLE
1002
{
1070
    78
1070
     4
1070
   140
1040
0.12
1070
   271
1070
     3
1070
    41
1040
0.15
1002
}
  0
DIMENSION
  5
38A
100
AcDbEntity
  8
DIMS_TEXT
100
AcDbDimension
  2
*D16
 10
1.267019
 20
7.563016
 30
0.0
 11
1.267019
 21
5.351279
 31
0.0
 70
   160
  1
6.25
  3
STANDARD
100
AcDbAlignedDimension
 13
3.040205
 23
1.313016
 33
0.0
 14
2.260205
 24
7.563016
 34
0.0
 50
90.0
100
AcDbRotatedDimension
1001
ACAD
1000
DSTYLE
1002
{
1070
    78
1070
     4
1070
   140
1040
0.12
1070
   271
1070
     3
1070
    41
1040
0.15
1002
}
  0
ARC
  5
3AF
100
AcDbEntity
  8
HIDDEN_LINE
100
AcDbCircle
 10
10.460414
 20
5.468016
 30
0.0
 40
0.375
100
AcDbArc
 50
315.0
 51
135.0
  0
CIRCLE
  5
3B0
100
AcDbEntity
  8
HIDDEN_LINE
100
AcDbCircle
 10
10.460414
 20
5.468016
 30
0.0
 40
0.1685
  0
CIRCLE
  5
3B1
100
AcDbEntity
  8
HIDDEN_LINE
100
AcDbCircle
 10
10.460414
 20
5.468016
 30
0.0
 40
0.2
  0
LINE
  5
3B2
100
AcDbEntity
  8
HIDDEN_LINE
100
AcDbLine
 10
9.665249
 20
5.203181
 30
0.0
 11
10.195249
 21
5.733181
 31
0.0
  0
LINE
  5
3B3
100
AcDbEntity
  8
HIDDEN_LINE
100
AcDbLine
 10
10.195579
 20
4.672851
 30
0.0
 11
10.725579
 21
5.202851
 31
0.0
  0
LINE
  5
3BC
100
AcDbEntity
  8
HIDDEN_LINE
100
AcDbLine
 10
3.538944
 20
7.000016
 30
0.0
 11
3.106465
 21
7.000016
 31
0.0
  0
LINE
  5
3BD
100
AcDbEntity
  8
HIDDEN_LINE
100
AcDbLine
 10
3.538944
 20
5.126016
 30
0.0
 11
3.106465
 21
5.126016
 31
0.0
  0
LINE
  5
3BE
100
AcDbEntity
  8
HIDDEN_LINE
100
AcDbLine
 10
2.384775
 20
6.599182
 30
0.0
 11
3.043535
 21
6.98302
 31
0.0
  0
LINE
  5
3BF
100
AcDbEntity
  8
HIDDEN_LINE
100
AcDbLine
 10
3.601875
 20
6.98302
 30
0.0
 11
4.260635
 21
6.599182
 31
0.0
  0
LINE
  5
3C0
100
AcDbEntity
  8
HIDDEN_LINE
100
AcDbLine
 10
4.260635
 20
5.52685
 30
0.0
 11
3.601875
 21
5.143012
 31
0.0
  0
LINE
  5
3C1
100
AcDbEntity
  8
HIDDEN_LINE
100
AcDbLine
 10
3.043535
 20
5.143012
 30
0.0
 11
2.384775
 21
5.52685
 31
0.0
  0
ARC
  5
3C2
100
AcDbEntity
  8
HIDDEN_LINE
100
AcDbCircle
 10
3.538944
 20
6.875016
 30
0.0
 40
0.125
100
AcDbArc
 50
59.772071
 51
90.0
  0
ARC
  5
3C3
100
AcDbEntity
  8
HIDDEN_LINE
100
AcDbCircle
 10
3.106465
 20
6.875016
 30
0.0
 40
0.125
100
AcDbArc
 50
90.0
 51
120.227929
  0
ARC
  5
3C4
100
AcDbEntity
  8
HIDDEN_LINE
100
AcDbCircle
 10
3.106465
 20
5.251016
 30
0.0
 40
0.125
100
AcDbArc
 50
239.772071
 51
270.0
  0
ARC
  5
3C5
100
AcDbEntity
  8
HIDDEN_LINE
100
AcDbCircle
 10
3.538944
 20
5.251016
 30
0.0
 40
0.125
100
AcDbArc
 50
270.0
 51
300.227929
  0
ARC
  5
3C6
100
AcDbEntity
  8
HIDDEN_LINE
100
AcDbCircle
 10
4.197705
 20
5.634854
 30
0.0
 40
0.125
100
AcDbArc
 50
300.227929
 51
0.0
  0
ARC
  5
3C7
100
AcDbEntity
  8
HIDDEN_LINE
100
AcDbCircle
 10
4.197705
 20
6.491178
 30
0.0
 40
0.125
100
AcDbArc
 50
0.0
 51
59.772071
  0
ARC
  5
3C8
100
AcDbEntity
  8
HIDDEN_LINE
100
AcDbCircle
 10
2.447705
 20
5.634854
 30
0.0
 40
0.125
100
AcDbArc
 50
180.0
 51
239.772071
  0
ARC
  5
3C9
100
AcDbEntity
  8
HIDDEN_LINE
100
AcDbCircle
 10
2.447705
 20
6.491178
 30
0.0
 40
0.125
100
AcDbArc
 50
120.227929
 51
180.0
  0
LEADER
  5
3CE
100
AcDbEntity
  8
DIMS_TEXT
100
AcDbLeader
  3
STANDARD
 73
     0
 40
0.52
 41
0.782857
 76
     3
 10
2.976825
 20
5.714612
 30
0.0
 10
1.967166
 20
8.457296
 30
0.0
 10
1.852716
 20
8.457296
 30
0.0
 77
   256
340
3CF
1001
ACAD
1000
DSTYLE
1002
{
1070
    78
1070
     4
1070
   140
1040
0.12
1070
   271
1070
     3
1070
    41
1040
0.15
1002
}
  0
MTEXT
  5
3CF
102
{ACAD_REACTORS
330
3CE
102
}
100
AcDbEntity
  8
DIMS_TEXT
100
AcDbMText
 10
1.762716
 20
8.457296
 30
0.0
 40
0.12
 41
0.0
 71
     6
 72
     1
  1
\A1;SPANNER\PWRENCH\PHOLES
  0
MTEXT
  5
3D1
100
AcDbEntity
  8
DIMS_TEXT
100
AcDbMText
 10
7.941287
 20
5.244595
 30
0.0
 40
0.12
 41
0.0
 71
     4
 72
     1
  1
\A1;PIPE\PPLUG
  0
LINE
  5
3D7
100
AcDbEntity
  8
0
100
AcDbLine
 10
4.322705
 20
4.563016
 30
0.0
 11
4.322705
 21
2.813016
 31
0.0
  0
LINE
  5
3D8
100
AcDbEntity
  8
0
100
AcDbLine
 10
2.322705
 20
4.563016
 30
0.0
 11
2.322705
 21
2.813016
 31
0.0
  0
LINE
  5
3DB
100
AcDbEntity
  8
0
100
AcDbLine
 10
4.384705
 20
5.314487
 30
0.0
 11
4.385205
 21
5.314487
 31
0.0
  0
LINE
  5
3DC
100
AcDbEntity
  8
0
100
AcDbLine
 10
2.260705
 20
5.855674
 30
0.0
 11
2.260205
 21
5.855674
 31
0.0
  0
ARC
  5
3DD
100
AcDbEntity
  8
0
100
AcDbCircle
 10
4.384705
 20
5.376487
 30
0.0
 40
0.062
100
AcDbArc
 50
180.0
 51
270.0
  0
ARC
  5
3DE
100
AcDbEntity
  8
0
100
AcDbCircle
 10
2.260705
 20
5.917674
 30
0.0
 40
0.062
100
AcDbArc
 50
270.0
 51
0.0
  0
LINE
  5
3E7
100
AcDbEntity
  8
HIDDEN_LINE
100
AcDbLine
 10
8.930414
 20
7.320516
 30
0.0
 11
9.242414
 21
7.320516
 31
0.0
  0
LINE
  5
3E8
100
AcDbEntity
  8
HIDDEN_LINE
100
AcDbLine
 10
8.930414
 20
7.055516
 30
0.0
 11
9.242414
 21
7.055516
 31
0.0
  0
LINE
  5
3EE
100
AcDbEntity
  8
HIDDEN_LINE
100
AcDbLine
 10
2.503205
 20
2.813016
 30
0.0
 11
2.503205
 21
3.125016
 31
0.0
  0
LINE
  5
3EF
100
AcDbEntity
  8
HIDDEN_LINE
100
AcDbLine
 10
2.768205
 20
2.813016
 30
0.0
 11
2.768205
 21
3.125016
 31
0.0
  0
LINE
  5
3F0
100
AcDbEntity
  8
HIDDEN_LINE
100
AcDbLine
 10
3.877205
 20
2.813016
 30
0.0
 11
3.877205
 21
3.125016
 31
0.0
  0
LINE
  5
3F1
100
AcDbEntity
  8
HIDDEN_LINE
100
AcDbLine
 10
4.142205
 20
2.813016
 30
0.0
 11
4.142205
 21
3.125016
 31
0.0
  0
LINE
  5
3F2
100
AcDbEntity
  8
HIDDEN_LINE
100
AcDbLine
 10
9.797914
 20
3.125016
 30
0.0
 11
9.797914
 21
2.813016
 31
0.0
  0
LINE
  5
3F3
100
AcDbEntity
  8
HIDDEN_LINE
100
AcDbLine
 10
10.062914
 20
3.125016
 30
0.0
 11
10.062914
 21
2.813016
 31
0.0
  0
LINE
  5
3F4
100
AcDbEntity
  8
HIDDEN_LINE
100
AcDbLine
 10
12.047914
 20
3.125016
 30
0.0
 11
12.047914
 21
2.813016
 31
0.0
  0
LINE
  5
3F5
100
AcDbEntity
  8
HIDDEN_LINE
100
AcDbLine
 10
12.312914
 20
3.125016
 30
0.0
 11
12.312914
 21
2.813016
 31
0.0
  0
LINE
  5
3F6
100
AcDbEntity
  8
HIDDEN_LINE
100
AcDbLine
 10
8.930414
 20
5.070516
 30
0.0
 11
9.242414
 21
5.070516
 31
0.0
  0
LINE
  5
3F7
100
AcDbEntity
  8
HIDDEN_LINE
100
AcDbLine
 10
8.930414
 20
4.805516
 30
0.0
 11
9.242414
 21
4.805516
 31
0.0
  0
LINE
  5
3F8
100
AcDbEntity
  8
HIDDEN_LINE
100
AcDbLine
 10
12.868414
 20
7.320516
 30
0.0
 11
13.180414
 21
7.320516
 31
0.0
  0
LINE
  5
3F9
100
AcDbEntity
  8
HIDDEN_LINE
100
AcDbLine
 10
12.868414
 20
7.055516
 30
0.0
 11
13.180414
 21
7.055516
 31
0.0
  0
LINE
  5
3FA
100
AcDbEntity
  8
HIDDEN_LINE
100
AcDbLine
 10
12.868414
 20
5.070516
 30
0.0
 11
13.180414
 21
5.070516
 31
0.0
  0
LINE
  5
3FB
100
AcDbEntity
  8
HIDDEN_LINE
100
AcDbLine
 10
12.868414
 20
4.805516
 30
0.0
 11
13.180414
 21
4.805516
 31
0.0
  0
LINE
  5
3FC
100
AcDbEntity
  8
HIDDEN_LINE
100
AcDbLine
 10
4.385205
 20
4.805516
 30
0.0
 11
2.260205
 21
4.805516
 31
0.0
  0
LINE
  5
3FD
100
AcDbEntity
  8
HIDDEN_LINE
100
AcDbLine
 10
4.385205
 20
5.070516
 30
0.0
 11
2.260205
 21
5.070516
 31
0.0
  0
LINE
  5
3FE
100
AcDbEntity
  8
HIDDEN_LINE
100
AcDbLine
 10
4.385205
 20
7.055516
 30
0.0
 11
2.260205
 21
7.055516
 31
0.0
  0
LINE
  5
3FF
100
AcDbEntity
  8
HIDDEN_LINE
100
AcDbLine
 10
4.385205
 20
7.320516
 30
0.0
 11
2.260205
 21
7.320516
 31
0.0
  0
LEADER
  5
406
100
AcDbEntity
  8
DIMS_TEXT
100
AcDbLeader
  3
STANDARD
 76
     2
 10
10.381075
 20
5.49726
 30
0.0
 10
8.416617
 20
5.264797
 30
0.0
 77
   256
1001
ACAD
1000
DSTYLE
1002
{
1070
    78
1070
     4
1070
   140
1040
0.12
1070
   271
1070
     3
1070
    41
1040
0.15
1002
}
  0
TEXT
  5
41E
100
AcDbEntity
  8
DIMS_TEXT
100
AcDbText
 10
12.624008
 20
-1.172183
 30
0.0
 40
0.2
  1
  C101         135628           1:1
 41
0.7
100
AcDbText
  0
TEXT
  5
41F
100
AcDbEntity
  8
DIMS_TEXT
100
AcDbText
 10
12.561504
 20
-0.266943
 30
0.0
 40
0.15
  1
Tel. (508) 278-2422     Fax (508) 278-7863
 41
0.9
100
AcDbText
  0
TEXT
  5
420
100
AcDbEntity
  8
DIMS_TEXT
100
AcDbText
 10
12.583824
 20
0.365324
 30
0.0
 40
0.18
  1
Counter Rotating Right Angle Gear Drive
 41
0.9
100
AcDbText
  0
TEXT
  5
421
100
AcDbEntity
  8
DIMS_TEXT
100
AcDbText
 10
13.422589
 20
0.828012
 30
0.0
 40
0.3
  1
 MITRPAK
 41
1.5
100
AcDbText
  0
LINE
  5
422
100
AcDbEntity
  8
DIMS_TEXT
100
AcDbLine
 10
12.526223
 20
-0.692151
 30
0.0
 11
17.749593
 21
-0.692151
 31
0.0
  0
LINE
  5
423
100
AcDbEntity
  8
DIMS_TEXT
100
AcDbLine
 10
12.526223
 20
-0.358569
 30
0.0
 11
17.749593
 21
-0.358569
 31
0.0
  0
LINE
  5
424
100
AcDbEntity
  8
DIMS_TEXT
100
AcDbLine
 10
12.526223
 20
-0.033123
 30
0.0
 11
17.749593
 21
-0.033123
 31
0.0
  0
LINE
  5
425
100
AcDbEntity
  8
DIMS_TEXT
100
AcDbLine
 10
12.526223
 20
0.292323
 30
0.0
 11
17.749593
 21
0.292323
 31
0.0
  0
LINE
  5
426
100
AcDbEntity
  8
DIMS_TEXT
100
AcDbLine
 10
12.526223
 20
0.715402
 30
0.0
 11
17.749593
 21
0.715402
 31
0.0
  0
TEXT
  5
427
100
AcDbEntity
  8
DIMS_TEXT
100
AcDbText
 10
12.61586
 20
-0.627062
 30
0.0
 40
0.2
  1
MODEL   PART NUMBER  RATIO
100
AcDbText
  0
LWPOLYLINE
  5
428
100
AcDbEntity
  8
DIMS_TEXT
100
AcDbPolyline
 90
        4
 70
     1
 43
0.0
 10
12.526223
 20
1.236115
 10
17.749593
 20
1.236115
 10
17.749593
 20
-1.302362
 10
12.526223
 20
-1.302362
  0
TEXT
  5
429
100
AcDbEntity
  8
DIMS_TEXT
100
AcDbText
 10
12.561504
 20
0.056866
 30
0.0
 40
0.15
  1
Uxbridge, MA 01569              U.S.A.
100
AcDbText
  0
LINE
  5
42A
100
AcDbEntity
  8
DIMS_TEXT
100
AcDbLine
 10
13.854475
 20
-0.358569
 30
0.0
 11
13.854475
 21
-1.302362
 31
0.0
  0
LINE
  5
42B
100
AcDbEntity
  8
DIMS_TEXT
100
AcDbLine
 10
16.543573
 20
-0.358569
 30
0.0
 11
16.543573
 21
-1.302362
 31
0.0
  0
ENDSEC
  0
SECTION
  2
OBJECTS
  0
DICTIONARY
  5
C
100
AcDbDictionary
  3
ACAD_GROUP
350
D
  3
ACAD_MLINESTYLE
350
1B
  0
DICTIONARY
  5
D
102
{ACAD_REACTORS
330
C
102
}
100
AcDbDictionary
  0
DICTIONARY
  5
1B
102
{ACAD_REACTORS
330
C
102
}
100
AcDbDictionary
  3
STANDARD
350
1C
  0
MLINESTYLE
  5
1C
102
{ACAD_REACTORS
330
1B
102
}
100
AcDbMlineStyle
  2
STANDARD
 70
     0
  3

 62
   256
 51
90.0
 52
90.0
 71
     2
 49
0.5
 62
   256
  6
BYLAYER
 49
-0.5
 62
   256
  6
BYLAYER
  0
ENDSEC
  0
EOF
