  0
SECTION
  2
HEADER
  9
$ACADVER
  1
AC1014
  9
$ACADMAINTVER
 70
     0
  9
$DWGCODEPAGE
  3
ANSI_1252
  9
$INSBASE
 10
0.0
 20
0.0
 30
0.0
  9
$EXTMIN
 10
-0.56252
 20
-2.23287
 30
0.0
  9
$EXTMAX
 10
20.669427
 20
9.930007
 30
0.0
  9
$LIMMIN
 10
0.0
 20
0.0
  9
$LIMMAX
 10
12.0
 20
9.0
  9
$ORTHOMODE
 70
     1
  9
$REGENMODE
 70
     1
  9
$FILLMODE
 70
     1
  9
$QTEXTMODE
 70
     0
  9
$MIRRTEXT
 70
     1
  9
$DRAGMODE
 70
     2
  9
$LTSCALE
 40
1.0
  9
$OSMODE
 70
   292
  9
$ATTMODE
 70
     1
  9
$TEXTSIZE
 40
0.18
  9
$TRACEWID
 40
0.05
  9
$TEXTSTYLE
  7
STANDARD
  9
$CLAYER
  8
DIMS_TEXT
  9
$CELTYPE
  6
BYLAYER
  9
$CECOLOR
 62
   256
  9
$CELTSCALE
 40
1.0
  9
$DELOBJ
 70
     1
  9
$DISPSILH
 70
     0
  9
$DIMSCALE
 40
1.0
  9
$DIMASZ
 40
0.15
  9
$DIMEXO
 40
0.0625
  9
$DIMDLI
 40
0.38
  9
$DIMRND
 40
0.0
  9
$DIMDLE
 40
0.0
  9
$DIMEXE
 40
0.18
  9
$DIMTP
 40
0.0
  9
$DIMTM
 40
0.0
  9
$DIMTXT
 40
0.15
  9
$DIMCEN
 40
0.09
  9
$DIMTSZ
 40
0.0
  9
$DIMTOL
 70
     0
  9
$DIMLIM
 70
     0
  9
$DIMTIH
 70
     1
  9
$DIMTOH
 70
     1
  9
$DIMSE1
 70
     0
  9
$DIMSE2
 70
     0
  9
$DIMTAD
 70
     0
  9
$DIMZIN
 70
     4
  9
$DIMBLK
  1

  9
$DIMASO
 70
     1
  9
$DIMSHO
 70
     1
  9
$DIMPOST
  1

  9
$DIMAPOST
  1

  9
$DIMALT
 70
     0
  9
$DIMALTD
 70
     2
  9
$DIMALTF
 40
25.4
  9
$DIMLFAC
 40
1.0
  9
$DIMTOFL
 70
     0
  9
$DIMTVP
 40
0.0
  9
$DIMTIX
 70
     0
  9
$DIMSOXD
 70
     0
  9
$DIMSAH
 70
     0
  9
$DIMBLK1
  1

  9
$DIMBLK2
  1

  9
$DIMSTYLE
  2
STANDARD
  9
$DIMCLRD
 70
     0
  9
$DIMCLRE
 70
     0
  9
$DIMCLRT
 70
     0
  9
$DIMTFAC
 40
1.0
  9
$DIMGAP
 40
0.09
  9
$DIMJUST
 70
     0
  9
$DIMSD1
 70
     0
  9
$DIMSD2
 70
     0
  9
$DIMTOLJ
 70
     1
  9
$DIMTZIN
 70
     0
  9
$DIMALTZ
 70
     0
  9
$DIMALTTZ
 70
     0
  9
$DIMFIT
 70
     3
  9
$DIMUPT
 70
     0
  9
$DIMUNIT
 70
     2
  9
$DIMDEC
 70
     3
  9
$DIMTDEC
 70
     4
  9
$DIMALTU
 70
     2
  9
$DIMALTTD
 70
     2
  9
$DIMTXSTY
  7
STANDARD
  9
$DIMAUNIT
 70
     0
  9
$LUNITS
 70
     2
  9
$LUPREC
 70
     4
  9
$SKETCHINC
 40
0.1
  9
$FILLETRAD
 40
0.062
  9
$AUNITS
 70
     0
  9
$AUPREC
 70
     0
  9
$MENU
  1
acad
  9
$ELEVATION
 40
0.0
  9
$PELEVATION
 40
0.0
  9
$THICKNESS
 40
0.0
  9
$LIMCHECK
 70
     0
  9
$BLIPMODE
 70
     0
  9
$CHAMFERA
 40
0.032
  9
$CHAMFERB
 40
0.032
  9
$CHAMFERC
 40
1.0
  9
$CHAMFERD
 40
0.0
  9
$SKPOLY
 70
     0
  9
$TDCREATE
 40
2451985.302819907
  9
$TDUPDATE
 40
2452207.573413773
  9
$TDINDWG
 40
0.0507780093
  9
$TDUSRTIMER
 40
0.0507780093
  9
$USRTIMER
 70
     1
  9
$ANGBASE
 50
0.0
  9
$ANGDIR
 70
     0
  9
$PDMODE
 70
     0
  9
$PDSIZE
 40
0.0
  9
$PLINEWID
 40
0.0
  9
$COORDS
 70
     1
  9
$SPLFRAME
 70
     0
  9
$SPLINETYPE
 70
     6
  9
$SPLINESEGS
 70
     8
  9
$ATTDIA
 70
     0
  9
$ATTREQ
 70
     1
  9
$HANDLING
 70
     1
  9
$HANDSEED
  5
4CD
  9
$SURFTAB1
 70
     6
  9
$SURFTAB2
 70
     6
  9
$SURFTYPE
 70
     6
  9
$SURFU
 70
     6
  9
$SURFV
 70
     6
  9
$UCSNAME
  2

  9
$UCSORG
 10
0.0
 20
0.0
 30
0.0
  9
$UCSXDIR
 10
1.0
 20
0.0
 30
0.0
  9
$UCSYDIR
 10
0.0
 20
1.0
 30
0.0
  9
$PUCSNAME
  2

  9
$PUCSORG
 10
0.0
 20
0.0
 30
0.0
  9
$PUCSXDIR
 10
1.0
 20
0.0
 30
0.0
  9
$PUCSYDIR
 10
0.0
 20
1.0
 30
0.0
  9
$USERI1
 70
     0
  9
$USERI2
 70
     0
  9
$USERI3
 70
     0
  9
$USERI4
 70
     0
  9
$USERI5
 70
     0
  9
$USERR1
 40
0.0
  9
$USERR2
 40
0.0
  9
$USERR3
 40
0.0
  9
$USERR4
 40
0.0
  9
$USERR5
 40
0.0
  9
$WORLDVIEW
 70
     1
  9
$SHADEDGE
 70
     3
  9
$SHADEDIF
 70
    70
  9
$TILEMODE
 70
     1
  9
$MAXACTVP
 70
    48
  9
$PINSBASE
 10
0.0
 20
0.0
 30
0.0
  9
$PLIMCHECK
 70
     0
  9
$PEXTMIN
 10
1.000000E+20
 20
1.000000E+20
 30
1.000000E+20
  9
$PEXTMAX
 10
-1.000000E+20
 20
-1.000000E+20
 30
-1.000000E+20
  9
$PLIMMIN
 10
0.0
 20
0.0
  9
$PLIMMAX
 10
12.0
 20
9.0
  9
$UNITMODE
 70
     0
  9
$VISRETAIN
 70
     1
  9
$PLINEGEN
 70
     0
  9
$PSLTSCALE
 70
     1
  9
$TREEDEPTH
 70
  3020
  9
$PICKSTYLE
 70
     1
  9
$CMLSTYLE
  2
STANDARD
  9
$CMLJUST
 70
     0
  9
$CMLSCALE
 40
1.0
  9
$PROXYGRAPHICS
 70
     1
  9
$MEASUREMENT
 70
     0
  0
ENDSEC
  0
SECTION
  2
CLASSES
  0
CLASS
  1
LWPOLYLINE
  2
AcDbPolyline
  3
"AutoCAD"
 90
        0
280
     0
281
     1
  0
ENDSEC
  0
SECTION
  2
TABLES
  0
TABLE
  2
VPORT
  5
8
100
AcDbSymbolTable
 70
     1
  0
VPORT
  5
4C9
100
AcDbSymbolTableRecord
100
AcDbViewportTableRecord
  2
*ACTIVE
 70
     0
 10
0.0
 20
0.0
 11
1.0
 21
1.0
 12
15.498156
 22
2.634754
 13
0.0
 23
0.0
 14
0.5
 24
0.5
 15
0.5
 25
0.5
 16
0.0
 26
0.0
 36
1.0
 17
0.0
 27
0.0
 37
0.0
 40
15.86283
 41
2.151163
 42
50.0
 43
0.0
 44
0.0
 50
0.0
 51
0.0
 71
     0
 72
   100
 73
     1
 74
     1
 75
     0
 76
     0
 77
     0
 78
     0
  0
ENDTAB
  0
TABLE
  2
LTYPE
  5
5
100
AcDbSymbolTable
 70
     4
  0
LTYPE
  5
12
100
AcDbSymbolTableRecord
100
AcDbLinetypeTableRecord
  2
BYBLOCK
 70
     0
  3

 72
    65
 73
     0
 40
0.0
  0
LTYPE
  5
13
100
AcDbSymbolTableRecord
100
AcDbLinetypeTableRecord
  2
BYLAYER
 70
     0
  3

 72
    65
 73
     0
 40
0.0
  0
LTYPE
  5
14
100
AcDbSymbolTableRecord
100
AcDbLinetypeTableRecord
  2
CONTINUOUS
 70
     0
  3
Solid line
 72
    65
 73
     0
 40
0.0
  0
LTYPE
  5
62
100
AcDbSymbolTableRecord
100
AcDbLinetypeTableRecord
  2
CENTER
 70
     0
  3
Center ____ _ ____ _ ____ _ ____ _ ____ _ ____
 72
    65
 73
     4
 40
2.0
 49
1.25
 74
     0
 49
-0.25
 74
     0
 49
0.25
 74
     0
 49
-0.25
 74
     0
  0
LTYPE
  5
63
100
AcDbSymbolTableRecord
100
AcDbLinetypeTableRecord
  2
DASHED2
 70
     0
  3
Dashed (.5x) _ _ _ _ _ _ _ _ _ _ _ _ _ _ _ _ _
 72
    65
 73
     2
 40
0.375
 49
0.25
 74
     0
 49
-0.125
 74
     0
  0
LTYPE
  5
64
100
AcDbSymbolTableRecord
100
AcDbLinetypeTableRecord
  2
HIDDEN2
 70
     0
  3
Hidden (.5x) _ _ _ _ _ _ _ _ _ _ _ _ _ _ _ _ _
 72
    65
 73
     2
 40
0.1875
 49
0.125
 74
     0
 49
-0.0625
 74
     0
  0
ENDTAB
  0
TABLE
  2
LAYER
  5
2
100
AcDbSymbolTable
 70
     6
  0
LAYER
  5
E
100
AcDbSymbolTableRecord
100
AcDbLayerTableRecord
  2
0
 70
     0
 62
     7
  6
CONTINUOUS
  0
LAYER
  5
65
100
AcDbSymbolTableRecord
100
AcDbLayerTableRecord
  2
TB
 70
     0
 62
     7
  6
CONTINUOUS
  0
LAYER
  5
66
100
AcDbSymbolTableRecord
100
AcDbLayerTableRecord
  2
CTR_LINES
 70
     0
 62
     1
  6
CENTER
  0
LAYER
  5
67
100
AcDbSymbolTableRecord
100
AcDbLayerTableRecord
  2
DIMS_TEXT
 70
     0
 62
     3
  6
CONTINUOUS
  0
LAYER
  5
68
100
AcDbSymbolTableRecord
100
AcDbLayerTableRecord
  2
DEFPOINTS
 70
     0
 62
     7
  6
CONTINUOUS
  0
LAYER
  5
69
100
AcDbSymbolTableRecord
100
AcDbLayerTableRecord
  2
HIDDEN_LINE
 70
     0
 62
     4
  6
HIDDEN2
  0
ENDTAB
  0
TABLE
  2
STYLE
  5
3
100
AcDbSymbolTable
 70
     1
  0
STYLE
  5
F
100
AcDbSymbolTableRecord
100
AcDbTextStyleTableRecord
  2
STANDARD
 70
     0
 40
0.0
 41
1.0
 50
0.0
 71
     0
 42
0.18
  3
txt
  4

  0
ENDTAB
  0
TABLE
  2
VIEW
  5
6
100
AcDbSymbolTable
 70
     0
  0
ENDTAB
  0
TABLE
  2
UCS
  5
7
100
AcDbSymbolTable
 70
     0
  0
ENDTAB
  0
TABLE
  2
APPID
  5
9
100
AcDbSymbolTable
 70
     1
  0
APPID
  5
10
100
AcDbSymbolTableRecord
100
AcDbRegAppTableRecord
  2
ACAD
 70
     0
  0
ENDTAB
  0
TABLE
  2
DIMSTYLE
  5
A
100
AcDbSymbolTable
 70
     1
  0
DIMSTYLE
105
1D
102
{ACAD_REACTORS
330
298
330
2B1
330
2CC
330
2F4
330
301
330
30F
330
334
330
34E
330
368
330
38E
330
39B
330
3B4
330
3C2
330
3D0
330
3F6
330
41A
330
497
102
}
100
AcDbSymbolTableRecord
100
AcDbDimStyleTableRecord
  2
STANDARD
 70
     0
  3

  4

  5

  6

  7

 40
1.0
 41
0.18
 42
0.0625
 43
0.38
 44
0.18
 45
0.0
 46
0.0
 47
0.0
 48
0.0
140
0.18
141
0.09
142
0.0
143
25.4
144
1.0
145
0.0
146
1.0
147
0.09
 71
     0
 72
     0
 73
     1
 74
     1
 75
     0
 76
     0
 77
     0
 78
     0
170
     0
171
     2
172
     0
173
     0
174
     0
175
     0
176
     0
177
     0
178
     0
270
     2
271
     4
272
     4
273
     2
274
     2
340
F
275
     0
280
     0
281
     0
282
     0
283
     1
284
     0
285
     0
286
     0
287
     3
288
     0
  0
ENDTAB
  0
TABLE
  2
BLOCK_RECORD
  5
1
100
AcDbSymbolTable
 70
    23
  0
BLOCK_RECORD
  5
18
100
AcDbSymbolTableRecord
100
AcDbBlockTableRecord
  2
*MODEL_SPACE
  0
BLOCK_RECORD
  5
15
100
AcDbSymbolTableRecord
100
AcDbBlockTableRecord
  2
*PAPER_SPACE
  0
BLOCK_RECORD
  5
30
100
AcDbSymbolTableRecord
100
AcDbBlockTableRecord
  2
*D0
  0
BLOCK_RECORD
  5
3D
100
AcDbSymbolTableRecord
100
AcDbBlockTableRecord
  2
*D1
  0
BLOCK_RECORD
  5
4A
100
AcDbSymbolTableRecord
100
AcDbBlockTableRecord
  2
*D2
  0
BLOCK_RECORD
  5
57
100
AcDbSymbolTableRecord
100
AcDbBlockTableRecord
  2
*D3
  0
BLOCK_RECORD
  5
6A
100
AcDbSymbolTableRecord
100
AcDbBlockTableRecord
  2
BOB5
  0
BLOCK_RECORD
  5
28D
100
AcDbSymbolTableRecord
100
AcDbBlockTableRecord
  2
*D5
  0
BLOCK_RECORD
  5
2A4
100
AcDbSymbolTableRecord
100
AcDbBlockTableRecord
  2
*D6
  0
BLOCK_RECORD
  5
2BE
100
AcDbSymbolTableRecord
100
AcDbBlockTableRecord
  2
*D7
  0
BLOCK_RECORD
  5
2E7
100
AcDbSymbolTableRecord
100
AcDbBlockTableRecord
  2
*D8
  0
BLOCK_RECORD
  5
2F5
100
AcDbSymbolTableRecord
100
AcDbBlockTableRecord
  2
*D9
  0
BLOCK_RECORD
  5
302
100
AcDbSymbolTableRecord
100
AcDbBlockTableRecord
  2
*D10
  0
BLOCK_RECORD
  5
327
100
AcDbSymbolTableRecord
100
AcDbBlockTableRecord
  2
*D11
  0
BLOCK_RECORD
  5
341
100
AcDbSymbolTableRecord
100
AcDbBlockTableRecord
  2
*D12
  0
BLOCK_RECORD
  5
35B
100
AcDbSymbolTableRecord
100
AcDbBlockTableRecord
  2
*D13
  0
BLOCK_RECORD
  5
381
100
AcDbSymbolTableRecord
100
AcDbBlockTableRecord
  2
*D14
  0
BLOCK_RECORD
  5
38F
100
AcDbSymbolTableRecord
100
AcDbBlockTableRecord
  2
*D15
  0
BLOCK_RECORD
  5
3A7
100
AcDbSymbolTableRecord
100
AcDbBlockTableRecord
  2
*D16
  0
BLOCK_RECORD
  5
3B5
100
AcDbSymbolTableRecord
100
AcDbBlockTableRecord
  2
*D17
  0
BLOCK_RECORD
  5
3C3
100
AcDbSymbolTableRecord
100
AcDbBlockTableRecord
  2
*D18
  0
BLOCK_RECORD
  5
3E9
100
AcDbSymbolTableRecord
100
AcDbBlockTableRecord
  2
*D19
  0
BLOCK_RECORD
  5
40F
100
AcDbSymbolTableRecord
100
AcDbBlockTableRecord
  2
*D20
  0
BLOCK_RECORD
  5
48C
100
AcDbSymbolTableRecord
100
AcDbBlockTableRecord
  2
*D21
  0
BLOCK_RECORD
  5
4A7
100
AcDbSymbolTableRecord
100
AcDbBlockTableRecord
  2
TITLE_BLOCK
  0
ENDTAB
  0
ENDSEC
  0
SECTION
  2
BLOCKS
  0
BLOCK
  5
19
100
AcDbEntity
  8
0
100
AcDbBlockBegin
  2
*MODEL_SPACE
 70
     0
 10
0.0
 20
0.0
 30
0.0
  3
*MODEL_SPACE
  1

  0
ENDBLK
  5
1A
100
AcDbEntity
  8
0
100
AcDbBlockEnd
  0
BLOCK
  5
16
100
AcDbEntity
 67
     1
  8
0
100
AcDbBlockBegin
  2
*PAPER_SPACE
 70
     0
 10
0.0
 20
0.0
 30
0.0
  3
*PAPER_SPACE
  1

  0
ENDBLK
  5
17
100
AcDbEntity
 67
     1
  8
0
100
AcDbBlockEnd
  0
BLOCK
  5
3B
100
AcDbEntity
  8
0
100
AcDbBlockBegin
  2
*D0
 70
     1
 10
0.0
 20
0.0
 30
0.0
  3
*D0
  1

  0
LINE
  5
31
100
AcDbEntity
  8
0
  6
BYBLOCK
 62
     0
100
AcDbLine
 10
-4.606332
 20
3.411375
 30
0.0
 11
-4.606332
 21
-0.595071
 31
0.0
  0
LINE
  5
32
100
AcDbEntity
  8
0
  6
BYBLOCK
 62
     0
100
AcDbLine
 10
-3.106332
 20
0.348875
 30
0.0
 11
-3.106332
 21
-0.595071
 31
0.0
  0
LINE
  5
33
100
AcDbEntity
  8
0
  6
BYBLOCK
 62
     0
100
AcDbLine
 10
-4.426332
 20
-0.415071
 30
0.0
 11
-4.241628
 21
-0.415071
 31
0.0
  0
LINE
  5
34
100
AcDbEntity
  8
0
  6
BYBLOCK
 62
     0
100
AcDbLine
 10
-3.286332
 20
-0.415071
 30
0.0
 11
-3.471035
 21
-0.415071
 31
0.0
  0
SOLID
  5
35
100
AcDbEntity
  8
0
  6
BYBLOCK
 62
     0
100
AcDbTrace
 10
-4.426332
 20
-0.385071
 30
0.0
 11
-4.426332
 21
-0.445071
 31
0.0
 12
-4.606332
 22
-0.415071
 32
0.0
 13
-4.606332
 23
-0.415071
 33
0.0
  0
SOLID
  5
36
100
AcDbEntity
  8
0
  6
BYBLOCK
 62
     0
100
AcDbTrace
 10
-3.286332
 20
-0.385071
 30
0.0
 11
-3.286332
 21
-0.445071
 31
0.0
 12
-3.106332
 22
-0.415071
 32
0.0
 13
-3.106332
 23
-0.415071
 33
0.0
  0
MTEXT
  5
37
100
AcDbEntity
  8
0
  6
BYBLOCK
 62
     0
100
AcDbMText
 10
-3.856332
 20
-0.415071
 30
0.0
 40
0.17
 41
0.0
 71
     5
 72
     1
  1
\A1;1.500
  0
POINT
  5
38
100
AcDbEntity
  8
DEFPOINTS
  6
BYBLOCK
 62
     0
100
AcDbPoint
 10
-4.606332
 20
3.473875
 30
0.0
  0
POINT
  5
39
100
AcDbEntity
  8
DEFPOINTS
  6
BYBLOCK
 62
     0
100
AcDbPoint
 10
-3.106332
 20
0.411375
 30
0.0
  0
POINT
  5
3A
100
AcDbEntity
  8
DEFPOINTS
  6
BYBLOCK
 62
     0
100
AcDbPoint
 10
-3.106332
 20
-0.415071
 30
0.0
  0
ENDBLK
  5
3C
100
AcDbEntity
  8
0
100
AcDbBlockEnd
  0
BLOCK
  5
48
100
AcDbEntity
  8
0
100
AcDbBlockBegin
  2
*D1
 70
     1
 10
0.0
 20
0.0
 30
0.0
  3
*D1
  1

  0
LINE
  5
3E
100
AcDbEntity
  8
0
  6
BYBLOCK
 62
     0
100
AcDbLine
 10
7.85611
 20
0.348875
 30
0.0
 11
7.85611
 21
-0.380239
 31
0.0
  0
LINE
  5
3F
100
AcDbEntity
  8
0
  6
BYBLOCK
 62
     0
100
AcDbLine
 10
7.23111
 20
0.348875
 30
0.0
 11
7.23111
 21
-0.380239
 31
0.0
  0
LINE
  5
40
100
AcDbEntity
  8
0
  6
BYBLOCK
 62
     0
100
AcDbLine
 10
7.41111
 20
-0.200239
 30
0.0
 11
7.67611
 21
-0.200239
 31
0.0
  0
LINE
  5
41
100
AcDbEntity
  8
0
  6
BYBLOCK
 62
     0
100
AcDbLine
 10
7.85611
 20
-0.200239
 30
0.0
 11
8.4771
 21
-0.200239
 31
0.0
  0
SOLID
  5
42
100
AcDbEntity
  8
0
  6
BYBLOCK
 62
     0
100
AcDbTrace
 10
7.41111
 20
-0.170239
 30
0.0
 11
7.41111
 21
-0.230239
 31
0.0
 12
7.23111
 22
-0.200239
 32
0.0
 13
7.23111
 23
-0.200239
 33
0.0
  0
SOLID
  5
43
100
AcDbEntity
  8
0
  6
BYBLOCK
 62
     0
100
AcDbTrace
 10
7.67611
 20
-0.170239
 30
0.0
 11
7.67611
 21
-0.230239
 31
0.0
 12
7.85611
 22
-0.200239
 32
0.0
 13
7.85611
 23
-0.200239
 33
0.0
  0
MTEXT
  5
44
100
AcDbEntity
  8
0
  6
BYBLOCK
 62
     0
100
AcDbMText
 10
8.734896
 20
-0.200239
 30
0.0
 40
0.17
 41
0.0
 71
     5
 72
     1
  1
\A1;.63
  0
POINT
  5
45
100
AcDbEntity
  8
DEFPOINTS
  6
BYBLOCK
 62
     0
100
AcDbPoint
 10
7.85611
 20
0.411375
 30
0.0
  0
POINT
  5
46
100
AcDbEntity
  8
DEFPOINTS
  6
BYBLOCK
 62
     0
100
AcDbPoint
 10
7.23111
 20
0.411375
 30
0.0
  0
POINT
  5
47
100
AcDbEntity
  8
DEFPOINTS
  6
BYBLOCK
 62
     0
100
AcDbPoint
 10
7.23111
 20
-0.200239
 30
0.0
  0
ENDBLK
  5
49
100
AcDbEntity
  8
0
100
AcDbBlockEnd
  0
BLOCK
  5
55
100
AcDbEntity
  8
0
100
AcDbBlockBegin
  2
*D2
 70
     1
 10
0.0
 20
0.0
 30
0.0
  3
*D2
  1

  0
LINE
  5
4B
100
AcDbEntity
  8
0
  6
BYBLOCK
 62
     0
100
AcDbLine
 10
4.41861
 20
0.411375
 30
0.0
 11
1.389199
 21
0.411375
 31
0.0
  0
LINE
  5
4C
100
AcDbEntity
  8
0
  6
BYBLOCK
 62
     0
100
AcDbLine
 10
3.29361
 20
5.411375
 30
0.0
 11
1.389199
 21
5.411375
 31
0.0
  0
LINE
  5
4D
100
AcDbEntity
  8
0
  6
BYBLOCK
 62
     0
100
AcDbLine
 10
1.569199
 20
0.591375
 30
0.0
 11
1.569199
 21
3.421181
 31
0.0
  0
LINE
  5
4E
100
AcDbEntity
  8
0
  6
BYBLOCK
 62
     0
100
AcDbLine
 10
1.569199
 20
5.231375
 30
0.0
 11
1.569199
 21
4.112573
 31
0.0
  0
SOLID
  5
4F
100
AcDbEntity
  8
0
  6
BYBLOCK
 62
     0
100
AcDbTrace
 10
1.539199
 20
0.591375
 30
0.0
 11
1.599199
 21
0.591375
 31
0.0
 12
1.569199
 22
0.411375
 32
0.0
 13
1.569199
 23
0.411375
 33
0.0
  0
SOLID
  5
50
100
AcDbEntity
  8
0
  6
BYBLOCK
 62
     0
100
AcDbTrace
 10
1.539199
 20
5.231375
 30
0.0
 11
1.599199
 21
5.231375
 31
0.0
 12
1.569199
 22
5.411375
 32
0.0
 13
1.569199
 23
5.411375
 33
0.0
  0
MTEXT
  5
51
100
AcDbEntity
  8
0
  6
BYBLOCK
 62
     0
100
AcDbMText
 10
1.569199
 20
3.766877
 30
0.0
 40
0.17
 41
0.0
 71
     5
 72
     1
  1
\A1;\L5.002\P\l4.998
  0
POINT
  5
52
100
AcDbEntity
  8
DEFPOINTS
  6
BYBLOCK
 62
     0
100
AcDbPoint
 10
4.48111
 20
0.411375
 30
0.0
  0
POINT
  5
53
100
AcDbEntity
  8
DEFPOINTS
  6
BYBLOCK
 62
     0
100
AcDbPoint
 10
3.35611
 20
5.411375
 30
0.0
  0
POINT
  5
54
100
AcDbEntity
  8
DEFPOINTS
  6
BYBLOCK
 62
     0
100
AcDbPoint
 10
1.569199
 20
5.411375
 30
0.0
  0
ENDBLK
  5
56
100
AcDbEntity
  8
0
100
AcDbBlockEnd
  0
BLOCK
  5
60
100
AcDbEntity
  8
0
100
AcDbBlockBegin
  2
*D3
 70
     1
 10
0.0
 20
0.0
 30
0.0
  3
*D3
  1

  0
LINE
  5
58
100
AcDbEntity
  8
0
  6
BYBLOCK
 62
     0
100
AcDbLine
 10
3.699742
 20
2.914045
 30
0.0
 11
3.879742
 21
2.914045
 31
0.0
  0
LINE
  5
59
100
AcDbEntity
  8
0
  6
BYBLOCK
 62
     0
100
AcDbLine
 10
3.879742
 20
2.914045
 30
0.0
 11
4.615462
 21
3.66556
 31
0.0
  0
MTEXT
  5
5A
100
AcDbEntity
  8
0
  6
BYBLOCK
 62
     0
100
AcDbMText
 10
2.928524
 20
2.914045
 30
0.0
 40
0.17
 41
0.0
 71
     5
 72
     1
  1
\A1;\U+2205.328 THRU\P(3 PLACES)
  0
SOLID
  5
5B
100
AcDbEntity
  8
0
  6
BYBLOCK
 62
     0
100
AcDbTrace
 10
4.594025
 20
3.686547
 30
0.0
 11
4.636899
 21
3.644574
 31
0.0
 12
4.741382
 22
3.794184
 32
0.0
 13
4.741382
 23
3.794184
 33
0.0
  0
LINE
  5
5C
100
AcDbEntity
  8
0
  6
BYBLOCK
 62
     0
100
AcDbLine
 10
4.76611
 20
3.911375
 30
0.0
 11
4.94611
 21
3.911375
 31
0.0
  0
LINE
  5
5D
100
AcDbEntity
  8
0
  6
BYBLOCK
 62
     0
100
AcDbLine
 10
4.85611
 20
3.821375
 30
0.0
 11
4.85611
 21
4.001375
 31
0.0
  0
POINT
  5
5E
100
AcDbEntity
  8
DEFPOINTS
  6
BYBLOCK
 62
     0
100
AcDbPoint
 10
4.741382
 20
3.794184
 30
0.0
  0
POINT
  5
5F
100
AcDbEntity
  8
DEFPOINTS
  6
BYBLOCK
 62
     0
100
AcDbPoint
 10
4.970837
 20
4.028565
 30
0.0
  0
ENDBLK
  5
61
100
AcDbEntity
  8
0
100
AcDbBlockEnd
  0
BLOCK
  5
11E
100
AcDbEntity
  8
0
100
AcDbBlockBegin
  2
BOB5
 70
     0
 10
0.0
 20
0.0
 30
0.0
  3
BOB5
  1

  0
LINE
  5
6B
100
AcDbEntity
  8
CTR_LINES
100
AcDbLine
 10
1.496446
 20
0.18
 30
0.0
 11
7.924931
 21
0.18
 31
0.0
  0
DIMENSION
  5
6C
100
AcDbEntity
  8
DIMS_TEXT
100
AcDbDimension
  2
*D1
 10
5.631911
 20
-5.431614
 30
0.0
 11
7.135697
 21
-5.431614
 31
0.0
 12
-1.599199
 22
-5.231375
 32
0.0
 70
   128
  1
.63
  3
STANDARD
100
AcDbAlignedDimension
 13
6.256911
 23
-4.82
 33
0.0
 14
5.631911
 24
-4.82
 34
0.0
100
AcDbRotatedDimension
1001
ACAD
1000
DSTYLE
1002
{
1070
    78
1070
     4
1070
   284
1070
     4
1070
   140
1040
0.17
1070
   272
1070
     0
1070
   271
1070
     3
1002
}
  0
LINE
  5
6D
100
AcDbEntity
  8
0
100
AcDbLine
 10
2.881911
 20
-4.82
 30
0.0
 11
6.631911
 21
-4.82
 31
0.0
  0
LINE
  5
6E
100
AcDbEntity
  8
CTR_LINES
100
AcDbLine
 10
1.498918
 20
-1.32
 30
0.0
 11
7.924931
 21
-1.32
 31
0.0
  0
LINE
  5
6F
100
AcDbEntity
  8
CTR_LINES
100
AcDbLine
 10
5.007695
 20
-0.695
 30
0.0
 11
8.442184
 21
-0.695
 31
0.0
  0
LINE
  5
70
100
AcDbEntity
  8
CTR_LINES
100
AcDbLine
 10
1.498918
 20
1.68
 30
0.0
 11
7.924931
 21
1.68
 31
0.0
  0
LINE
  5
71
100
AcDbEntity
  8
CTR_LINES
100
AcDbLine
 10
6.032817
 20
0.18
 30
0.0
 11
7.924931
 21
0.18
 31
0.0
  0
LINE
  5
72
100
AcDbEntity
  8
0
100
AcDbLine
 10
5.319411
 20
0.805
 30
0.0
 11
7.131911
 21
0.805
 31
0.0
  0
LINE
  5
73
100
AcDbEntity
  8
0
100
AcDbLine
 10
6.131911
 20
-4.32
 30
0.0
 11
6.506911
 21
-4.32
 31
0.0
  0
LINE
  5
74
100
AcDbEntity
  8
0
100
AcDbLine
 10
5.305346
 20
1.43
 30
0.0
 11
7.131911
 21
1.43
 31
0.0
  0
LINE
  5
75
100
AcDbEntity
  8
0
100
AcDbLine
 10
6.56627
 20
-1.010641
 30
0.0
 11
5.94127
 21
-0.385641
 31
0.0
  0
ARC
  5
76
100
AcDbEntity
  8
0
100
AcDbCircle
 10
6.256911
 20
-1.32
 30
0.0
 40
0.4375
100
AcDbArc
 50
225.0
 51
45.0
  0
CIRCLE
  5
77
100
AcDbEntity
  8
0
100
AcDbCircle
 10
6.256911
 20
-1.32
 30
0.0
 40
0.164
  0
DIMENSION
  5
78
100
AcDbEntity
  8
DIMS_TEXT
100
AcDbDimension
  2
*D3
 10
3.371638
 20
-1.202809
 30
0.0
 11
1.329326
 21
-2.31733
 31
0.0
 12
-1.599199
 22
-5.231375
 32
0.0
 70
   131
  1
<> THRU\P(3 PLACES)
  3
STANDARD
100
AcDbDiametricDimension
 15
3.142183
 25
-1.437191
 35
0.0
 40
0.0
1001
ACAD
1000
DSTYLE
1002
{
1070
    78
1070
     4
1070
   288
1070
     1
1070
   284
1070
     4
1070
   140
1040
0.17
1070
   272
1070
     0
1070
   271
1070
     3
1002
}
  0
DIMENSION
  5
79
100
AcDbEntity
  8
DIMS_TEXT
100
AcDbDimension
  2
*D2
 10
-0.03
 20
0.18
 30
0.0
 11
-0.03
 21
-1.464498
 31
0.0
 12
-1.599199
 22
-5.231375
 32
0.0
 70
   128
  1
\L5.002\P\l4.998
  3
STANDARD
100
AcDbAlignedDimension
 13
2.881911
 23
-4.82
 33
0.0
 14
1.756911
 24
0.18
 34
0.0
 50
90.0
100
AcDbRotatedDimension
1001
ACAD
1000
DSTYLE
1002
{
1070
    78
1070
     4
1070
   284
1070
     4
1070
   140
1040
0.17
1070
   272
1070
     0
1070
   271
1070
     3
1002
}
  0
LINE
  5
7A
100
AcDbEntity
  8
CTR_LINES
100
AcDbLine
 10
5.631911
 20
-0.161309
 30
0.0
 11
5.631911
 21
-5.208999
 31
0.0
  0
DIMENSION
  5
7B
100
AcDbEntity
  8
DIMS_TEXT
100
AcDbDimension
  2
*D0
 10
-4.705531
 20
-5.646446
 30
0.0
 11
-5.455531
 21
-5.646446
 31
0.0
 12
-1.599199
 22
-5.231375
 32
0.0
  3
STANDARD
100
AcDbAlignedDimension
 13
-6.205531
 23
-1.7575
 33
0.0
 14
-4.705531
 24
-4.82
 34
0.0
100
AcDbRotatedDimension
1001
ACAD
1000
DSTYLE
1002
{
1070
    78
1070
     4
1070
   284
1070
     4
1070
   140
1040
0.17
1070
   272
1070
     0
1070
   271
1070
     3
1002
}
  0
LINE
  5
7C
100
AcDbEntity
  8
0
100
AcDbLine
 10
-5.080531
 20
-4.195
 30
0.0
 11
-5.080531
 21
-1.8825
 31
0.0
  0
LINE
  5
7D
100
AcDbEntity
  8
0
100
AcDbLine
 10
-4.330531
 20
-4.195
 30
0.0
 11
-4.330531
 21
-1.8825
 31
0.0
  0
LINE
  5
7E
100
AcDbEntity
  8
0
100
AcDbLine
 10
-3.268031
 20
-4.445
 30
0.0
 11
-3.268031
 21
-1.7575
 31
0.0
  0
LINE
  5
7F
100
AcDbEntity
  8
0
100
AcDbLine
 10
-6.143031
 20
-4.445
 30
0.0
 11
-6.143031
 21
-1.7575
 31
0.0
  0
LINE
  5
80
100
AcDbEntity
  8
0
100
AcDbLine
 10
4.131911
 20
-1.8825
 30
0.0
 11
4.131911
 21
-4.195
 31
0.0
  0
LINE
  5
81
100
AcDbEntity
  8
0
100
AcDbLine
 10
5.381911
 20
-1.8825
 30
0.0
 11
5.381911
 21
-4.195
 31
0.0
  0
LINE
  5
82
100
AcDbEntity
  8
0
100
AcDbLine
 10
3.506911
 20
-1.868435
 30
0.0
 11
3.506911
 21
-4.195
 31
0.0
  0
LINE
  5
83
100
AcDbEntity
  8
0
100
AcDbLine
 10
6.006911
 20
-1.868435
 30
0.0
 11
6.006911
 21
-4.195
 31
0.0
  0
LINE
  5
84
100
AcDbEntity
  8
CTR_LINES
100
AcDbLine
 10
6.256911
 20
2.290616
 30
0.0
 11
6.256911
 21
-5.208999
 31
0.0
  0
LINE
  5
85
100
AcDbEntity
  8
0
100
AcDbLine
 10
-6.018031
 20
-4.32
 30
0.0
 11
-5.455531
 21
-4.32
 31
0.0
  0
LINE
  5
86
100
AcDbEntity
  8
0
100
AcDbLine
 10
-6.143031
 20
-4.82
 30
0.0
 11
-3.268031
 21
-4.82
 31
0.0
  0
LINE
  5
87
100
AcDbEntity
  8
HIDDEN_LINE
  6
HIDDEN2
100
AcDbLine
 10
-5.994531
 20
-4.82
 30
0.0
 11
-5.994531
 21
-4.32
 31
0.0
  0
LINE
  5
88
100
AcDbEntity
  8
HIDDEN_LINE
  6
HIDDEN2
100
AcDbLine
 10
-5.666531
 20
-4.82
 30
0.0
 11
-5.666531
 21
-4.32
 31
0.0
  0
ARC
  5
89
100
AcDbEntity
  8
0
100
AcDbCircle
 10
-6.018031
 20
-4.445
 30
0.0
 40
0.125
100
AcDbArc
 50
90.0
 51
180.0
  0
LINE
  5
8A
100
AcDbEntity
  8
0
100
AcDbLine
 10
-6.143031
 20
-4.82
 30
0.0
 11
-6.143031
 21
-4.445
 31
0.0
  0
LINE
  5
8B
100
AcDbEntity
  8
0
100
AcDbLine
 10
-5.205531
 20
-4.32
 30
0.0
 11
-4.205531
 21
-4.32
 31
0.0
  0
LINE
  5
8C
100
AcDbEntity
  8
0
100
AcDbLine
 10
-5.455531
 20
-4.32
 30
0.0
 11
-5.205531
 21
-4.32
 31
0.0
  0
ARC
  5
8D
100
AcDbEntity
  8
0
100
AcDbCircle
 10
-5.205531
 20
-4.195
 30
0.0
 40
0.125
100
AcDbArc
 50
270.0
 51
0.0
  0
LINE
  5
8E
100
AcDbEntity
  8
HIDDEN_LINE
  6
HIDDEN2
100
AcDbLine
 10
-3.744531
 20
-4.82
 30
0.0
 11
-3.744531
 21
-4.32
 31
0.0
  0
LINE
  5
8F
100
AcDbEntity
  8
HIDDEN_LINE
  6
HIDDEN2
100
AcDbLine
 10
-3.416531
 20
-4.82
 30
0.0
 11
-3.416531
 21
-4.32
 31
0.0
  0
ARC
  5
90
100
AcDbEntity
  8
0
100
AcDbCircle
 10
-3.393031
 20
-4.445
 30
0.0
 40
0.125
100
AcDbArc
 50
0.0
 51
90.0
  0
LINE
  5
91
100
AcDbEntity
  8
0
100
AcDbLine
 10
-3.268031
 20
-4.82
 30
0.0
 11
-3.268031
 21
-4.445
 31
0.0
  0
LINE
  5
92
100
AcDbEntity
  8
0
100
AcDbLine
 10
-3.955531
 20
-4.32
 30
0.0
 11
-3.393031
 21
-4.32
 31
0.0
  0
LINE
  5
93
100
AcDbEntity
  8
0
100
AcDbLine
 10
-4.205531
 20
-4.32
 30
0.0
 11
-3.955531
 21
-4.32
 31
0.0
  0
ARC
  5
94
100
AcDbEntity
  8
0
100
AcDbCircle
 10
-4.205531
 20
-4.195
 30
0.0
 40
0.125
100
AcDbArc
 50
180.0
 51
270.0
  0
LINE
  5
95
100
AcDbEntity
  8
0
100
AcDbLine
 10
3.006911
 20
-4.32
 30
0.0
 11
4.006911
 21
-4.32
 31
0.0
  0
LINE
  5
96
100
AcDbEntity
  8
HIDDEN_LINE
  6
DASHED2
100
AcDbLine
 10
3.420911
 20
-4.32
 30
0.0
 11
3.420911
 21
-4.82
 31
0.0
  0
LINE
  5
97
100
AcDbEntity
  8
HIDDEN_LINE
  6
DASHED2
100
AcDbLine
 10
3.092911
 20
-4.32
 30
0.0
 11
3.092911
 21
-4.82
 31
0.0
  0
ARC
  5
98
100
AcDbEntity
  8
0
100
AcDbCircle
 10
3.006911
 20
-4.445
 30
0.0
 40
0.125
100
AcDbArc
 50
90.0
 51
180.0
  0
LINE
  5
99
100
AcDbEntity
  8
0
100
AcDbLine
 10
2.881911
 20
-4.445
 30
0.0
 11
2.881911
 21
-4.82
 31
0.0
  0
LINE
  5
9A
100
AcDbEntity
  8
0
100
AcDbLine
 10
3.006911
 20
-4.32
 30
0.0
 11
3.381911
 21
-4.32
 31
0.0
  0
ARC
  5
9B
100
AcDbEntity
  8
0
100
AcDbCircle
 10
3.381911
 20
-4.195
 30
0.0
 40
0.125
100
AcDbArc
 50
270.0
 51
0.0
  0
ARC
  5
9C
100
AcDbEntity
  8
0
100
AcDbCircle
 10
4.006911
 20
-4.195
 30
0.0
 40
0.125
100
AcDbArc
 50
270.0
 51
0.0
  0
LINE
  5
9D
100
AcDbEntity
  8
HIDDEN_LINE
  6
DASHED2
100
AcDbLine
 10
6.092911
 20
-4.32
 30
0.0
 11
6.092911
 21
-4.82
 31
0.0
  0
LINE
  5
9E
100
AcDbEntity
  8
0
100
AcDbLine
 10
6.256911
 20
-4.32
 30
0.0
 11
5.506911
 21
-4.32
 31
0.0
  0
ARC
  5
9F
100
AcDbEntity
  8
0
100
AcDbCircle
 10
5.506911
 20
-4.195
 30
0.0
 40
0.125
100
AcDbArc
 50
180.0
 51
270.0
  0
ARC
  5
A0
100
AcDbEntity
  8
0
100
AcDbCircle
 10
6.131911
 20
-4.195
 30
0.0
 40
0.125
100
AcDbArc
 50
180.0
 51
270.0
  0
ARC
  5
A1
100
AcDbEntity
  8
0
100
AcDbCircle
 10
-3.580531
 20
-1.3825
 30
0.0
 40
0.3125
100
AcDbArc
 50
270.0
 51
0.0
  0
ARC
  5
A2
100
AcDbEntity
  8
0
100
AcDbCircle
 10
-3.580531
 20
1.7425
 30
0.0
 40
0.3125
100
AcDbArc
 50
0.0
 51
90.0
  0
ARC
  5
A3
100
AcDbEntity
  8
0
100
AcDbCircle
 10
-3.208031
 20
1.1825
 30
0.0
 40
0.06
100
AcDbArc
 50
90.0
 51
180.0
  0
ARC
  5
A4
100
AcDbEntity
  8
0
100
AcDbCircle
 10
-3.208031
 20
-0.1975
 30
0.0
 40
0.06
100
AcDbArc
 50
180.0
 51
270.0
  0
LINE
  5
A5
100
AcDbEntity
  8
0
100
AcDbLine
 10
-6.205531
 20
2.1175
 30
0.0
 11
-3.205531
 21
2.1175
 31
0.0
  0
LINE
  5
A6
100
AcDbEntity
  8
0
100
AcDbLine
 10
-3.955531
 20
-1.7575
 30
0.0
 11
-3.205531
 21
-1.7575
 31
0.0
  0
LINE
  5
A7
100
AcDbEntity
  8
CTR_LINES
100
AcDbLine
 10
-6.705531
 20
-1.32
 30
0.0
 11
-2.803596
 21
-1.32
 31
0.0
  0
LINE
  5
A8
100
AcDbEntity
  8
CTR_LINES
100
AcDbLine
 10
-6.705531
 20
1.68
 30
0.0
 11
-2.803596
 21
1.68
 31
0.0
  0
LINE
  5
A9
100
AcDbEntity
  8
CTR_LINES
100
AcDbLine
 10
-6.406333
 20
0.18
 30
0.0
 11
-2.687379
 21
0.18
 31
0.0
  0
CIRCLE
  5
AA
100
AcDbEntity
  8
HIDDEN_LINE
  6
HIDDEN2
100
AcDbCircle
 10
-4.705531
 20
0.18
 30
0.0
 40
0.9685
  0
CIRCLE
  5
AB
100
AcDbEntity
  8
0
100
AcDbCircle
 10
-4.705531
 20
0.18
 30
0.0
 40
0.925
  0
LINE
  5
AC
100
AcDbEntity
  8
0
100
AcDbLine
 10
-6.143031
 20
-0.373507
 30
0.0
 11
-6.143031
 21
0.733507
 31
0.0
  0
LINE
  5
AD
100
AcDbEntity
  8
0
100
AcDbLine
 10
-3.268031
 20
-0.373507
 30
0.0
 11
-3.268031
 21
0.733507
 31
0.0
  0
LINE
  5
AE
100
AcDbEntity
  8
0
100
AcDbLine
 10
-3.268031
 20
-1.3825
 30
0.0
 11
-3.268031
 21
1.7425
 31
0.0
  0
LINE
  5
AF
100
AcDbEntity
  8
0
100
AcDbLine
 10
-6.143031
 20
-1.3825
 30
0.0
 11
-6.143031
 21
1.7425
 31
0.0
  0
LINE
  5
B0
100
AcDbEntity
  8
0
100
AcDbLine
 10
-5.830531
 20
-1.7575
 30
0.0
 11
-5.205531
 21
-1.7575
 31
0.0
  0
LINE
  5
B1
100
AcDbEntity
  8
HIDDEN_LINE
  6
HIDDEN2
100
AcDbLine
 10
-6.081408
 20
-0.481249
 30
0.0
 11
-5.10987
 21
-1.052742
 31
0.0
  0
LINE
  5
B2
100
AcDbEntity
  8
0
100
AcDbLine
 10
-6.205531
 20
-1.7575
 30
0.0
 11
-5.455531
 21
-1.7575
 31
0.0
  0
LINE
  5
B3
100
AcDbEntity
  8
0
100
AcDbLine
 10
-5.830531
 20
-1.695
 30
0.0
 11
-3.580531
 21
-1.695
 31
0.0
  0
CIRCLE
  5
B4
100
AcDbEntity
  8
0
100
AcDbCircle
 10
-5.830531
 20
-1.32
 30
0.0
 40
0.164
  0
LINE
  5
B5
100
AcDbEntity
  8
0
100
AcDbLine
 10
-6.205531
 20
-1.7575
 30
0.0
 11
-6.205531
 21
-0.8825
 31
0.0
  0
ARC
  5
B6
100
AcDbEntity
  8
0
100
AcDbCircle
 10
-5.830531
 20
-1.3825
 30
0.0
 40
0.3125
100
AcDbArc
 50
180.0
 51
270.0
  0
ARC
  5
B7
100
AcDbEntity
  8
0
100
AcDbCircle
 10
-6.203031
 20
-0.8225
 30
0.0
 40
0.06
100
AcDbArc
 50
270.0
 51
0.0
  0
LINE
  5
B8
100
AcDbEntity
  8
0
100
AcDbLine
 10
-6.205531
 20
-0.8825
 30
0.0
 11
-6.203031
 21
-0.8825
 31
0.0
  0
ARC
  5
B9
100
AcDbEntity
  8
HIDDEN_LINE
100
AcDbCircle
 10
-6.018031
 20
-0.373507
 30
0.0
 40
0.125
100
AcDbArc
 50
180.0
 51
239.534455
  0
CIRCLE
  5
BA
100
AcDbEntity
  8
0
100
AcDbCircle
 10
-3.580531
 20
-1.32
 30
0.0
 40
0.164
  0
ARC
  5
BB
100
AcDbEntity
  8
0
100
AcDbCircle
 10
-5.205531
 20
-1.8825
 30
0.0
 40
0.125
100
AcDbArc
 50
0.0
 51
90.0
  0
ARC
  5
BC
100
AcDbEntity
  8
0
100
AcDbCircle
 10
-4.205531
 20
-1.8825
 30
0.0
 40
0.125
100
AcDbArc
 50
90.0
 51
180.0
  0
LINE
  5
BD
100
AcDbEntity
  8
0
100
AcDbLine
 10
-4.205531
 20
-1.7575
 30
0.0
 11
-3.580531
 21
-1.7575
 31
0.0
  0
LINE
  5
BE
100
AcDbEntity
  8
HIDDEN_LINE
  6
HIDDEN2
100
AcDbLine
 10
-5.046492
 20
-1.07
 30
0.0
 11
-4.364569
 21
-1.07
 31
0.0
  0
ARC
  5
BF
100
AcDbEntity
  8
HIDDEN_LINE
  6
HIDDEN2
100
AcDbCircle
 10
-5.046492
 20
-0.945
 30
0.0
 40
0.125
100
AcDbArc
 50
239.534455
 51
270.0
  0
LINE
  5
C0
100
AcDbEntity
  8
HIDDEN_LINE
  6
HIDDEN2
100
AcDbLine
 10
-4.301192
 20
-1.052742
 30
0.0
 11
-3.329653
 21
-0.481249
 31
0.0
  0
ARC
  5
C1
100
AcDbEntity
  8
HIDDEN_LINE
  6
HIDDEN2
100
AcDbCircle
 10
-4.364569
 20
-0.945
 30
0.0
 40
0.125
100
AcDbArc
 50
270.0
 51
300.465545
  0
ARC
  5
C2
100
AcDbEntity
  8
HIDDEN_LINE
100
AcDbCircle
 10
-3.393031
 20
-0.373507
 30
0.0
 40
0.125
100
AcDbArc
 50
300.465545
 51
0.0
  0
LINE
  5
C3
100
AcDbEntity
  8
HIDDEN_LINE
  6
HIDDEN2
100
AcDbLine
 10
-5.10987
 20
1.412742
 30
0.0
 11
-6.081408
 21
0.841249
 31
0.0
  0
LINE
  5
C4
100
AcDbEntity
  8
0
100
AcDbLine
 10
-5.830531
 20
2.055
 30
0.0
 11
-3.580531
 21
2.055
 31
0.0
  0
LINE
  5
C5
100
AcDbEntity
  8
0
100
AcDbLine
 10
-6.205531
 20
1.2425
 30
0.0
 11
-6.205531
 21
2.1175
 31
0.0
  0
ARC
  5
C6
100
AcDbEntity
  8
HIDDEN_LINE
100
AcDbCircle
 10
-6.018031
 20
0.733507
 30
0.0
 40
0.125
100
AcDbArc
 50
120.465545
 51
180.0
  0
ARC
  5
C7
100
AcDbEntity
  8
0
100
AcDbCircle
 10
-6.203031
 20
1.1825
 30
0.0
 40
0.06
100
AcDbArc
 50
0.0
 51
90.0
  0
LINE
  5
C8
100
AcDbEntity
  8
0
100
AcDbLine
 10
-6.205531
 20
1.2425
 30
0.0
 11
-6.203031
 21
1.2425
 31
0.0
  0
ARC
  5
C9
100
AcDbEntity
  8
0
100
AcDbCircle
 10
-5.830531
 20
1.7425
 30
0.0
 40
0.3125
100
AcDbArc
 50
90.0
 51
180.0
  0
CIRCLE
  5
CA
100
AcDbEntity
  8
0
100
AcDbCircle
 10
-5.830531
 20
1.68
 30
0.0
 40
0.164
  0
LINE
  5
CB
100
AcDbEntity
  8
HIDDEN_LINE
  6
HIDDEN2
100
AcDbLine
 10
-3.329653
 20
0.841249
 30
0.0
 11
-4.301192
 21
1.412742
 31
0.0
  0
ARC
  5
CC
100
AcDbEntity
  8
HIDDEN_LINE
100
AcDbCircle
 10
-3.393031
 20
0.733507
 30
0.0
 40
0.125
100
AcDbArc
 50
0.0
 51
59.534455
  0
LINE
  5
CD
100
AcDbEntity
  8
HIDDEN_LINE
  6
HIDDEN2
100
AcDbLine
 10
-4.364569
 20
1.43
 30
0.0
 11
-5.046492
 21
1.43
 31
0.0
  0
ARC
  5
CE
100
AcDbEntity
  8
HIDDEN_LINE
  6
HIDDEN2
100
AcDbCircle
 10
-5.046492
 20
1.305
 30
0.0
 40
0.125
100
AcDbArc
 50
90.0
 51
120.465545
  0
ARC
  5
CF
100
AcDbEntity
  8
HIDDEN_LINE
  6
HIDDEN2
100
AcDbCircle
 10
-4.364569
 20
1.305
 30
0.0
 40
0.125
100
AcDbArc
 50
59.534455
 51
90.0
  0
CIRCLE
  5
D0
100
AcDbEntity
  8
0
100
AcDbCircle
 10
-3.580531
 20
1.68
 30
0.0
 40
0.164
  0
LINE
  5
D1
100
AcDbEntity
  8
0
100
AcDbLine
 10
-3.205531
 20
-1.7575
 30
0.0
 11
-3.205531
 21
-0.2575
 31
0.0
  0
LINE
  5
D2
100
AcDbEntity
  8
0
100
AcDbLine
 10
-3.208031
 20
-0.2575
 30
0.0
 11
-3.205531
 21
-0.2575
 31
0.0
  0
LINE
  5
D3
100
AcDbEntity
  8
0
100
AcDbLine
 10
-3.205531
 20
1.2425
 30
0.0
 11
-3.205531
 21
2.1175
 31
0.0
  0
LINE
  5
D4
100
AcDbEntity
  8
0
100
AcDbLine
 10
-3.208031
 20
1.2425
 30
0.0
 11
-3.205531
 21
1.2425
 31
0.0
  0
LINE
  5
D5
100
AcDbEntity
  8
0
100
AcDbLine
 10
1.756911
 20
2.055
 30
0.0
 11
1.756911
 21
-1.695
 31
0.0
  0
LINE
  5
D6
100
AcDbEntity
  8
0
100
AcDbLine
 10
3.256911
 20
-1.7575
 30
0.0
 11
4.006911
 21
-1.7575
 31
0.0
  0
LINE
  5
D7
100
AcDbEntity
  8
0
100
AcDbLine
 10
2.819411
 20
-1.32
 30
0.0
 11
2.819411
 21
-0.57
 31
0.0
  0
LINE
  5
D8
100
AcDbEntity
  8
0
100
AcDbLine
 10
2.256911
 20
-1.57
 30
0.0
 11
2.256911
 21
-1.195
 31
0.0
  0
LINE
  5
D9
100
AcDbEntity
  8
0
100
AcDbLine
 10
2.256911
 20
-0.57
 30
0.0
 11
2.256911
 21
-1.32
 31
0.0
  0
ARC
  5
DA
100
AcDbEntity
  8
0
100
AcDbCircle
 10
2.708475
 20
-1.195
 30
0.0
 40
0.125
100
AcDbArc
 50
347.160412
 51
90.0
  0
CIRCLE
  5
DB
100
AcDbEntity
  8
0
100
AcDbCircle
 10
3.256911
 20
-1.32
 30
0.0
 40
0.4375
  0
CIRCLE
  5
DC
100
AcDbEntity
  8
0
100
AcDbCircle
 10
3.256911
 20
-1.32
 30
0.0
 40
0.164
  0
LINE
  5
DD
100
AcDbEntity
  8
CTR_LINES
100
AcDbLine
 10
3.256911
 20
-0.414069
 30
0.0
 11
3.256911
 21
-2.057015
 31
0.0
  0
LINE
  5
DE
100
AcDbEntity
  8
HIDDEN_LINE
  6
HIDDEN2
100
AcDbLine
 10
1.756911
 20
-1.484
 30
0.0
 11
2.256911
 21
-1.484
 31
0.0
  0
ARC
  5
DF
100
AcDbEntity
  8
0
100
AcDbCircle
 10
2.131911
 20
-1.57
 30
0.0
 40
0.125
100
AcDbArc
 50
270.0
 51
360.0
  0
LINE
  5
E0
100
AcDbEntity
  8
0
100
AcDbLine
 10
1.756911
 20
-1.695
 30
0.0
 11
2.131911
 21
-1.695
 31
0.0
  0
ARC
  5
E1
100
AcDbEntity
  8
0
100
AcDbCircle
 10
3.381911
 20
-1.868435
 30
0.0
 40
0.125
100
AcDbArc
 50
0.0
 51
102.839588
  0
ARC
  5
E2
100
AcDbEntity
  8
0
100
AcDbCircle
 10
2.694411
 20
-0.57
 30
0.0
 40
0.125
100
AcDbArc
 50
0.0
 51
90.0
  0
ARC
  5
E3
100
AcDbEntity
  8
0
100
AcDbCircle
 10
2.381911
 20
-0.57
 30
0.0
 40
0.125
100
AcDbArc
 50
90.0
 51
180.0
  0
LINE
  5
E4
100
AcDbEntity
  8
HIDDEN_LINE
  6
HIDDEN2
100
AcDbLine
 10
1.756911
 20
-1.156
 30
0.0
 11
2.256911
 21
-1.156
 31
0.0
  0
LINE
  5
E5
100
AcDbEntity
  8
0
100
AcDbLine
 10
2.381911
 20
-1.07
 30
0.0
 11
2.708475
 21
-1.07
 31
0.0
  0
ARC
  5
E6
100
AcDbEntity
  8
0
100
AcDbCircle
 10
2.381911
 20
-1.195
 30
0.0
 40
0.125
100
AcDbArc
 50
90.0
 51
180.0
  0
LINE
  5
E7
100
AcDbEntity
  8
0
100
AcDbLine
 10
2.381911
 20
-0.445
 30
0.0
 11
2.694411
 21
-0.445
 31
0.0
  0
LINE
  5
E8
100
AcDbEntity
  8
0
100
AcDbLine
 10
5.947552
 20
-1.629359
 30
0.0
 11
5.322552
 21
-1.004359
 31
0.0
  0
ARC
  5
E9
100
AcDbEntity
  8
0
100
AcDbCircle
 10
4.006911
 20
-1.8825
 30
0.0
 40
0.125
100
AcDbArc
 50
0.0
 51
90.0
  0
ARC
  5
EA
100
AcDbEntity
  8
0
100
AcDbCircle
 10
5.506911
 20
-1.8825
 30
0.0
 40
0.125
100
AcDbArc
 50
90.0
 51
180.0
  0
ARC
  5
EB
100
AcDbEntity
  8
0
100
AcDbCircle
 10
6.131911
 20
-1.868435
 30
0.0
 40
0.125
100
AcDbArc
 50
77.160412
 51
180.0
  0
LINE
  5
EC
100
AcDbEntity
  8
0
100
AcDbLine
 10
5.506911
 20
-1.7575
 30
0.0
 11
6.256911
 21
-1.7575
 31
0.0
  0
CIRCLE
  5
ED
100
AcDbEntity
  8
HIDDEN_LINE
  6
HIDDEN2
100
AcDbCircle
 10
5.631911
 20
-0.695
 30
0.0
 40
0.2
  0
CIRCLE
  5
EE
100
AcDbEntity
  8
0
100
AcDbCircle
 10
5.631911
 20
-0.695
 30
0.0
 40
0.1685
  0
ARC
  5
EF
100
AcDbEntity
  8
0
100
AcDbCircle
 10
5.631911
 20
-0.695
 30
0.0
 40
0.4375
100
AcDbArc
 50
45.0
 51
225.0
  0
LINE
  5
F0
100
AcDbEntity
  8
0
100
AcDbLine
 10
2.381911
 20
0.805
 30
0.0
 11
4.194411
 21
0.805
 31
0.0
  0
LINE
  5
F1
100
AcDbEntity
  8
0
100
AcDbLine
 10
2.381911
 20
1.43
 30
0.0
 11
4.208475
 21
1.43
 31
0.0
  0
LINE
  5
F2
100
AcDbEntity
  8
0
100
AcDbLine
 10
2.256911
 20
1.68
 30
0.0
 11
2.256911
 21
0.93
 31
0.0
  0
ARC
  5
F3
100
AcDbEntity
  8
0
100
AcDbCircle
 10
2.381911
 20
0.93
 30
0.0
 40
0.125
100
AcDbArc
 50
180.0
 51
270.0
  0
ARC
  5
F4
100
AcDbEntity
  8
0
100
AcDbCircle
 10
2.131911
 20
1.93
 30
0.0
 40
0.125
100
AcDbArc
 50
0.0
 51
90.0
  0
LINE
  5
F5
100
AcDbEntity
  8
HIDDEN_LINE
  6
HIDDEN2
100
AcDbLine
 10
1.756911
 20
1.516
 30
0.0
 11
2.256911
 21
1.516
 31
0.0
  0
LINE
  5
F6
100
AcDbEntity
  8
HIDDEN_LINE
  6
HIDDEN2
100
AcDbLine
 10
1.756911
 20
1.844
 30
0.0
 11
2.256911
 21
1.844
 31
0.0
  0
LINE
  5
F7
100
AcDbEntity
  8
0
100
AcDbLine
 10
2.256911
 20
1.93
 30
0.0
 11
2.256911
 21
1.555
 31
0.0
  0
ARC
  5
F8
100
AcDbEntity
  8
0
100
AcDbCircle
 10
2.381911
 20
1.555
 30
0.0
 40
0.125
100
AcDbArc
 50
180.0
 51
270.0
  0
LINE
  5
F9
100
AcDbEntity
  8
0
100
AcDbLine
 10
1.756911
 20
2.055
 30
0.0
 11
2.131911
 21
2.055
 31
0.0
  0
LINE
  5
FA
100
AcDbEntity
  8
0
100
AcDbLine
 10
4.319411
 20
1.68
 30
0.0
 11
4.319411
 21
0.93
 31
0.0
  0
LINE
  5
FB
100
AcDbEntity
  8
0
100
AcDbLine
 10
5.194411
 20
1.68
 30
0.0
 11
5.194411
 21
0.93
 31
0.0
  0
CIRCLE
  5
FC
100
AcDbEntity
  8
0
100
AcDbCircle
 10
4.756911
 20
1.68
 30
0.0
 40
0.4375
  0
ARC
  5
FD
100
AcDbEntity
  8
0
100
AcDbCircle
 10
4.194411
 20
0.93
 30
0.0
 40
0.125
100
AcDbArc
 50
270.0
 51
0.0
  0
ARC
  5
FE
100
AcDbEntity
  8
0
100
AcDbCircle
 10
5.319411
 20
0.93
 30
0.0
 40
0.125
100
AcDbArc
 50
180.0
 51
270.0
  0
ARC
  5
FF
100
AcDbEntity
  8
0
100
AcDbCircle
 10
5.305346
 20
1.555
 30
0.0
 40
0.125
100
AcDbArc
 50
167.160412
 51
270.0
  0
ARC
  5
100
100
AcDbEntity
  8
0
100
AcDbCircle
 10
4.208475
 20
1.555
 30
0.0
 40
0.125
100
AcDbArc
 50
270.0
 51
12.839588
  0
CIRCLE
  5
101
100
AcDbEntity
  8
0
100
AcDbCircle
 10
4.756911
 20
1.68
 30
0.0
 40
0.164
  0
LINE
  5
102
100
AcDbEntity
  8
HIDDEN_LINE
  6
DASHED2
100
AcDbLine
 10
6.420911
 20
-4.32
 30
0.0
 11
6.420911
 21
-4.82
 31
0.0
  0
ARC
  5
103
100
AcDbEntity
  8
0
100
AcDbCircle
 10
6.506911
 20
-4.445
 30
0.0
 40
0.125
100
AcDbArc
 50
360.0
 51
90.0
  0
LINE
  5
104
100
AcDbEntity
  8
0
100
AcDbLine
 10
6.631911
 20
-4.445
 30
0.0
 11
6.631911
 21
-4.82
 31
0.0
  0
LINE
  5
105
100
AcDbEntity
  8
0
100
AcDbLine
 10
7.756911
 20
2.055
 30
0.0
 11
7.756911
 21
-1.695
 31
0.0
  0
LINE
  5
106
100
AcDbEntity
  8
0
100
AcDbLine
 10
6.694411
 20
-1.32
 30
0.0
 11
6.683471
 21
-0.57
 31
0.0
  0
LINE
  5
107
100
AcDbEntity
  8
0
100
AcDbLine
 10
7.256911
 20
-1.57
 30
0.0
 11
7.256911
 21
-1.195
 31
0.0
  0
ARC
  5
108
100
AcDbEntity
  8
0
100
AcDbCircle
 10
6.805346
 20
-1.195
 30
0.0
 40
0.125
100
AcDbArc
 50
90.0
 51
192.839588
  0
LINE
  5
109
100
AcDbEntity
  8
HIDDEN_LINE
  6
HIDDEN2
100
AcDbLine
 10
7.256911
 20
-1.484
 30
0.0
 11
7.756911
 21
-1.484
 31
0.0
  0
LINE
  5
10A
100
AcDbEntity
  8
0
100
AcDbLine
 10
7.381911
 20
-1.695
 30
0.0
 11
7.756911
 21
-1.695
 31
0.0
  0
ARC
  5
10B
100
AcDbEntity
  8
0
100
AcDbCircle
 10
7.381911
 20
-1.57
 30
0.0
 40
0.125
100
AcDbArc
 50
180.0
 51
270.0
  0
LINE
  5
10C
100
AcDbEntity
  8
HIDDEN_LINE
  6
HIDDEN2
100
AcDbLine
 10
7.256911
 20
-1.156
 30
0.0
 11
7.756911
 21
-1.156
 31
0.0
  0
ARC
  5
10D
100
AcDbEntity
  8
0
100
AcDbCircle
 10
6.808471
 20
-0.57
 30
0.0
 40
0.125
100
AcDbArc
 50
90.0
 51
180.0
  0
ARC
  5
10E
100
AcDbEntity
  8
0
100
AcDbCircle
 10
7.131911
 20
-0.57
 30
0.0
 40
0.125
100
AcDbArc
 50
0.0
 51
90.0
  0
LINE
  5
10F
100
AcDbEntity
  8
0
100
AcDbLine
 10
6.805346
 20
-1.07
 30
0.0
 11
7.131911
 21
-1.07
 31
0.0
  0
LINE
  5
110
100
AcDbEntity
  8
0
100
AcDbLine
 10
7.256911
 20
-1.195
 30
0.0
 11
7.256911
 21
-0.57
 31
0.0
  0
ARC
  5
111
100
AcDbEntity
  8
0
100
AcDbCircle
 10
7.131911
 20
-1.195
 30
0.0
 40
0.125
100
AcDbArc
 50
0.0
 51
90.0
  0
LINE
  5
112
100
AcDbEntity
  8
0
100
AcDbLine
 10
6.808471
 20
-0.445
 30
0.0
 11
7.131911
 21
-0.445
 31
0.0
  0
LINE
  5
113
100
AcDbEntity
  8
0
100
AcDbLine
 10
7.256911
 20
0.93
 30
0.0
 11
7.256911
 21
1.555
 31
0.0
  0
ARC
  5
114
100
AcDbEntity
  8
0
100
AcDbCircle
 10
7.131911
 20
0.93
 30
0.0
 40
0.125
100
AcDbArc
 50
270.0
 51
360.0
  0
LINE
  5
115
100
AcDbEntity
  8
HIDDEN_LINE
  6
HIDDEN2
100
AcDbLine
 10
7.256911
 20
1.516
 30
0.0
 11
7.756911
 21
1.516
 31
0.0
  0
LINE
  5
116
100
AcDbEntity
  8
HIDDEN_LINE
  6
HIDDEN2
100
AcDbLine
 10
7.256911
 20
1.844
 30
0.0
 11
7.756911
 21
1.844
 31
0.0
  0
LINE
  5
117
100
AcDbEntity
  8
0
100
AcDbLine
 10
7.381911
 20
2.055
 30
0.0
 11
7.756911
 21
2.055
 31
0.0
  0
ARC
  5
118
100
AcDbEntity
  8
0
100
AcDbCircle
 10
7.381911
 20
1.93
 30
0.0
 40
0.125
100
AcDbArc
 50
90.0
 51
180.0
  0
LINE
  5
119
100
AcDbEntity
  8
0
100
AcDbLine
 10
7.256911
 20
1.93
 30
0.0
 11
7.256911
 21
1.555
 31
0.0
  0
ARC
  5
11A
100
AcDbEntity
  8
0
100
AcDbCircle
 10
7.131911
 20
1.555
 30
0.0
 40
0.125
100
AcDbArc
 50
270.0
 51
0.0
  0
LINE
  5
11B
100
AcDbEntity
  8
CTR_LINES
100
AcDbLine
 10
-4.705531
 20
-5.353507
 30
0.0
 11
-4.705531
 21
3.069591
 31
0.0
  0
LINE
  5
11C
100
AcDbEntity
  8
CTR_LINES
100
AcDbLine
 10
-3.580531
 20
-2.096576
 30
0.0
 11
-3.580531
 21
3.069591
 31
0.0
  0
LINE
  5
11D
100
AcDbEntity
  8
CTR_LINES
100
AcDbLine
 10
4.756911
 20
2.290616
 30
0.0
 11
4.756911
 21
-10.765229
 31
0.0
  0
ENDBLK
  5
11F
100
AcDbEntity
  8
0
100
AcDbBlockEnd
  0
BLOCK
  5
299
100
AcDbEntity
  8
0
100
AcDbBlockBegin
  2
*D5
 70
     1
 10
0.0
 20
0.0
 30
0.0
  3
*D5
  1

  0
LINE
  5
29A
100
AcDbEntity
  8
0
  6
BYBLOCK
 62
     0
100
AcDbLine
 10
15.571082
 20
3.066389
 30
0.0
 11
15.421082
 21
3.066389
 31
0.0
  0
LINE
  5
29B
100
AcDbEntity
  8
0
  6
BYBLOCK
 62
     0
100
AcDbLine
 10
15.421082
 20
3.066389
 30
0.0
 11
13.882808
 21
4.650393
 31
0.0
  0
MTEXT
  5
29C
100
AcDbEntity
  8
0
  6
BYBLOCK
 62
     0
100
AcDbMText
 10
16.336082
 20
3.066389
 30
0.0
 40
0.15
 41
0.0
 71
     5
 72
     1
  1
\A1;\U+2205.328 THRU\PX 3
  0
SOLID
  5
29D
100
AcDbEntity
  8
0
  6
BYBLOCK
 62
     0
100
AcDbTrace
 10
13.900743
 20
4.66781
 30
0.0
 11
13.864874
 21
4.632976
 31
0.0
 12
13.778307
 22
4.758001
 32
0.0
 13
13.778307
 23
4.758001
 33
0.0
  0
LINE
  5
29E
100
AcDbEntity
  8
0
  6
BYBLOCK
 62
     0
100
AcDbLine
 10
13.574052
 20
4.875652
 30
0.0
 11
13.754052
 21
4.875652
 31
0.0
  0
LINE
  5
29F
100
AcDbEntity
  8
0
  6
BYBLOCK
 62
     0
100
AcDbLine
 10
13.664052
 20
4.785652
 30
0.0
 11
13.664052
 21
4.965652
 31
0.0
  0
POINT
  5
2A0
100
AcDbEntity
  8
DEFPOINTS
  6
BYBLOCK
 62
     0
100
AcDbPoint
 10
13.778307
 20
4.758001
 30
0.0
  0
POINT
  5
2A1
100
AcDbEntity
  8
DEFPOINTS
  6
BYBLOCK
 62
     0
100
AcDbPoint
 10
13.549797
 20
4.993304
 30
0.0
  0
ENDBLK
  5
2A2
100
AcDbEntity
  8
0
100
AcDbBlockEnd
  0
BLOCK
  5
2B2
100
AcDbEntity
  8
0
100
AcDbBlockBegin
  2
*D6
 70
     1
 10
0.0
 20
0.0
 30
0.0
  3
*D6
  1

  0
LINE
  5
2B3
100
AcDbEntity
  8
0
  6
BYBLOCK
 62
     0
100
AcDbLine
 10
12.071052
 20
-0.686848
 30
0.0
 11
12.071052
 21
-1.503443
 31
0.0
  0
LINE
  5
2B4
100
AcDbEntity
  8
0
  6
BYBLOCK
 62
     0
100
AcDbLine
 10
12.257052
 20
-0.686848
 30
0.0
 11
12.257052
 21
-1.503443
 31
0.0
  0
LINE
  5
2B5
100
AcDbEntity
  8
0
  6
BYBLOCK
 62
     0
100
AcDbLine
 10
11.921052
 20
-1.323443
 30
0.0
 11
11.771052
 21
-1.323443
 31
0.0
  0
LINE
  5
2B6
100
AcDbEntity
  8
0
  6
BYBLOCK
 62
     0
100
AcDbLine
 10
12.407052
 20
-1.323443
 30
0.0
 11
12.557052
 21
-1.323443
 31
0.0
  0
SOLID
  5
2B7
100
AcDbEntity
  8
0
  6
BYBLOCK
 62
     0
100
AcDbTrace
 10
11.921052
 20
-1.298443
 30
0.0
 11
11.921052
 21
-1.348443
 31
0.0
 12
12.071052
 22
-1.323443
 32
0.0
 13
12.071052
 23
-1.323443
 33
0.0
  0
SOLID
  5
2B8
100
AcDbEntity
  8
0
  6
BYBLOCK
 62
     0
100
AcDbTrace
 10
12.407052
 20
-1.298443
 30
0.0
 11
12.407052
 21
-1.348443
 31
0.0
 12
12.257052
 22
-1.323443
 32
0.0
 13
12.257052
 23
-1.323443
 33
0.0
  0
MTEXT
  5
2B9
100
AcDbEntity
  8
0
  6
BYBLOCK
 62
     0
100
AcDbMText
 10
13.309552
 20
-1.323443
 30
0.0
 40
0.15
 41
0.0
 71
     5
 72
     1
  1
\A1;.187 X .093\PKEYWAY\PTYP.
  0
POINT
  5
2BA
100
AcDbEntity
  8
DEFPOINTS
  6
BYBLOCK
 62
     0
100
AcDbPoint
 10
12.071052
 20
-0.624348
 30
0.0
  0
POINT
  5
2BB
100
AcDbEntity
  8
DEFPOINTS
  6
BYBLOCK
 62
     0
100
AcDbPoint
 10
12.257052
 20
-0.624348
 30
0.0
  0
POINT
  5
2BC
100
AcDbEntity
  8
DEFPOINTS
  6
BYBLOCK
 62
     0
100
AcDbPoint
 10
12.257052
 20
-1.323443
 30
0.0
  0
ENDBLK
  5
2BD
100
AcDbEntity
  8
0
100
AcDbBlockEnd
  0
BLOCK
  5
2DA
100
AcDbEntity
  8
0
100
AcDbBlockBegin
  2
*D7
 70
     1
 10
0.0
 20
0.0
 30
0.0
  3
*D7
  1

  0
LINE
  5
2DB
100
AcDbEntity
  8
0
  6
BYBLOCK
 62
     0
100
AcDbLine
 10
13.976552
 20
1.875652
 30
0.0
 11
14.715064
 21
1.875652
 31
0.0
  0
LINE
  5
2DC
100
AcDbEntity
  8
0
  6
BYBLOCK
 62
     0
100
AcDbLine
 10
14.101552
 20
1.375652
 30
0.0
 11
14.715064
 21
1.375652
 31
0.0
  0
LINE
  5
2DD
100
AcDbEntity
  8
0
  6
BYBLOCK
 62
     0
100
AcDbLine
 10
14.535064
 20
1.725652
 30
0.0
 11
14.535064
 21
1.525652
 31
0.0
  0
LINE
  5
2DE
100
AcDbEntity
  8
0
  6
BYBLOCK
 62
     0
100
AcDbLine
 10
14.535064
 20
1.375652
 30
0.0
 11
14.535064
 21
0.693507
 31
0.0
  0
LINE
  5
2DF
100
AcDbEntity
  8
0
  6
BYBLOCK
 62
     0
100
AcDbLine
 10
14.535064
 20
0.693507
 30
0.0
 11
14.385064
 21
0.693507
 31
0.0
  0
SOLID
  5
2E0
100
AcDbEntity
  8
0
  6
BYBLOCK
 62
     0
100
AcDbTrace
 10
14.510064
 20
1.725652
 30
0.0
 11
14.560064
 21
1.725652
 31
0.0
 12
14.535064
 22
1.875652
 32
0.0
 13
14.535064
 23
1.875652
 33
0.0
  0
SOLID
  5
2E1
100
AcDbEntity
  8
0
  6
BYBLOCK
 62
     0
100
AcDbTrace
 10
14.510064
 20
1.525652
 30
0.0
 11
14.560064
 21
1.525652
 31
0.0
 12
14.535064
 22
1.375652
 32
0.0
 13
14.535064
 23
1.375652
 33
0.0
  0
MTEXT
  5
2E2
100
AcDbEntity
  8
0
  6
BYBLOCK
 62
     0
100
AcDbMText
 10
14.070064
 20
0.693507
 30
0.0
 40
0.15
 41
0.0
 71
     5
 72
     1
  1
\A1;.500\PTYP.
  0
POINT
  5
2E3
100
AcDbEntity
  8
DEFPOINTS
  6
BYBLOCK
 62
     0
100
AcDbPoint
 10
13.914052
 20
1.875652
 30
0.0
  0
POINT
  5
2E4
100
AcDbEntity
  8
DEFPOINTS
  6
BYBLOCK
 62
     0
100
AcDbPoint
 10
14.039052
 20
1.375652
 30
0.0
  0
POINT
  5
2E5
100
AcDbEntity
  8
DEFPOINTS
  6
BYBLOCK
 62
     0
100
AcDbPoint
 10
14.535064
 20
1.375652
 30
0.0
  0
ENDBLK
  5
2E6
100
AcDbEntity
  8
0
100
AcDbBlockEnd
  0
BLOCK
  5
310
100
AcDbEntity
  8
0
100
AcDbBlockBegin
  2
*D8
 70
     1
 10
0.0
 20
0.0
 30
0.0
  3
*D8
  1

  0
LINE
  5
311
100
AcDbEntity
  8
0
  6
BYBLOCK
 62
     0
100
AcDbLine
 10
9.164052
 20
8.313152
 30
0.0
 11
9.164052
 21
9.020402
 31
0.0
  0
LINE
  5
312
100
AcDbEntity
  8
0
  6
BYBLOCK
 62
     0
100
AcDbLine
 10
12.164052
 20
8.548769
 30
0.0
 11
12.164052
 21
9.020402
 31
0.0
  0
LINE
  5
313
100
AcDbEntity
  8
0
  6
BYBLOCK
 62
     0
100
AcDbLine
 10
9.314052
 20
8.840402
 30
0.0
 11
10.311552
 21
8.840402
 31
0.0
  0
LINE
  5
314
100
AcDbEntity
  8
0
  6
BYBLOCK
 62
     0
100
AcDbLine
 10
12.014052
 20
8.840402
 30
0.0
 11
11.016552
 21
8.840402
 31
0.0
  0
SOLID
  5
315
100
AcDbEntity
  8
0
  6
BYBLOCK
 62
     0
100
AcDbTrace
 10
9.314052
 20
8.865402
 30
0.0
 11
9.314052
 21
8.815402
 31
0.0
 12
9.164052
 22
8.840402
 32
0.0
 13
9.164052
 23
8.840402
 33
0.0
  0
SOLID
  5
316
100
AcDbEntity
  8
0
  6
BYBLOCK
 62
     0
100
AcDbTrace
 10
12.014052
 20
8.865402
 30
0.0
 11
12.014052
 21
8.815402
 31
0.0
 12
12.164052
 22
8.840402
 32
0.0
 13
12.164052
 23
8.840402
 33
0.0
  0
MTEXT
  5
317
100
AcDbEntity
  8
0
  6
BYBLOCK
 62
     0
100
AcDbMText
 10
10.664052
 20
8.840402
 30
0.0
 40
0.15
 41
0.0
 71
     5
 72
     1
  1
\A1;3.000\PTYP.
  0
POINT
  5
318
100
AcDbEntity
  8
DEFPOINTS
  6
BYBLOCK
 62
     0
100
AcDbPoint
 10
9.164052
 20
8.250652
 30
0.0
  0
POINT
  5
319
100
AcDbEntity
  8
DEFPOINTS
  6
BYBLOCK
 62
     0
100
AcDbPoint
 10
12.164052
 20
8.486269
 30
0.0
  0
POINT
  5
31A
100
AcDbEntity
  8
DEFPOINTS
  6
BYBLOCK
 62
     0
100
AcDbPoint
 10
12.164052
 20
8.840402
 30
0.0
  0
ENDBLK
  5
31B
100
AcDbEntity
  8
0
100
AcDbBlockEnd
  0
BLOCK
  5
31C
100
AcDbEntity
  8
0
100
AcDbBlockBegin
  2
*D9
 70
     1
 10
0.0
 20
0.0
 30
0.0
  3
*D9
  1

  0
LINE
  5
31D
100
AcDbEntity
  8
0
  6
BYBLOCK
 62
     0
100
AcDbLine
 10
13.664052
 20
8.0257
 30
0.0
 11
13.664052
 21
9.020402
 31
0.0
  0
LINE
  5
31E
100
AcDbEntity
  8
0
  6
BYBLOCK
 62
     0
100
AcDbLine
 10
12.314052
 20
8.840402
 30
0.0
 11
12.574052
 21
8.840402
 31
0.0
  0
LINE
  5
31F
100
AcDbEntity
  8
0
  6
BYBLOCK
 62
     0
100
AcDbLine
 10
13.514052
 20
8.840402
 30
0.0
 11
13.254052
 21
8.840402
 31
0.0
  0
SOLID
  5
320
100
AcDbEntity
  8
0
  6
BYBLOCK
 62
     0
100
AcDbTrace
 10
12.314052
 20
8.865402
 30
0.0
 11
12.314052
 21
8.815402
 31
0.0
 12
12.164052
 22
8.840402
 32
0.0
 13
12.164052
 23
8.840402
 33
0.0
  0
SOLID
  5
321
100
AcDbEntity
  8
0
  6
BYBLOCK
 62
     0
100
AcDbTrace
 10
13.514052
 20
8.865402
 30
0.0
 11
13.514052
 21
8.815402
 31
0.0
 12
13.664052
 22
8.840402
 32
0.0
 13
13.664052
 23
8.840402
 33
0.0
  0
MTEXT
  5
322
100
AcDbEntity
  8
0
  6
BYBLOCK
 62
     0
100
AcDbMText
 10
12.914052
 20
8.840402
 30
0.0
 40
0.15
 41
0.0
 71
     5
 72
     1
  1
\A1;1.500\PTYP.
  0
POINT
  5
323
100
AcDbEntity
  8
DEFPOINTS
  6
BYBLOCK
 62
     0
100
AcDbPoint
 10
12.164052
 20
8.486269
 30
0.0
  0
POINT
  5
324
100
AcDbEntity
  8
DEFPOINTS
  6
BYBLOCK
 62
     0
100
AcDbPoint
 10
13.664052
 20
7.9632
 30
0.0
  0
POINT
  5
325
100
AcDbEntity
  8
DEFPOINTS
  6
BYBLOCK
 62
     0
100
AcDbPoint
 10
13.664052
 20
8.840402
 30
0.0
  0
ENDBLK
  5
326
100
AcDbEntity
  8
0
100
AcDbBlockEnd
  0
BLOCK
  5
303
100
AcDbEntity
  8
0
100
AcDbBlockBegin
  2
*D10
 70
     1
 10
0.0
 20
0.0
 30
0.0
  3
*D10
  1

  0
LINE
  5
304
100
AcDbEntity
  8
0
  6
BYBLOCK
 62
     0
100
AcDbLine
 10
7.164052
 20
6.781152
 30
0.0
 11
7.164052
 21
9.732266
 31
0.0
  0
LINE
  5
305
100
AcDbEntity
  8
0
  6
BYBLOCK
 62
     0
100
AcDbLine
 10
17.164052
 20
6.781152
 30
0.0
 11
17.164052
 21
9.732266
 31
0.0
  0
LINE
  5
306
100
AcDbEntity
  8
0
  6
BYBLOCK
 62
     0
100
AcDbLine
 10
7.314052
 20
9.552266
 30
0.0
 11
11.774052
 21
9.552266
 31
0.0
  0
LINE
  5
307
100
AcDbEntity
  8
0
  6
BYBLOCK
 62
     0
100
AcDbLine
 10
17.014052
 20
9.552266
 30
0.0
 11
12.554052
 21
9.552266
 31
0.0
  0
SOLID
  5
308
100
AcDbEntity
  8
0
  6
BYBLOCK
 62
     0
100
AcDbTrace
 10
7.314052
 20
9.577266
 30
0.0
 11
7.314052
 21
9.527266
 31
0.0
 12
7.164052
 22
9.552266
 32
0.0
 13
7.164052
 23
9.552266
 33
0.0
  0
SOLID
  5
309
100
AcDbEntity
  8
0
  6
BYBLOCK
 62
     0
100
AcDbTrace
 10
17.014052
 20
9.577266
 30
0.0
 11
17.014052
 21
9.527266
 31
0.0
 12
17.164052
 22
9.552266
 32
0.0
 13
17.164052
 23
9.552266
 33
0.0
  0
MTEXT
  5
30A
100
AcDbEntity
  8
0
  6
BYBLOCK
 62
     0
100
AcDbMText
 10
12.164052
 20
9.552266
 30
0.0
 40
0.15
 41
0.0
 71
     5
 72
     1
  1
\A1;10.000
  0
POINT
  5
30B
100
AcDbEntity
  8
DEFPOINTS
  6
BYBLOCK
 62
     0
100
AcDbPoint
 10
7.164052
 20
6.718652
 30
0.0
  0
POINT
  5
30C
100
AcDbEntity
  8
DEFPOINTS
  6
BYBLOCK
 62
     0
100
AcDbPoint
 10
17.164052
 20
6.718652
 30
0.0
  0
POINT
  5
30D
100
AcDbEntity
  8
DEFPOINTS
  6
BYBLOCK
 62
     0
100
AcDbPoint
 10
17.164052
 20
9.552266
 30
0.0
  0
ENDBLK
  5
30E
100
AcDbEntity
  8
0
100
AcDbBlockEnd
  0
BLOCK
  5
335
100
AcDbEntity
  8
0
100
AcDbBlockBegin
  2
*D11
 70
     1
 10
0.0
 20
0.0
 30
0.0
  3
*D11
  1

  0
LINE
  5
336
100
AcDbEntity
  8
0
  6
BYBLOCK
 62
     0
100
AcDbLine
 10
8.84356
 20
7.875652
 30
0.0
 11
6.130903
 21
7.875652
 31
0.0
  0
LINE
  5
337
100
AcDbEntity
  8
0
  6
BYBLOCK
 62
     0
100
AcDbLine
 10
6.675443
 20
6.375652
 30
0.0
 11
6.130903
 21
6.375652
 31
0.0
  0
LINE
  5
338
100
AcDbEntity
  8
0
  6
BYBLOCK
 62
     0
100
AcDbLine
 10
6.310903
 20
7.725652
 30
0.0
 11
6.310903
 21
7.415652
 31
0.0
  0
LINE
  5
339
100
AcDbEntity
  8
0
  6
BYBLOCK
 62
     0
100
AcDbLine
 10
6.310903
 20
6.525652
 30
0.0
 11
6.310903
 21
6.835652
 31
0.0
  0
SOLID
  5
33A
100
AcDbEntity
  8
0
  6
BYBLOCK
 62
     0
100
AcDbTrace
 10
6.285903
 20
7.725652
 30
0.0
 11
6.335903
 21
7.725652
 31
0.0
 12
6.310903
 22
7.875652
 32
0.0
 13
6.310903
 23
7.875652
 33
0.0
  0
SOLID
  5
33B
100
AcDbEntity
  8
0
  6
BYBLOCK
 62
     0
100
AcDbTrace
 10
6.285903
 20
6.525652
 30
0.0
 11
6.335903
 21
6.525652
 31
0.0
 12
6.310903
 22
6.375652
 32
0.0
 13
6.310903
 23
6.375652
 33
0.0
  0
MTEXT
  5
33C
100
AcDbEntity
  8
0
  6
BYBLOCK
 62
     0
100
AcDbMText
 10
6.310903
 20
7.125652
 30
0.0
 40
0.15
 41
0.0
 71
     5
 72
     1
  1
\A1;1.500\PTYP.
  0
POINT
  5
33D
100
AcDbEntity
  8
DEFPOINTS
  6
BYBLOCK
 62
     0
100
AcDbPoint
 10
8.90606
 20
7.875652
 30
0.0
  0
POINT
  5
33E
100
AcDbEntity
  8
DEFPOINTS
  6
BYBLOCK
 62
     0
100
AcDbPoint
 10
6.737943
 20
6.375652
 30
0.0
  0
POINT
  5
33F
100
AcDbEntity
  8
DEFPOINTS
  6
BYBLOCK
 62
     0
100
AcDbPoint
 10
6.310903
 20
6.375652
 30
0.0
  0
ENDBLK
  5
340
100
AcDbEntity
  8
0
100
AcDbBlockEnd
  0
BLOCK
  5
34F
100
AcDbEntity
  8
0
100
AcDbBlockBegin
  2
*D12
 70
     1
 10
0.0
 20
0.0
 30
0.0
  3
*D12
  1

  0
LINE
  5
350
100
AcDbEntity
  8
0
  6
BYBLOCK
 62
     0
100
AcDbLine
 10
11.758552
 20
-0.624348
 30
0.0
 11
9.537318
 21
-0.624348
 31
0.0
  0
LINE
  5
351
100
AcDbEntity
  8
0
  6
BYBLOCK
 62
     0
100
AcDbLine
 10
10.226552
 20
1.375652
 30
0.0
 11
9.537318
 21
1.375652
 31
0.0
  0
LINE
  5
352
100
AcDbEntity
  8
0
  6
BYBLOCK
 62
     0
100
AcDbLine
 10
9.717318
 20
-0.474348
 30
0.0
 11
9.717318
 21
0.085652
 31
0.0
  0
LINE
  5
353
100
AcDbEntity
  8
0
  6
BYBLOCK
 62
     0
100
AcDbLine
 10
9.717318
 20
1.225652
 30
0.0
 11
9.717318
 21
0.665652
 31
0.0
  0
SOLID
  5
354
100
AcDbEntity
  8
0
  6
BYBLOCK
 62
     0
100
AcDbTrace
 10
9.692318
 20
-0.474348
 30
0.0
 11
9.742318
 21
-0.474348
 31
0.0
 12
9.717318
 22
-0.624348
 32
0.0
 13
9.717318
 23
-0.624348
 33
0.0
  0
SOLID
  5
355
100
AcDbEntity
  8
0
  6
BYBLOCK
 62
     0
100
AcDbTrace
 10
9.692318
 20
1.225652
 30
0.0
 11
9.742318
 21
1.225652
 31
0.0
 12
9.717318
 22
1.375652
 32
0.0
 13
9.717318
 23
1.375652
 33
0.0
  0
MTEXT
  5
356
100
AcDbEntity
  8
0
  6
BYBLOCK
 62
     0
100
AcDbMText
 10
9.717318
 20
0.375652
 30
0.0
 40
0.15
 41
0.0
 71
     5
 72
     1
  1
\A1;2.000\PTYP.
  0
POINT
  5
357
100
AcDbEntity
  8
DEFPOINTS
  6
BYBLOCK
 62
     0
100
AcDbPoint
 10
11.821052
 20
-0.624348
 30
0.0
  0
POINT
  5
358
100
AcDbEntity
  8
DEFPOINTS
  6
BYBLOCK
 62
     0
100
AcDbPoint
 10
10.289052
 20
1.375652
 30
0.0
  0
POINT
  5
359
100
AcDbEntity
  8
DEFPOINTS
  6
BYBLOCK
 62
     0
100
AcDbPoint
 10
9.717318
 20
1.375652
 30
0.0
  0
ENDBLK
  5
35A
100
AcDbEntity
  8
0
100
AcDbBlockEnd
  0
BLOCK
  5
375
100
AcDbEntity
  8
0
100
AcDbBlockBegin
  2
*D13
 70
     1
 10
0.0
 20
0.0
 30
0.0
  3
*D13
  1

  0
LINE
  5
376
100
AcDbEntity
  8
0
  6
BYBLOCK
 62
     0
100
AcDbLine
 10
4.522022
 20
7.875652
 30
0.0
 11
4.985743
 21
7.875652
 31
0.0
  0
LINE
  5
377
100
AcDbEntity
  8
0
  6
BYBLOCK
 62
     0
100
AcDbLine
 10
4.522022
 20
6.375652
 30
0.0
 11
4.985743
 21
6.375652
 31
0.0
  0
LINE
  5
378
100
AcDbEntity
  8
0
  6
BYBLOCK
 62
     0
100
AcDbLine
 10
4.805743
 20
7.725652
 30
0.0
 11
4.805743
 21
7.415652
 31
0.0
  0
LINE
  5
379
100
AcDbEntity
  8
0
  6
BYBLOCK
 62
     0
100
AcDbLine
 10
4.805743
 20
6.525652
 30
0.0
 11
4.805743
 21
6.835652
 31
0.0
  0
SOLID
  5
37A
100
AcDbEntity
  8
0
  6
BYBLOCK
 62
     0
100
AcDbTrace
 10
4.780743
 20
7.725652
 30
0.0
 11
4.830743
 21
7.725652
 31
0.0
 12
4.805743
 22
7.875652
 32
0.0
 13
4.805743
 23
7.875652
 33
0.0
  0
SOLID
  5
37B
100
AcDbEntity
  8
0
  6
BYBLOCK
 62
     0
100
AcDbTrace
 10
4.780743
 20
6.525652
 30
0.0
 11
4.830743
 21
6.525652
 31
0.0
 12
4.805743
 22
6.375652
 32
0.0
 13
4.805743
 23
6.375652
 33
0.0
  0
MTEXT
  5
37C
100
AcDbEntity
  8
0
  6
BYBLOCK
 62
     0
100
AcDbMText
 10
4.805743
 20
7.125652
 30
0.0
 40
0.15
 41
0.0
 71
     5
 72
     1
  1
\A1;1.500\PTYP.
  0
POINT
  5
37D
100
AcDbEntity
  8
DEFPOINTS
  6
BYBLOCK
 62
     0
100
AcDbPoint
 10
4.459522
 20
7.875652
 30
0.0
  0
POINT
  5
37E
100
AcDbEntity
  8
DEFPOINTS
  6
BYBLOCK
 62
     0
100
AcDbPoint
 10
4.459522
 20
6.375652
 30
0.0
  0
POINT
  5
37F
100
AcDbEntity
  8
DEFPOINTS
  6
BYBLOCK
 62
     0
100
AcDbPoint
 10
4.805743
 20
6.375652
 30
0.0
  0
ENDBLK
  5
380
100
AcDbEntity
  8
0
100
AcDbBlockEnd
  0
BLOCK
  5
382
100
AcDbEntity
  8
0
100
AcDbBlockBegin
  2
*D14
 70
     1
 10
0.0
 20
0.0
 30
0.0
  3
*D14
  1

  0
LINE
  5
383
100
AcDbEntity
  8
0
  6
BYBLOCK
 62
     0
100
AcDbLine
 10
1.201611
 20
8.375652
 30
0.0
 11
1.201611
 21
9.25769
 31
0.0
  0
LINE
  5
384
100
AcDbEntity
  8
0
  6
BYBLOCK
 62
     0
100
AcDbLine
 10
2.701611
 20
8.62067
 30
0.0
 11
2.701611
 21
9.25769
 31
0.0
  0
LINE
  5
385
100
AcDbEntity
  8
0
  6
BYBLOCK
 62
     0
100
AcDbLine
 10
1.351611
 20
9.07769
 30
0.0
 11
1.611611
 21
9.07769
 31
0.0
  0
LINE
  5
386
100
AcDbEntity
  8
0
  6
BYBLOCK
 62
     0
100
AcDbLine
 10
2.551611
 20
9.07769
 30
0.0
 11
2.291611
 21
9.07769
 31
0.0
  0
SOLID
  5
387
100
AcDbEntity
  8
0
  6
BYBLOCK
 62
     0
100
AcDbTrace
 10
1.351611
 20
9.10269
 30
0.0
 11
1.351611
 21
9.05269
 31
0.0
 12
1.201611
 22
9.07769
 32
0.0
 13
1.201611
 23
9.07769
 33
0.0
  0
SOLID
  5
388
100
AcDbEntity
  8
0
  6
BYBLOCK
 62
     0
100
AcDbTrace
 10
2.551611
 20
9.10269
 30
0.0
 11
2.551611
 21
9.05269
 31
0.0
 12
2.701611
 22
9.07769
 32
0.0
 13
2.701611
 23
9.07769
 33
0.0
  0
MTEXT
  5
389
100
AcDbEntity
  8
0
  6
BYBLOCK
 62
     0
100
AcDbMText
 10
1.951611
 20
9.07769
 30
0.0
 40
0.15
 41
0.0
 71
     5
 72
     1
  1
\A1;1.500
  0
POINT
  5
38A
100
AcDbEntity
  8
DEFPOINTS
  6
BYBLOCK
 62
     0
100
AcDbPoint
 10
1.201611
 20
8.313152
 30
0.0
  0
POINT
  5
38B
100
AcDbEntity
  8
DEFPOINTS
  6
BYBLOCK
 62
     0
100
AcDbPoint
 10
2.701611
 20
8.55817
 30
0.0
  0
POINT
  5
38C
100
AcDbEntity
  8
DEFPOINTS
  6
BYBLOCK
 62
     0
100
AcDbPoint
 10
2.701611
 20
9.07769
 30
0.0
  0
ENDBLK
  5
38D
100
AcDbEntity
  8
0
100
AcDbBlockEnd
  0
BLOCK
  5
39C
100
AcDbEntity
  8
0
100
AcDbBlockBegin
  2
*D15
 70
     1
 10
0.0
 20
0.0
 30
0.0
  3
*D15
  1

  0
LINE
  5
39D
100
AcDbEntity
  8
0
  6
BYBLOCK
 62
     0
100
AcDbLine
 10
3.826611
 20
8.62067
 30
0.0
 11
3.826611
 21
9.25769
 31
0.0
  0
LINE
  5
39E
100
AcDbEntity
  8
0
  6
BYBLOCK
 62
     0
100
AcDbLine
 10
2.551611
 20
9.07769
 30
0.0
 11
2.401611
 21
9.07769
 31
0.0
  0
LINE
  5
39F
100
AcDbEntity
  8
0
  6
BYBLOCK
 62
     0
100
AcDbLine
 10
3.976611
 20
9.07769
 30
0.0
 11
4.126611
 21
9.07769
 31
0.0
  0
SOLID
  5
3A0
100
AcDbEntity
  8
0
  6
BYBLOCK
 62
     0
100
AcDbTrace
 10
2.551611
 20
9.10269
 30
0.0
 11
2.551611
 21
9.05269
 31
0.0
 12
2.701611
 22
9.07769
 32
0.0
 13
2.701611
 23
9.07769
 33
0.0
  0
SOLID
  5
3A1
100
AcDbEntity
  8
0
  6
BYBLOCK
 62
     0
100
AcDbTrace
 10
3.976611
 20
9.10269
 30
0.0
 11
3.976611
 21
9.05269
 31
0.0
 12
3.826611
 22
9.07769
 32
0.0
 13
3.826611
 23
9.07769
 33
0.0
  0
MTEXT
  5
3A2
100
AcDbEntity
  8
0
  6
BYBLOCK
 62
     0
100
AcDbMText
 10
3.264111
 20
9.07769
 30
0.0
 40
0.15
 41
0.0
 71
     5
 72
     1
  1
\A1;1.125\PTYP.
  0
POINT
  5
3A3
100
AcDbEntity
  8
DEFPOINTS
  6
BYBLOCK
 62
     0
100
AcDbPoint
 10
2.701611
 20
8.55817
 30
0.0
  0
POINT
  5
3A4
100
AcDbEntity
  8
DEFPOINTS
  6
BYBLOCK
 62
     0
100
AcDbPoint
 10
3.826611
 20
8.55817
 30
0.0
  0
POINT
  5
3A5
100
AcDbEntity
  8
DEFPOINTS
  6
BYBLOCK
 62
     0
100
AcDbPoint
 10
3.826611
 20
9.07769
 30
0.0
  0
ENDBLK
  5
3A6
100
AcDbEntity
  8
0
100
AcDbBlockEnd
  0
BLOCK
  5
3A8
100
AcDbEntity
  8
0
100
AcDbBlockBegin
  2
*D16
 70
     1
 10
0.0
 20
0.0
 30
0.0
  3
*D16
  1

  0
LINE
  5
3A9
100
AcDbEntity
  8
0
  6
BYBLOCK
 62
     0
100
AcDbLine
 10
1.201611
 20
8.375652
 30
0.0
 11
1.201611
 21
9.930007
 31
0.0
  0
LINE
  5
3AA
100
AcDbEntity
  8
0
  6
BYBLOCK
 62
     0
100
AcDbLine
 10
4.201611
 20
8.375652
 30
0.0
 11
4.201611
 21
9.930007
 31
0.0
  0
LINE
  5
3AB
100
AcDbEntity
  8
0
  6
BYBLOCK
 62
     0
100
AcDbLine
 10
1.351611
 20
9.750007
 30
0.0
 11
2.349111
 21
9.750007
 31
0.0
  0
LINE
  5
3AC
100
AcDbEntity
  8
0
  6
BYBLOCK
 62
     0
100
AcDbLine
 10
4.051611
 20
9.750007
 30
0.0
 11
3.054111
 21
9.750007
 31
0.0
  0
SOLID
  5
3AD
100
AcDbEntity
  8
0
  6
BYBLOCK
 62
     0
100
AcDbTrace
 10
1.351611
 20
9.775007
 30
0.0
 11
1.351611
 21
9.725007
 31
0.0
 12
1.201611
 22
9.750007
 32
0.0
 13
1.201611
 23
9.750007
 33
0.0
  0
SOLID
  5
3AE
100
AcDbEntity
  8
0
  6
BYBLOCK
 62
     0
100
AcDbTrace
 10
4.051611
 20
9.775007
 30
0.0
 11
4.051611
 21
9.725007
 31
0.0
 12
4.201611
 22
9.750007
 32
0.0
 13
4.201611
 23
9.750007
 33
0.0
  0
MTEXT
  5
3AF
100
AcDbEntity
  8
0
  6
BYBLOCK
 62
     0
100
AcDbMText
 10
2.701611
 20
9.750007
 30
0.0
 40
0.15
 41
0.0
 71
     5
 72
     1
  1
\A1;3.000
  0
POINT
  5
3B0
100
AcDbEntity
  8
DEFPOINTS
  6
BYBLOCK
 62
     0
100
AcDbPoint
 10
1.201611
 20
8.313152
 30
0.0
  0
POINT
  5
3B1
100
AcDbEntity
  8
DEFPOINTS
  6
BYBLOCK
 62
     0
100
AcDbPoint
 10
4.201611
 20
8.313152
 30
0.0
  0
POINT
  5
3B2
100
AcDbEntity
  8
DEFPOINTS
  6
BYBLOCK
 62
     0
100
AcDbPoint
 10
4.201611
 20
9.750007
 30
0.0
  0
ENDBLK
  5
3B3
100
AcDbEntity
  8
0
100
AcDbBlockEnd
  0
BLOCK
  5
3B6
100
AcDbEntity
  8
0
100
AcDbBlockBegin
  2
*D17
 70
     1
 10
0.0
 20
0.0
 30
0.0
  3
*D17
  1

  0
LINE
  5
3B7
100
AcDbEntity
  8
0
  6
BYBLOCK
 62
     0
100
AcDbLine
 10
1.201611
 20
1.375652
 30
0.0
 11
0.38753
 21
1.375652
 31
0.0
  0
LINE
  5
3B8
100
AcDbEntity
  8
0
  6
BYBLOCK
 62
     0
100
AcDbLine
 10
0.938308
 20
6.375652
 30
0.0
 11
0.38753
 21
6.375652
 31
0.0
  0
LINE
  5
3B9
100
AcDbEntity
  8
0
  6
BYBLOCK
 62
     0
100
AcDbLine
 10
0.56753
 20
1.525652
 30
0.0
 11
0.56753
 21
3.710652
 31
0.0
  0
LINE
  5
3BA
100
AcDbEntity
  8
0
  6
BYBLOCK
 62
     0
100
AcDbLine
 10
0.56753
 20
6.225652
 30
0.0
 11
0.56753
 21
4.040652
 31
0.0
  0
SOLID
  5
3BB
100
AcDbEntity
  8
0
  6
BYBLOCK
 62
     0
100
AcDbTrace
 10
0.54253
 20
1.525652
 30
0.0
 11
0.59253
 21
1.525652
 31
0.0
 12
0.56753
 22
1.375652
 32
0.0
 13
0.56753
 23
1.375652
 33
0.0
  0
SOLID
  5
3BC
100
AcDbEntity
  8
0
  6
BYBLOCK
 62
     0
100
AcDbTrace
 10
0.54253
 20
6.225652
 30
0.0
 11
0.59253
 21
6.225652
 31
0.0
 12
0.56753
 22
6.375652
 32
0.0
 13
0.56753
 23
6.375652
 33
0.0
  0
MTEXT
  5
3BD
100
AcDbEntity
  8
0
  6
BYBLOCK
 62
     0
100
AcDbMText
 10
0.56753
 20
3.875652
 30
0.0
 40
0.15
 41
0.0
 71
     5
 72
     1
  1
\A1;5.000
  0
POINT
  5
3BE
100
AcDbEntity
  8
DEFPOINTS
  6
BYBLOCK
 62
     0
100
AcDbPoint
 10
1.264111
 20
1.375652
 30
0.0
  0
POINT
  5
3BF
100
AcDbEntity
  8
DEFPOINTS
  6
BYBLOCK
 62
     0
100
AcDbPoint
 10
1.000808
 20
6.375652
 30
0.0
  0
POINT
  5
3C0
100
AcDbEntity
  8
DEFPOINTS
  6
BYBLOCK
 62
     0
100
AcDbPoint
 10
0.56753
 20
6.375652
 30
0.0
  0
ENDBLK
  5
3C1
100
AcDbEntity
  8
0
100
AcDbBlockEnd
  0
BLOCK
  5
3DD
100
AcDbEntity
  8
0
100
AcDbBlockBegin
  2
*D18
 70
     1
 10
0.0
 20
0.0
 30
0.0
  3
*D18
  1

  0
LINE
  5
3DE
100
AcDbEntity
  8
0
  6
BYBLOCK
 62
     0
100
AcDbLine
 10
2.296111
 20
-0.624348
 30
0.0
 11
-0.483879
 21
-0.624348
 31
0.0
  0
LINE
  5
3DF
100
AcDbEntity
  8
0
  6
BYBLOCK
 62
     0
100
AcDbLine
 10
1.139111
 20
8.313152
 30
0.0
 11
-0.483879
 21
8.313152
 31
0.0
  0
LINE
  5
3E0
100
AcDbEntity
  8
0
  6
BYBLOCK
 62
     0
100
AcDbLine
 10
-0.303879
 20
-0.474348
 30
0.0
 11
-0.303879
 21
4.68105
 31
0.0
  0
LINE
  5
3E1
100
AcDbEntity
  8
0
  6
BYBLOCK
 62
     0
100
AcDbLine
 10
-0.303879
 20
8.163152
 30
0.0
 11
-0.303879
 21
5.01105
 31
0.0
  0
SOLID
  5
3E2
100
AcDbEntity
  8
0
  6
BYBLOCK
 62
     0
100
AcDbTrace
 10
-0.328879
 20
-0.474348
 30
0.0
 11
-0.278879
 21
-0.474348
 31
0.0
 12
-0.303879
 22
-0.624348
 32
0.0
 13
-0.303879
 23
-0.624348
 33
0.0
  0
SOLID
  5
3E3
100
AcDbEntity
  8
0
  6
BYBLOCK
 62
     0
100
AcDbTrace
 10
-0.328879
 20
8.163152
 30
0.0
 11
-0.278879
 21
8.163152
 31
0.0
 12
-0.303879
 22
8.313152
 32
0.0
 13
-0.303879
 23
8.313152
 33
0.0
  0
MTEXT
  5
3E4
100
AcDbEntity
  8
0
  6
BYBLOCK
 62
     0
100
AcDbMText
 10
-0.303879
 20
4.84605
 30
0.0
 40
0.15
 41
0.0
 71
     5
 72
     1
  1
\A1;8.94
  0
POINT
  5
3E5
100
AcDbEntity
  8
DEFPOINTS
  6
BYBLOCK
 62
     0
100
AcDbPoint
 10
2.358611
 20
-0.624348
 30
0.0
  0
POINT
  5
3E6
100
AcDbEntity
  8
DEFPOINTS
  6
BYBLOCK
 62
     0
100
AcDbPoint
 10
1.201611
 20
8.313152
 30
0.0
  0
POINT
  5
3E7
100
AcDbEntity
  8
DEFPOINTS
  6
BYBLOCK
 62
     0
100
AcDbPoint
 10
-0.303879
 20
8.313152
 30
0.0
  0
ENDBLK
  5
3E8
100
AcDbEntity
  8
0
100
AcDbBlockEnd
  0
BLOCK
  5
403
100
AcDbEntity
  8
0
100
AcDbBlockBegin
  2
*D19
 70
     1
 10
0.0
 20
0.0
 30
0.0
  3
*D19
  1

  0
LINE
  5
404
100
AcDbEntity
  8
0
  6
BYBLOCK
 62
     0
100
AcDbLine
 10
3.076611
 20
-0.654848
 30
0.0
 11
3.076611
 21
-1.819827
 31
0.0
  0
LINE
  5
405
100
AcDbEntity
  8
0
  6
BYBLOCK
 62
     0
100
AcDbLine
 10
2.326611
 20
-0.654848
 30
0.0
 11
2.326611
 21
-1.819827
 31
0.0
  0
LINE
  5
406
100
AcDbEntity
  8
0
  6
BYBLOCK
 62
     0
100
AcDbLine
 10
2.926611
 20
-1.639827
 30
0.0
 11
2.476611
 21
-1.639827
 31
0.0
  0
LINE
  5
407
100
AcDbEntity
  8
0
  6
BYBLOCK
 62
     0
100
AcDbLine
 10
2.326611
 20
-1.639827
 30
0.0
 11
1.816438
 21
-1.639827
 31
0.0
  0
SOLID
  5
408
100
AcDbEntity
  8
0
  6
BYBLOCK
 62
     0
100
AcDbTrace
 10
2.926611
 20
-1.614827
 30
0.0
 11
2.926611
 21
-1.664827
 31
0.0
 12
3.076611
 22
-1.639827
 32
0.0
 13
3.076611
 23
-1.639827
 33
0.0
  0
SOLID
  5
409
100
AcDbEntity
  8
0
  6
BYBLOCK
 62
     0
100
AcDbTrace
 10
2.476611
 20
-1.614827
 30
0.0
 11
2.476611
 21
-1.664827
 31
0.0
 12
2.326611
 22
-1.639827
 32
0.0
 13
2.326611
 23
-1.639827
 33
0.0
  0
MTEXT
  5
40A
100
AcDbEntity
  8
0
  6
BYBLOCK
 62
     0
100
AcDbMText
 10
1.438938
 20
-1.639827
 30
0.0
 40
0.15
 41
0.0
 71
     5
 72
     1
  1
\A1;\U+2205.750\PTYP.
  0
POINT
  5
40B
100
AcDbEntity
  8
DEFPOINTS
  6
BYBLOCK
 62
     0
100
AcDbPoint
 10
3.076611
 20
-0.592348
 30
0.0
  0
POINT
  5
40C
100
AcDbEntity
  8
DEFPOINTS
  6
BYBLOCK
 62
     0
100
AcDbPoint
 10
2.326611
 20
-0.592348
 30
0.0
  0
POINT
  5
40D
100
AcDbEntity
  8
DEFPOINTS
  6
BYBLOCK
 62
     0
100
AcDbPoint
 10
2.326611
 20
-1.639827
 30
0.0
  0
ENDBLK
  5
40E
100
AcDbEntity
  8
0
100
AcDbBlockEnd
  0
BLOCK
  5
425
100
AcDbEntity
  8
0
100
AcDbBlockBegin
  2
*D20
 70
     1
 10
0.0
 20
0.0
 30
0.0
  3
*D20
  1

  0
LINE
  5
426
100
AcDbEntity
  8
0
  6
BYBLOCK
 62
     0
100
AcDbLine
 10
5.431057
 20
3.659609
 30
0.0
 11
5.281057
 21
3.659609
 31
0.0
  0
LINE
  5
427
100
AcDbEntity
  8
0
  6
BYBLOCK
 62
     0
100
AcDbLine
 10
5.281057
 20
3.659609
 30
0.0
 11
4.067506
 21
4.674243
 31
0.0
  0
MTEXT
  5
428
100
AcDbEntity
  8
0
  6
BYBLOCK
 62
     0
100
AcDbMText
 10
6.196057
 20
3.659609
 30
0.0
 40
0.15
 41
0.0
 71
     5
 72
     1
  1
\A1;\U+2205.328 THRU\PX 4\PTYP.
  0
SOLID
  5
429
100
AcDbEntity
  8
0
  6
BYBLOCK
 62
     0
100
AcDbTrace
 10
4.083542
 20
4.693423
 30
0.0
 11
4.05147
 21
4.655064
 31
0.0
 12
3.952429
 22
4.770458
 32
0.0
 13
3.952429
 23
4.770458
 33
0.0
  0
LINE
  5
42A
100
AcDbEntity
  8
0
  6
BYBLOCK
 62
     0
100
AcDbLine
 10
3.736611
 20
4.875652
 30
0.0
 11
3.916611
 21
4.875652
 31
0.0
  0
LINE
  5
42B
100
AcDbEntity
  8
0
  6
BYBLOCK
 62
     0
100
AcDbLine
 10
3.826611
 20
4.785652
 30
0.0
 11
3.826611
 21
4.965652
 31
0.0
  0
POINT
  5
42C
100
AcDbEntity
  8
DEFPOINTS
  6
BYBLOCK
 62
     0
100
AcDbPoint
 10
3.952429
 20
4.770458
 30
0.0
  0
POINT
  5
42D
100
AcDbEntity
  8
DEFPOINTS
  6
BYBLOCK
 62
     0
100
AcDbPoint
 10
3.700793
 20
4.980847
 30
0.0
  0
ENDBLK
  5
42E
100
AcDbEntity
  8
0
100
AcDbBlockEnd
  0
BLOCK
  5
498
100
AcDbEntity
  8
0
100
AcDbBlockBegin
  2
*D21
 70
     1
 10
0.0
 20
0.0
 30
0.0
  3
*D21
  1

  0
LINE
  5
499
100
AcDbEntity
  8
0
  6
BYBLOCK
 62
     0
100
AcDbLine
 10
0.52748
 20
9.353728
 30
0.0
 11
0.67748
 21
9.353728
 31
0.0
  0
LINE
  5
49A
100
AcDbEntity
  8
0
  6
BYBLOCK
 62
     0
100
AcDbLine
 10
0.67748
 20
9.353728
 30
0.0
 11
2.143259
 21
6.131212
 31
0.0
  0
MTEXT
  5
49B
100
AcDbEntity
  8
0
  6
BYBLOCK
 62
     0
100
AcDbMText
 10
-0.06252
 20
9.353728
 30
0.0
 40
0.15
 41
0.0
 71
     5
 72
     1
  1
\A1;SPANNER\PWRENCH\PHOLES
  0
SOLID
  5
49C
100
AcDbEntity
  8
0
  6
BYBLOCK
 62
     0
100
AcDbTrace
 10
2.166015
 20
6.141563
 30
0.0
 11
2.120502
 21
6.120861
 31
0.0
 12
2.205364
 22
5.994673
 32
0.0
 13
2.205364
 23
5.994673
 33
0.0
  0
LINE
  5
49D
100
AcDbEntity
  8
0
  6
BYBLOCK
 62
     0
100
AcDbLine
 10
2.154077
 20
5.909563
 30
0.0
 11
2.334077
 21
5.909563
 31
0.0
  0
LINE
  5
49E
100
AcDbEntity
  8
0
  6
BYBLOCK
 62
     0
100
AcDbLine
 10
2.244077
 20
5.819563
 30
0.0
 11
2.244077
 21
5.999563
 31
0.0
  0
POINT
  5
49F
100
AcDbEntity
  8
DEFPOINTS
  6
BYBLOCK
 62
     0
100
AcDbPoint
 10
2.205364
 20
5.994673
 30
0.0
  0
POINT
  5
4A0
100
AcDbEntity
  8
DEFPOINTS
  6
BYBLOCK
 62
     0
100
AcDbPoint
 10
2.282789
 20
5.824454
 30
0.0
  0
ENDBLK
  5
4A1
100
AcDbEntity
  8
0
100
AcDbBlockEnd
  0
BLOCK
  5
4B6
100
AcDbEntity
  8
0
100
AcDbBlockBegin
  2
TITLE_BLOCK
 70
     0
 10
0.0
 20
0.0
 30
0.0
  3
TITLE_BLOCK
  1

  0
TEXT
  5
4A8
100
AcDbEntity
  8
DIMS_TEXT
100
AcDbText
 10
-2.625251
 20
-1.013129
 30
0.0
 40
0.2
  1
HAR121   135818(C1)/135817(C2)   1:1
 41
0.7
100
AcDbText
  0
TEXT
  5
4A9
100
AcDbEntity
  8
DIMS_TEXT
100
AcDbText
 10
-2.687755
 20
-0.107889
 30
0.0
 40
0.15
  1
Tel. (508) 278-2422     Fax (508) 278-7863
 41
0.9
100
AcDbText
  0
TEXT
  5
4AA
100
AcDbEntity
  8
DIMS_TEXT
100
AcDbText
 10
-2.413383
 20
0.524379
 30
0.0
 40
0.2
  1
Two Way Right Angle Gear Drive
 41
0.9
100
AcDbText
  0
TEXT
  5
4AB
100
AcDbEntity
  8
DIMS_TEXT
100
AcDbText
 10
-1.826671
 20
0.987066
 30
0.0
 40
0.3
  1
 MITRPAK
 41
1.5
100
AcDbText
  0
LINE
  5
4AC
100
AcDbEntity
  8
DIMS_TEXT
100
AcDbLine
 10
-2.723037
 20
-0.533096
 30
0.0
 11
2.500333
 21
-0.533096
 31
0.0
  0
LINE
  5
4AD
100
AcDbEntity
  8
DIMS_TEXT
100
AcDbLine
 10
-2.723037
 20
-0.199514
 30
0.0
 11
2.500333
 21
-0.199514
 31
0.0
  0
LINE
  5
4AE
100
AcDbEntity
  8
DIMS_TEXT
100
AcDbLine
 10
-2.723037
 20
0.125931
 30
0.0
 11
2.500333
 21
0.125931
 31
0.0
  0
LINE
  5
4AF
100
AcDbEntity
  8
DIMS_TEXT
100
AcDbLine
 10
-2.723037
 20
0.451377
 30
0.0
 11
2.500333
 21
0.451377
 31
0.0
  0
LINE
  5
4B0
100
AcDbEntity
  8
DIMS_TEXT
100
AcDbLine
 10
-2.723037
 20
0.874457
 30
0.0
 11
2.500333
 21
0.874457
 31
0.0
  0
TEXT
  5
4B1
100
AcDbEntity
  8
DIMS_TEXT
100
AcDbText
 10
-2.6334
 20
-0.468007
 30
0.0
 40
0.2
  1
MODEL   PART NUMBER  RATIO
100
AcDbText
  0
LWPOLYLINE
  5
4B2
100
AcDbEntity
  8
DIMS_TEXT
100
AcDbPolyline
 90
        4
 70
     1
 43
0.0
 10
-2.723037
 20
1.39517
 10
2.500333
 20
1.39517
 10
2.500333
 20
-1.143307
 10
-2.723037
 20
-1.143307
  0
TEXT
  5
4B3
100
AcDbEntity
  8
DIMS_TEXT
100
AcDbText
 10
-2.687755
 20
0.215921
 30
0.0
 40
0.15
  1
Uxbridge, MA 01569              U.S.A.
100
AcDbText
  0
LINE
  5
4B4
100
AcDbEntity
  8
DIMS_TEXT
100
AcDbLine
 10
-1.394785
 20
-0.199514
 30
0.0
 11
-1.394785
 21
-1.143307
 31
0.0
  0
LINE
  5
4B5
100
AcDbEntity
  8
DIMS_TEXT
100
AcDbLine
 10
1.294313
 20
-0.199514
 30
0.0
 11
1.294313
 21
-1.143307
 31
0.0
  0
ENDBLK
  5
4B7
100
AcDbEntity
  8
0
100
AcDbBlockEnd
  0
ENDSEC
  0
SECTION
  2
ENTITIES
  0
LINE
  5
121
100
AcDbEntity
  8
CTR_LINES
100
AcDbLine
 10
6.737943
 20
6.375652
 30
0.0
 11
15.332072
 21
6.375652
 31
0.0
  0
LINE
  5
123
100
AcDbEntity
  8
0
100
AcDbLine
 10
10.289052
 20
1.375652
 30
0.0
 11
14.039052
 21
1.375652
 31
0.0
  0
LINE
  5
124
100
AcDbEntity
  8
CTR_LINES
100
AcDbLine
 10
13.117522
 20
4.875652
 30
0.0
 11
14.309311
 21
4.875652
 31
0.0
  0
LINE
  5
126
100
AcDbEntity
  8
CTR_LINES
100
AcDbLine
 10
8.90606
 20
7.875652
 30
0.0
 11
12.731943
 21
7.875652
 31
0.0
  0
LINE
  5
127
100
AcDbEntity
  8
CTR_LINES
100
AcDbLine
 10
13.439958
 20
6.375652
 30
0.0
 11
17.709417
 21
6.375652
 31
0.0
  0
LINE
  5
128
100
AcDbEntity
  8
0
100
AcDbLine
 10
12.726552
 20
7.000652
 30
0.0
 11
14.539052
 21
7.000652
 31
0.0
  0
LINE
  5
129
100
AcDbEntity
  8
0
100
AcDbLine
 10
13.539052
 20
1.875652
 30
0.0
 11
13.914052
 21
1.875652
 31
0.0
  0
LINE
  5
12A
100
AcDbEntity
  8
0
100
AcDbLine
 10
12.712488
 20
7.625652
 30
0.0
 11
14.539052
 21
7.625652
 31
0.0
  0
CIRCLE
  5
12D
100
AcDbEntity
  8
0
100
AcDbCircle
 10
13.664052
 20
4.875652
 30
0.0
 40
0.164
  0
LINE
  5
132
100
AcDbEntity
  8
0
100
AcDbLine
 10
2.326611
 20
2.000652
 30
0.0
 11
2.326611
 21
4.313152
 31
0.0
  0
LINE
  5
133
100
AcDbEntity
  8
0
100
AcDbLine
 10
3.076611
 20
2.000652
 30
0.0
 11
3.076611
 21
4.313152
 31
0.0
  0
LINE
  5
134
100
AcDbEntity
  8
0
100
AcDbLine
 10
4.139111
 20
1.750652
 30
0.0
 11
4.139111
 21
4.438152
 31
0.0
  0
LINE
  5
135
100
AcDbEntity
  8
0
100
AcDbLine
 10
1.264111
 20
1.750652
 30
0.0
 11
1.264111
 21
4.438152
 31
0.0
  0
LINE
  5
136
100
AcDbEntity
  8
0
100
AcDbLine
 10
11.539052
 20
4.313152
 30
0.0
 11
11.539052
 21
2.000652
 31
0.0
  0
LINE
  5
137
100
AcDbEntity
  8
0
100
AcDbLine
 10
12.789052
 20
4.313152
 30
0.0
 11
12.789052
 21
2.000652
 31
0.0
  0
LINE
  5
138
100
AcDbEntity
  8
0
100
AcDbLine
 10
10.914052
 20
4.327217
 30
0.0
 11
10.914052
 21
2.000652
 31
0.0
  0
LINE
  5
139
100
AcDbEntity
  8
0
100
AcDbLine
 10
13.414052
 20
4.313152
 30
0.0
 11
13.414052
 21
2.000652
 31
0.0
  0
LINE
  5
13A
100
AcDbEntity
  8
CTR_LINES
100
AcDbLine
 10
13.664052
 20
7.9632
 30
0.0
 11
13.664052
 21
4.323381
 31
0.0
  0
LINE
  5
13B
100
AcDbEntity
  8
0
100
AcDbLine
 10
1.389111
 20
1.875652
 30
0.0
 11
1.951611
 21
1.875652
 31
0.0
  0
LINE
  5
13C
100
AcDbEntity
  8
0
100
AcDbLine
 10
1.264111
 20
1.375652
 30
0.0
 11
4.139111
 21
1.375652
 31
0.0
  0
ARC
  5
13F
100
AcDbEntity
  8
0
100
AcDbCircle
 10
1.389111
 20
1.750652
 30
0.0
 40
0.125
100
AcDbArc
 50
90.0
 51
180.0
  0
LINE
  5
140
100
AcDbEntity
  8
0
100
AcDbLine
 10
1.264111
 20
1.375652
 30
0.0
 11
1.264111
 21
1.750652
 31
0.0
  0
LINE
  5
141
100
AcDbEntity
  8
0
100
AcDbLine
 10
2.201611
 20
1.875652
 30
0.0
 11
3.201611
 21
1.875652
 31
0.0
  0
LINE
  5
142
100
AcDbEntity
  8
0
100
AcDbLine
 10
1.951611
 20
1.875652
 30
0.0
 11
2.201611
 21
1.875652
 31
0.0
  0
ARC
  5
143
100
AcDbEntity
  8
0
100
AcDbCircle
 10
2.201611
 20
2.000652
 30
0.0
 40
0.125
100
AcDbArc
 50
270.0
 51
0.0
  0
ARC
  5
146
100
AcDbEntity
  8
0
100
AcDbCircle
 10
4.014111
 20
1.750652
 30
0.0
 40
0.125
100
AcDbArc
 50
0.0
 51
90.0
  0
LINE
  5
147
100
AcDbEntity
  8
0
100
AcDbLine
 10
4.139111
 20
1.375652
 30
0.0
 11
4.139111
 21
1.750652
 31
0.0
  0
LINE
  5
148
100
AcDbEntity
  8
0
100
AcDbLine
 10
3.451611
 20
1.875652
 30
0.0
 11
4.014111
 21
1.875652
 31
0.0
  0
LINE
  5
149
100
AcDbEntity
  8
0
100
AcDbLine
 10
3.201611
 20
1.875652
 30
0.0
 11
3.451611
 21
1.875652
 31
0.0
  0
ARC
  5
14A
100
AcDbEntity
  8
0
100
AcDbCircle
 10
3.201611
 20
2.000652
 30
0.0
 40
0.125
100
AcDbArc
 50
180.0
 51
270.0
  0
LINE
  5
14B
100
AcDbEntity
  8
0
100
AcDbLine
 10
10.414052
 20
1.875652
 30
0.0
 11
11.414052
 21
1.875652
 31
0.0
  0
ARC
  5
14E
100
AcDbEntity
  8
0
100
AcDbCircle
 10
10.414052
 20
1.750652
 30
0.0
 40
0.125
100
AcDbArc
 50
90.0
 51
180.0
  0
LINE
  5
14F
100
AcDbEntity
  8
0
100
AcDbLine
 10
10.289052
 20
1.750652
 30
0.0
 11
10.289052
 21
1.375652
 31
0.0
  0
LINE
  5
150
100
AcDbEntity
  8
0
100
AcDbLine
 10
10.414052
 20
1.875652
 30
0.0
 11
10.789052
 21
1.875652
 31
0.0
  0
ARC
  5
151
100
AcDbEntity
  8
0
100
AcDbCircle
 10
10.789052
 20
2.000652
 30
0.0
 40
0.125
100
AcDbArc
 50
270.0
 51
0.0
  0
ARC
  5
152
100
AcDbEntity
  8
0
100
AcDbCircle
 10
11.414052
 20
2.000652
 30
0.0
 40
0.125
100
AcDbArc
 50
270.0
 51
0.0
  0
LINE
  5
154
100
AcDbEntity
  8
0
100
AcDbLine
 10
13.664052
 20
1.875652
 30
0.0
 11
12.914052
 21
1.875652
 31
0.0
  0
ARC
  5
155
100
AcDbEntity
  8
0
100
AcDbCircle
 10
12.914052
 20
2.000652
 30
0.0
 40
0.125
100
AcDbArc
 50
180.0
 51
270.0
  0
ARC
  5
156
100
AcDbEntity
  8
0
100
AcDbCircle
 10
13.539052
 20
2.000652
 30
0.0
 40
0.125
100
AcDbArc
 50
180.0
 51
270.0
  0
ARC
  5
157
100
AcDbEntity
  8
0
100
AcDbCircle
 10
3.826611
 20
4.813152
 30
0.0
 40
0.3125
100
AcDbArc
 50
270.0
 51
0.0
  0
ARC
  5
158
100
AcDbEntity
  8
0
100
AcDbCircle
 10
3.826611
 20
7.938152
 30
0.0
 40
0.3125
100
AcDbArc
 50
0.0
 51
90.0
  0
ARC
  5
159
100
AcDbEntity
  8
0
100
AcDbCircle
 10
4.199111
 20
7.378152
 30
0.0
 40
0.06
100
AcDbArc
 50
90.0
 51
180.0
  0
LINE
  5
15B
100
AcDbEntity
  8
0
100
AcDbLine
 10
1.201611
 20
8.313152
 30
0.0
 11
4.201611
 21
8.313152
 31
0.0
  0
LINE
  5
15C
100
AcDbEntity
  8
0
100
AcDbLine
 10
3.451611
 20
4.438152
 30
0.0
 11
4.201611
 21
4.438152
 31
0.0
  0
LINE
  5
15E
100
AcDbEntity
  8
CTR_LINES
100
AcDbLine
 10
3.419305
 20
7.875652
 30
0.0
 11
4.459522
 21
7.875652
 31
0.0
  0
LINE
  5
15F
100
AcDbEntity
  8
CTR_LINES
100
AcDbLine
 10
1.000808
 20
6.375652
 30
0.0
 11
4.459522
 21
6.375652
 31
0.0
  0
CIRCLE
  5
161
100
AcDbEntity
  8
0
100
AcDbCircle
 10
2.701611
 20
6.375652
 30
0.0
 40
0.925
  0
LINE
  5
162
100
AcDbEntity
  8
0
100
AcDbLine
 10
1.264111
 20
5.822145
 30
0.0
 11
1.264111
 21
6.929159
 31
0.0
  0
LINE
  5
163
100
AcDbEntity
  8
0
100
AcDbLine
 10
4.139111
 20
5.822145
 30
0.0
 11
4.139111
 21
6.929159
 31
0.0
  0
LINE
  5
164
100
AcDbEntity
  8
0
100
AcDbLine
 10
4.139111
 20
4.813152
 30
0.0
 11
4.139111
 21
7.938152
 31
0.0
  0
LINE
  5
165
100
AcDbEntity
  8
0
100
AcDbLine
 10
1.264111
 20
4.813152
 30
0.0
 11
1.264111
 21
7.938152
 31
0.0
  0
LINE
  5
166
100
AcDbEntity
  8
0
100
AcDbLine
 10
1.576611
 20
4.438152
 30
0.0
 11
2.201611
 21
4.438152
 31
0.0
  0
LINE
  5
168
100
AcDbEntity
  8
0
100
AcDbLine
 10
1.201611
 20
4.438152
 30
0.0
 11
1.951611
 21
4.438152
 31
0.0
  0
LINE
  5
169
100
AcDbEntity
  8
0
100
AcDbLine
 10
1.576611
 20
4.500652
 30
0.0
 11
3.826611
 21
4.500652
 31
0.0
  0
CIRCLE
  5
16A
100
AcDbEntity
  8
0
100
AcDbCircle
 10
1.576611
 20
4.875652
 30
0.0
 40
0.164
  0
LINE
  5
16B
100
AcDbEntity
  8
0
100
AcDbLine
 10
1.201611
 20
4.438152
 30
0.0
 11
1.201611
 21
5.938152
 31
0.0
  0
ARC
  5
16C
100
AcDbEntity
  8
0
100
AcDbCircle
 10
1.576611
 20
4.813152
 30
0.0
 40
0.3125
100
AcDbArc
 50
180.0
 51
270.0
  0
CIRCLE
  5
170
100
AcDbEntity
  8
0
100
AcDbCircle
 10
3.826611
 20
4.875652
 30
0.0
 40
0.164
  0
ARC
  5
171
100
AcDbEntity
  8
0
100
AcDbCircle
 10
2.201611
 20
4.313152
 30
0.0
 40
0.125
100
AcDbArc
 50
0.0
 51
90.0
  0
ARC
  5
172
100
AcDbEntity
  8
0
100
AcDbCircle
 10
3.201611
 20
4.313152
 30
0.0
 40
0.125
100
AcDbArc
 50
90.0
 51
180.0
  0
LINE
  5
173
100
AcDbEntity
  8
0
100
AcDbLine
 10
3.201611
 20
4.438152
 30
0.0
 11
3.826611
 21
4.438152
 31
0.0
  0
LINE
  5
17A
100
AcDbEntity
  8
0
100
AcDbLine
 10
1.576611
 20
8.250652
 30
0.0
 11
3.826611
 21
8.250652
 31
0.0
  0
LINE
  5
17B
100
AcDbEntity
  8
0
100
AcDbLine
 10
1.201611
 20
7.438152
 30
0.0
 11
1.201611
 21
8.313152
 31
0.0
  0
ARC
  5
17D
100
AcDbEntity
  8
0
100
AcDbCircle
 10
1.204111
 20
7.378152
 30
0.0
 40
0.06
100
AcDbArc
 50
0.0
 51
90.0
  0
LINE
  5
17E
100
AcDbEntity
  8
0
100
AcDbLine
 10
1.201611
 20
7.438152
 30
0.0
 11
1.204111
 21
7.438152
 31
0.0
  0
ARC
  5
17F
100
AcDbEntity
  8
0
100
AcDbCircle
 10
1.576611
 20
7.938152
 30
0.0
 40
0.3125
100
AcDbArc
 50
90.0
 51
180.0
  0
CIRCLE
  5
180
100
AcDbEntity
  8
0
100
AcDbCircle
 10
1.576611
 20
7.875652
 30
0.0
 40
0.164
  0
CIRCLE
  5
186
100
AcDbEntity
  8
0
100
AcDbCircle
 10
3.826611
 20
7.875652
 30
0.0
 40
0.164
  0
LINE
  5
187
100
AcDbEntity
  8
0
100
AcDbLine
 10
4.201611
 20
4.438152
 30
0.0
 11
4.201611
 21
5.313152
 31
0.0
  0
LINE
  5
189
100
AcDbEntity
  8
0
100
AcDbLine
 10
4.201611
 20
7.438152
 30
0.0
 11
4.201611
 21
8.313152
 31
0.0
  0
LINE
  5
18A
100
AcDbEntity
  8
0
100
AcDbLine
 10
4.199111
 20
7.438152
 30
0.0
 11
4.201611
 21
7.438152
 31
0.0
  0
LINE
  5
18B
100
AcDbEntity
  8
0
100
AcDbLine
 10
9.164052
 20
8.250652
 30
0.0
 11
9.164052
 21
4.500652
 31
0.0
  0
LINE
  5
18C
100
AcDbEntity
  8
0
100
AcDbLine
 10
10.664052
 20
4.438152
 30
0.0
 11
11.414052
 21
4.438152
 31
0.0
  0
LINE
  5
18D
100
AcDbEntity
  8
0
100
AcDbLine
 10
10.226552
 20
4.875652
 30
0.0
 11
10.226552
 21
5.625652
 31
0.0
  0
LINE
  5
18E
100
AcDbEntity
  8
0
100
AcDbLine
 10
9.664052
 20
4.625652
 30
0.0
 11
9.664052
 21
5.000652
 31
0.0
  0
LINE
  5
18F
100
AcDbEntity
  8
0
100
AcDbLine
 10
9.664052
 20
5.625652
 30
0.0
 11
9.664052
 21
4.875652
 31
0.0
  0
ARC
  5
190
100
AcDbEntity
  8
0
100
AcDbCircle
 10
10.115617
 20
5.000652
 30
0.0
 40
0.125
100
AcDbArc
 50
347.160412
 51
90.0
  0
CIRCLE
  5
191
100
AcDbEntity
  8
0
100
AcDbCircle
 10
10.664052
 20
4.875652
 30
0.0
 40
0.4375
  0
CIRCLE
  5
192
100
AcDbEntity
  8
0
100
AcDbCircle
 10
10.664052
 20
4.875652
 30
0.0
 40
0.164
  0
ARC
  5
195
100
AcDbEntity
  8
0
100
AcDbCircle
 10
9.539052
 20
4.625652
 30
0.0
 40
0.125
100
AcDbArc
 50
270.0
 51
360.0
  0
LINE
  5
196
100
AcDbEntity
  8
0
100
AcDbLine
 10
9.164052
 20
4.500652
 30
0.0
 11
9.539052
 21
4.500652
 31
0.0
  0
ARC
  5
197
100
AcDbEntity
  8
0
100
AcDbCircle
 10
10.789052
 20
4.327217
 30
0.0
 40
0.125
100
AcDbArc
 50
0.0
 51
102.839588
  0
ARC
  5
198
100
AcDbEntity
  8
0
100
AcDbCircle
 10
10.101552
 20
5.625652
 30
0.0
 40
0.125
100
AcDbArc
 50
0.0
 51
90.0
  0
ARC
  5
199
100
AcDbEntity
  8
0
100
AcDbCircle
 10
9.789052
 20
5.625652
 30
0.0
 40
0.125
100
AcDbArc
 50
90.0
 51
180.0
  0
LINE
  5
19B
100
AcDbEntity
  8
0
100
AcDbLine
 10
9.789052
 20
5.125652
 30
0.0
 11
10.115617
 21
5.125652
 31
0.0
  0
ARC
  5
19C
100
AcDbEntity
  8
0
100
AcDbCircle
 10
9.789052
 20
5.000652
 30
0.0
 40
0.125
100
AcDbArc
 50
90.0
 51
180.0
  0
LINE
  5
19D
100
AcDbEntity
  8
0
100
AcDbLine
 10
9.789052
 20
5.750652
 30
0.0
 11
10.101552
 21
5.750652
 31
0.0
  0
ARC
  5
19F
100
AcDbEntity
  8
0
100
AcDbCircle
 10
11.414052
 20
4.313152
 30
0.0
 40
0.125
100
AcDbArc
 50
0.0
 51
90.0
  0
ARC
  5
1A0
100
AcDbEntity
  8
0
100
AcDbCircle
 10
12.914052
 20
4.313152
 30
0.0
 40
0.125
100
AcDbArc
 50
90.0
 51
180.0
  0
LINE
  5
1A2
100
AcDbEntity
  8
0
100
AcDbLine
 10
13.539052
 20
4.438152
 30
0.0
 11
13.664052
 21
4.438152
 31
0.0
  0
LINE
  5
1A6
100
AcDbEntity
  8
0
100
AcDbLine
 10
9.789052
 20
7.000652
 30
0.0
 11
11.601552
 21
7.000652
 31
0.0
  0
LINE
  5
1A7
100
AcDbEntity
  8
0
100
AcDbLine
 10
9.789052
 20
7.625652
 30
0.0
 11
11.615617
 21
7.625652
 31
0.0
  0
LINE
  5
1A8
100
AcDbEntity
  8
0
100
AcDbLine
 10
9.664052
 20
7.875652
 30
0.0
 11
9.664052
 21
7.125652
 31
0.0
  0
ARC
  5
1A9
100
AcDbEntity
  8
0
100
AcDbCircle
 10
9.789052
 20
7.125652
 30
0.0
 40
0.125
100
AcDbArc
 50
180.0
 51
270.0
  0
ARC
  5
1AA
100
AcDbEntity
  8
0
100
AcDbCircle
 10
9.539052
 20
8.125652
 30
0.0
 40
0.125
100
AcDbArc
 50
0.0
 51
90.0
  0
LINE
  5
1AD
100
AcDbEntity
  8
0
100
AcDbLine
 10
9.664052
 20
8.125652
 30
0.0
 11
9.664052
 21
7.750652
 31
0.0
  0
ARC
  5
1AE
100
AcDbEntity
  8
0
100
AcDbCircle
 10
9.789052
 20
7.750652
 30
0.0
 40
0.125
100
AcDbArc
 50
180.0
 51
270.0
  0
LINE
  5
1AF
100
AcDbEntity
  8
0
100
AcDbLine
 10
9.164052
 20
8.250652
 30
0.0
 11
9.539052
 21
8.250652
 31
0.0
  0
LINE
  5
1B0
100
AcDbEntity
  8
0
100
AcDbLine
 10
11.726552
 20
7.875652
 30
0.0
 11
11.726552
 21
7.125652
 31
0.0
  0
LINE
  5
1B1
100
AcDbEntity
  8
0
100
AcDbLine
 10
12.601552
 20
7.875652
 30
0.0
 11
12.601552
 21
7.125652
 31
0.0
  0
CIRCLE
  5
1B2
100
AcDbEntity
  8
0
100
AcDbCircle
 10
12.164052
 20
7.875652
 30
0.0
 40
0.4375
  0
ARC
  5
1B3
100
AcDbEntity
  8
0
100
AcDbCircle
 10
11.601552
 20
7.125652
 30
0.0
 40
0.125
100
AcDbArc
 50
270.0
 51
0.0
  0
ARC
  5
1B4
100
AcDbEntity
  8
0
100
AcDbCircle
 10
12.726552
 20
7.125652
 30
0.0
 40
0.125
100
AcDbArc
 50
180.0
 51
270.0
  0
ARC
  5
1B5
100
AcDbEntity
  8
0
100
AcDbCircle
 10
12.712488
 20
7.750652
 30
0.0
 40
0.125
100
AcDbArc
 50
167.160412
 51
270.0
  0
ARC
  5
1B6
100
AcDbEntity
  8
0
100
AcDbCircle
 10
11.615617
 20
7.750652
 30
0.0
 40
0.125
100
AcDbArc
 50
270.0
 51
12.839588
  0
CIRCLE
  5
1B7
100
AcDbEntity
  8
0
100
AcDbCircle
 10
12.164052
 20
7.875652
 30
0.0
 40
0.164
  0
ARC
  5
1B9
100
AcDbEntity
  8
0
100
AcDbCircle
 10
13.914052
 20
1.750652
 30
0.0
 40
0.125
100
AcDbArc
 50
360.0
 51
90.0
  0
LINE
  5
1BA
100
AcDbEntity
  8
0
100
AcDbLine
 10
14.039052
 20
1.750652
 30
0.0
 11
14.039052
 21
1.375652
 31
0.0
  0
LINE
  5
1BB
100
AcDbEntity
  8
0
100
AcDbLine
 10
15.164052
 20
8.250652
 30
0.0
 11
15.164052
 21
4.500652
 31
0.0
  0
LINE
  5
1BC
100
AcDbEntity
  8
0
100
AcDbLine
 10
14.101552
 20
4.875652
 30
0.0
 11
14.099756
 21
4.998829
 31
0.0
  0
LINE
  5
1BD
100
AcDbEntity
  8
0
100
AcDbLine
 10
14.664052
 20
4.625652
 30
0.0
 11
14.664052
 21
5.000652
 31
0.0
  0
LINE
  5
1C0
100
AcDbEntity
  8
0
100
AcDbLine
 10
14.789052
 20
4.500652
 30
0.0
 11
15.164052
 21
4.500652
 31
0.0
  0
ARC
  5
1C1
100
AcDbEntity
  8
0
100
AcDbCircle
 10
14.789052
 20
4.625652
 30
0.0
 40
0.125
100
AcDbArc
 50
180.0
 51
270.0
  0
ARC
  5
1C3
100
AcDbEntity
  8
0
100
AcDbCircle
 10
14.215613
 20
5.625652
 30
0.0
 40
0.125
100
AcDbArc
 50
90.0
 51
180.0
  0
ARC
  5
1C4
100
AcDbEntity
  8
0
100
AcDbCircle
 10
14.539052
 20
5.625652
 30
0.0
 40
0.125
100
AcDbArc
 50
0.0
 51
90.0
  0
LINE
  5
1C5
100
AcDbEntity
  8
0
100
AcDbLine
 10
14.224742
 20
5.125652
 30
0.0
 11
14.539052
 21
5.125652
 31
0.0
  0
LINE
  5
1C6
100
AcDbEntity
  8
0
100
AcDbLine
 10
14.664052
 20
5.000652
 30
0.0
 11
14.664052
 21
5.625652
 31
0.0
  0
ARC
  5
1C7
100
AcDbEntity
  8
0
100
AcDbCircle
 10
14.539052
 20
5.000652
 30
0.0
 40
0.125
100
AcDbArc
 50
0.0
 51
90.0
  0
LINE
  5
1C8
100
AcDbEntity
  8
0
100
AcDbLine
 10
14.215613
 20
5.750652
 30
0.0
 11
14.539052
 21
5.750652
 31
0.0
  0
LINE
  5
1C9
100
AcDbEntity
  8
0
100
AcDbLine
 10
14.664052
 20
7.125652
 30
0.0
 11
14.664052
 21
7.750652
 31
0.0
  0
ARC
  5
1CA
100
AcDbEntity
  8
0
100
AcDbCircle
 10
14.539052
 20
7.125652
 30
0.0
 40
0.125
100
AcDbArc
 50
270.0
 51
360.0
  0
LINE
  5
1CD
100
AcDbEntity
  8
0
100
AcDbLine
 10
14.789052
 20
8.250652
 30
0.0
 11
15.164052
 21
8.250652
 31
0.0
  0
ARC
  5
1CE
100
AcDbEntity
  8
0
100
AcDbCircle
 10
14.789052
 20
8.125652
 30
0.0
 40
0.125
100
AcDbArc
 50
90.0
 51
180.0
  0
LINE
  5
1CF
100
AcDbEntity
  8
0
100
AcDbLine
 10
14.664052
 20
8.125652
 30
0.0
 11
14.664052
 21
7.750652
 31
0.0
  0
ARC
  5
1D0
100
AcDbEntity
  8
0
100
AcDbCircle
 10
14.539052
 20
7.750652
 30
0.0
 40
0.125
100
AcDbArc
 50
270.0
 51
0.0
  0
LINE
  5
1D1
100
AcDbEntity
  8
CTR_LINES
100
AcDbLine
 10
2.701611
 20
-0.89136
 30
0.0
 11
2.701611
 21
8.55817
 31
0.0
  0
LINE
  5
1D2
100
AcDbEntity
  8
CTR_LINES
100
AcDbLine
 10
3.826611
 20
7.298233
 30
0.0
 11
3.826611
 21
8.55817
 31
0.0
  0
LINE
  5
1D3
100
AcDbEntity
  8
CTR_LINES
100
AcDbLine
 10
12.164052
 20
8.486269
 30
0.0
 11
12.164052
 21
-1.26168
 31
0.0
  0
CIRCLE
  5
23C
100
AcDbEntity
  8
0
100
AcDbCircle
 10
13.664052
 20
4.875652
 30
0.0
 40
0.4375
  0
ARC
  5
23D
100
AcDbEntity
  8
0
100
AcDbCircle
 10
14.224742
 20
5.000652
 30
0.0
 40
0.125
100
AcDbArc
 50
90.0
 51
180.835636
  0
ARC
  5
23E
100
AcDbEntity
  8
0
100
AcDbCircle
 10
13.539052
 20
4.313152
 30
0.0
 40
0.125
100
AcDbArc
 50
90.0
 51
180.0
  0
LINE
  5
240
100
AcDbEntity
  8
0
100
AcDbLine
 10
12.914052
 20
4.438152
 30
0.0
 11
13.664052
 21
4.438152
 31
0.0
  0
LINE
  5
241
100
AcDbEntity
  8
0
100
AcDbLine
 10
14.090613
 20
5.625652
 30
0.0
 11
14.101366
 21
4.888412
 31
0.0
  0
LINE
  5
242
100
AcDbEntity
  8
0
100
AcDbLine
 10
1.202111
 20
5.938152
 30
0.0
 11
1.201611
 21
5.938152
 31
0.0
  0
LINE
  5
243
100
AcDbEntity
  8
0
100
AcDbLine
 10
4.201111
 20
5.313152
 30
0.0
 11
4.201611
 21
5.313152
 31
0.0
  0
ARC
  5
245
100
AcDbEntity
  8
0
100
AcDbCircle
 10
1.202111
 20
6.000152
 30
0.0
 40
0.062
100
AcDbArc
 50
270.0
 51
0.0
  0
ARC
  5
246
100
AcDbEntity
  8
0
100
AcDbCircle
 10
4.201111
 20
5.375152
 30
0.0
 40
0.062
100
AcDbArc
 50
180.0
 51
270.0
  0
LINE
  5
24A
100
AcDbEntity
  8
0
100
AcDbLine
 10
3.076611
 20
-0.592348
 30
0.0
 11
3.076611
 21
1.375652
 31
0.0
  0
LINE
  5
24B
100
AcDbEntity
  8
0
100
AcDbLine
 10
2.326611
 20
-0.592348
 30
0.0
 11
2.326611
 21
1.375652
 31
0.0
  0
LINE
  5
24C
100
AcDbEntity
  8
0
100
AcDbLine
 10
12.539052
 20
1.375652
 30
0.0
 11
12.539052
 21
-0.592348
 31
0.0
  0
LINE
  5
24D
100
AcDbEntity
  8
0
100
AcDbLine
 10
11.789052
 20
1.375652
 30
0.0
 11
11.789052
 21
-0.592348
 31
0.0
  0
LINE
  5
24E
100
AcDbEntity
  8
0
100
AcDbLine
 10
7.196052
 20
6.750652
 30
0.0
 11
9.164052
 21
6.750652
 31
0.0
  0
LINE
  5
24F
100
AcDbEntity
  8
0
100
AcDbLine
 10
7.196052
 20
6.000652
 30
0.0
 11
9.164052
 21
6.000652
 31
0.0
  0
LINE
  5
252
100
AcDbEntity
  8
0
100
AcDbLine
 10
2.358611
 20
-0.624348
 30
0.0
 11
3.044611
 21
-0.624348
 31
0.0
  0
LINE
  5
253
100
AcDbEntity
  8
0
100
AcDbLine
 10
11.821052
 20
-0.624348
 30
0.0
 11
12.507052
 21
-0.624348
 31
0.0
  0
LINE
  5
254
100
AcDbEntity
  8
0
100
AcDbLine
 10
7.164052
 20
6.718652
 30
0.0
 11
7.164052
 21
6.032652
 31
0.0
  0
LINE
  5
255
100
AcDbEntity
  8
0
100
AcDbLine
 10
17.164052
 20
6.718652
 30
0.0
 11
17.164052
 21
6.032652
 31
0.0
  0
LINE
  5
256
100
AcDbEntity
  8
0
100
AcDbLine
 10
15.164052
 20
6.000652
 30
0.0
 11
17.132052
 21
6.000652
 31
0.0
  0
LINE
  5
257
100
AcDbEntity
  8
0
100
AcDbLine
 10
15.164052
 20
6.750652
 30
0.0
 11
17.132052
 21
6.750652
 31
0.0
  0
LINE
  5
258
100
AcDbEntity
  8
0
100
AcDbLine
 10
7.196052
 20
6.750652
 30
0.0
 11
7.164052
 21
6.718652
 31
0.0
  0
LINE
  5
259
100
AcDbEntity
  8
0
100
AcDbLine
 10
7.196052
 20
6.000652
 30
0.0
 11
7.164052
 21
6.032652
 31
0.0
  0
LINE
  5
25A
100
AcDbEntity
  8
0
100
AcDbLine
 10
11.789052
 20
-0.592348
 30
0.0
 11
11.821052
 21
-0.624348
 31
0.0
  0
LINE
  5
25B
100
AcDbEntity
  8
0
100
AcDbLine
 10
12.507052
 20
-0.624348
 30
0.0
 11
12.539052
 21
-0.592348
 31
0.0
  0
LINE
  5
25C
100
AcDbEntity
  8
0
100
AcDbLine
 10
17.132052
 20
6.000652
 30
0.0
 11
17.164052
 21
6.032652
 31
0.0
  0
LINE
  5
25D
100
AcDbEntity
  8
0
100
AcDbLine
 10
17.164052
 20
6.718652
 30
0.0
 11
17.132052
 21
6.750652
 31
0.0
  0
LINE
  5
25E
100
AcDbEntity
  8
0
100
AcDbLine
 10
3.044611
 20
-0.624348
 30
0.0
 11
3.076611
 21
-0.592348
 31
0.0
  0
LINE
  5
25F
100
AcDbEntity
  8
0
100
AcDbLine
 10
2.358611
 20
-0.624348
 30
0.0
 11
2.326611
 21
-0.592348
 31
0.0
  0
LINE
  5
260
100
AcDbEntity
  8
0
100
AcDbLine
 10
2.326611
 20
-0.592348
 30
0.0
 11
3.076611
 21
-0.592348
 31
0.0
  0
LINE
  5
261
100
AcDbEntity
  8
0
100
AcDbLine
 10
11.789052
 20
-0.592348
 30
0.0
 11
12.071052
 21
-0.592348
 31
0.0
  0
LINE
  5
262
100
AcDbEntity
  8
0
100
AcDbLine
 10
17.132052
 20
6.000652
 30
0.0
 11
17.132052
 21
6.282652
 31
0.0
  0
LINE
  5
263
100
AcDbEntity
  8
0
100
AcDbLine
 10
7.196052
 20
6.000652
 30
0.0
 11
7.196052
 21
6.282652
 31
0.0
  0
LINE
  5
264
100
AcDbEntity
  8
0
100
AcDbLine
 10
7.164052
 20
6.468652
 30
0.0
 11
8.929352
 21
6.468652
 31
0.0
  0
LINE
  5
265
100
AcDbEntity
  8
0
100
AcDbLine
 10
7.164052
 20
6.282652
 30
0.0
 11
8.929352
 21
6.282652
 31
0.0
  0
LINE
  5
266
100
AcDbEntity
  8
0
100
AcDbLine
 10
12.257052
 20
1.140952
 30
0.0
 11
12.257052
 21
-0.624348
 31
0.0
  0
LINE
  5
267
100
AcDbEntity
  8
CTR_LINES
100
AcDbLine
 10
12.164052
 20
8.486269
 30
0.0
 11
12.164052
 21
-1.26168
 31
0.0
  0
LINE
  5
268
100
AcDbEntity
  8
0
100
AcDbLine
 10
12.071052
 20
1.140952
 30
0.0
 11
12.071052
 21
-0.624348
 31
0.0
  0
LINE
  5
26C
100
AcDbEntity
  8
0
100
AcDbLine
 10
15.398752
 20
6.468652
 30
0.0
 11
17.164052
 21
6.468652
 31
0.0
  0
LINE
  5
26D
100
AcDbEntity
  8
0
100
AcDbLine
 10
15.398752
 20
6.282652
 30
0.0
 11
17.164052
 21
6.282652
 31
0.0
  0
LINE
  5
275
100
AcDbEntity
  8
HIDDEN_LINE
100
AcDbLine
 10
2.966611
 20
-0.624348
 30
0.0
 11
2.966611
 21
0.875652
 31
0.0
  0
ARC
  5
277
100
AcDbEntity
  8
HIDDEN_LINE
100
AcDbCircle
 10
3.341611
 20
0.875652
 30
0.0
 40
0.375
100
AcDbArc
 50
134.964349
 51
180.0
  0
LINE
  5
278
100
AcDbEntity
  8
0
100
AcDbLine
 10
15.398752
 20
6.468652
 30
0.0
 11
15.398752
 21
6.282652
 31
0.0
  0
LINE
  5
279
100
AcDbEntity
  8
0
100
AcDbLine
 10
8.929352
 20
6.468652
 30
0.0
 11
8.929352
 21
6.282652
 31
0.0
  0
LINE
  5
27A
100
AcDbEntity
  8
0
100
AcDbLine
 10
12.071052
 20
1.140952
 30
0.0
 11
12.257052
 21
1.140952
 31
0.0
  0
LINE
  5
27B
100
AcDbEntity
  8
0
100
AcDbLine
 10
12.257052
 20
-0.592348
 30
0.0
 11
12.539052
 21
-0.592348
 31
0.0
  0
LINE
  5
27C
100
AcDbEntity
  8
0
100
AcDbLine
 10
17.132052
 20
6.468652
 30
0.0
 11
17.132052
 21
6.750652
 31
0.0
  0
LINE
  5
27D
100
AcDbEntity
  8
0
100
AcDbLine
 10
7.196052
 20
6.468652
 30
0.0
 11
7.196052
 21
6.750652
 31
0.0
  0
DIMENSION
  5
298
100
AcDbEntity
  8
DIMS_TEXT
100
AcDbDimension
  2
*D5
 10
13.549797
 20
4.993304
 30
0.0
 11
16.336082
 21
3.066389
 31
0.0
 70
   163
  1
<> THRU\PX 3
  3
STANDARD
100
AcDbDiametricDimension
 15
13.778307
 25
4.758001
 35
0.0
 40
0.0
1001
ACAD
1000
DSTYLE
1002
{
1070
    78
1070
     4
1070
   288
1070
     1
1070
   140
1040
0.15
1070
   271
1070
     3
1070
    41
1040
0.15
1002
}
  0
DIMENSION
  5
2B1
100
AcDbEntity
  8
DIMS_TEXT
100
AcDbDimension
  2
*D6
 10
12.257052
 20
-1.323443
 30
0.0
 11
13.309552
 21
-1.323443
 31
0.0
 70
    32
  1
.187 X .093\PKEYWAY\PTYP.
  3
STANDARD
100
AcDbAlignedDimension
 13
12.071052
 23
-0.624348
 33
0.0
 14
12.257052
 24
-0.624348
 34
0.0
100
AcDbRotatedDimension
1001
ACAD
1000
DSTYLE
1002
{
1070
    78
1070
     4
1070
   140
1040
0.15
1070
   271
1070
     3
1070
    41
1040
0.15
1002
}
  0
DIMENSION
  5
2CC
100
AcDbEntity
  8
DIMS_TEXT
100
AcDbDimension
  2
*D7
 10
14.535064
 20
1.375652
 30
0.0
 11
14.070064
 21
0.693507
 31
0.0
 70
   160
  1
<>\PTYP.
  3
STANDARD
100
AcDbAlignedDimension
 13
13.914052
 23
1.875652
 33
0.0
 14
14.039052
 24
1.375652
 34
0.0
 50
90.0
100
AcDbRotatedDimension
1001
ACAD
1000
DSTYLE
1002
{
1070
    78
1070
     4
1070
   140
1040
0.15
1070
   271
1070
     3
1070
    41
1040
0.15
1002
}
  0
DIMENSION
  5
2F4
100
AcDbEntity
  8
DIMS_TEXT
100
AcDbDimension
  2
*D8
 10
12.164052
 20
8.840402
 30
0.0
 11
10.664052
 21
8.840402
 31
0.0
 70
    32
  1
<>\PTYP.
  3
STANDARD
100
AcDbAlignedDimension
 13
9.164052
 23
8.250652
 33
0.0
 14
12.164052
 24
8.486269
 34
0.0
100
AcDbRotatedDimension
1001
ACAD
1000
DSTYLE
1002
{
1070
    78
1070
     4
1070
   140
1040
0.15
1070
   271
1070
     3
1070
    41
1040
0.15
1002
}
  0
DIMENSION
  5
301
100
AcDbEntity
  8
DIMS_TEXT
100
AcDbDimension
  2
*D9
 10
13.664052
 20
8.840402
 30
0.0
 11
12.914052
 21
8.840402
 31
0.0
 70
    32
  1
<>\PTYP.
  3
STANDARD
100
AcDbAlignedDimension
 13
12.164052
 23
8.486269
 33
0.0
 14
13.664052
 24
7.9632
 34
0.0
100
AcDbRotatedDimension
1001
ACAD
1000
DSTYLE
1002
{
1070
    78
1070
     4
1070
   140
1040
0.15
1070
    75
1070
     1
1070
   287
1070
     4
1070
   271
1070
     3
1070
    41
1040
0.15
1002
}
  0
DIMENSION
  5
30F
100
AcDbEntity
  8
DIMS_TEXT
100
AcDbDimension
  2
*D10
 10
17.164052
 20
9.552266
 30
0.0
 11
12.164052
 21
9.552266
 31
0.0
 70
    32
  3
STANDARD
100
AcDbAlignedDimension
 13
7.164052
 23
6.718652
 33
0.0
 14
17.164052
 24
6.718652
 34
0.0
100
AcDbRotatedDimension
1001
ACAD
1000
DSTYLE
1002
{
1070
    78
1070
     4
1070
   140
1040
0.15
1070
   271
1070
     3
1070
    41
1040
0.15
1002
}
  0
DIMENSION
  5
334
100
AcDbEntity
  8
DIMS_TEXT
100
AcDbDimension
  2
*D11
 10
6.310903
 20
6.375652
 30
0.0
 11
6.310903
 21
7.125652
 31
0.0
 70
    32
  1
<>\PTYP.
  3
STANDARD
100
AcDbAlignedDimension
 13
8.90606
 23
7.875652
 33
0.0
 14
6.737943
 24
6.375652
 34
0.0
 50
90.0
100
AcDbRotatedDimension
1001
ACAD
1000
DSTYLE
1002
{
1070
    78
1070
     4
1070
   140
1040
0.15
1070
   271
1070
     3
1070
    41
1040
0.15
1002
}
  0
DIMENSION
  5
34E
100
AcDbEntity
  8
DIMS_TEXT
100
AcDbDimension
  2
*D12
 10
9.717318
 20
1.375652
 30
0.0
 11
9.717318
 21
0.375652
 31
0.0
 70
    32
  1
<>\PTYP.
  3
STANDARD
100
AcDbAlignedDimension
 13
11.821052
 23
-0.624348
 33
0.0
 14
10.289052
 24
1.375652
 34
0.0
 50
90.0
100
AcDbRotatedDimension
1001
ACAD
1000
DSTYLE
1002
{
1070
    78
1070
     4
1070
   140
1040
0.15
1070
   271
1070
     3
1070
    41
1040
0.15
1002
}
  0
DIMENSION
  5
368
100
AcDbEntity
  8
DIMS_TEXT
100
AcDbDimension
  2
*D13
 10
4.805743
 20
6.375652
 30
0.0
 11
4.805743
 21
7.125652
 31
0.0
 70
   160
  1
<>\PTYP.
  3
STANDARD
100
AcDbAlignedDimension
 13
4.459522
 23
7.875652
 33
0.0
 14
4.459522
 24
6.375652
 34
0.0
 50
90.0
100
AcDbRotatedDimension
1001
ACAD
1000
DSTYLE
1002
{
1070
    78
1070
     4
1070
   140
1040
0.15
1070
   271
1070
     3
1070
    41
1040
0.15
1002
}
  0
DIMENSION
  5
38E
100
AcDbEntity
  8
DIMS_TEXT
100
AcDbDimension
  2
*D14
 10
2.701611
 20
9.07769
 30
0.0
 11
1.951611
 21
9.07769
 31
0.0
 70
    32
  3
STANDARD
100
AcDbAlignedDimension
 13
1.201611
 23
8.313152
 33
0.0
 14
2.701611
 24
8.55817
 34
0.0
100
AcDbRotatedDimension
1001
ACAD
1000
DSTYLE
1002
{
1070
    78
1070
     4
1070
   140
1040
0.15
1070
   271
1070
     3
1070
    41
1040
0.15
1002
}
  0
DIMENSION
  5
39B
100
AcDbEntity
  8
DIMS_TEXT
100
AcDbDimension
  2
*D15
 10
3.826611
 20
9.07769
 30
0.0
 11
3.264111
 21
9.07769
 31
0.0
 70
    32
  1
<>\PTYP.
  3
STANDARD
100
AcDbAlignedDimension
 13
2.701611
 23
8.55817
 33
0.0
 14
3.826611
 24
8.55817
 34
0.0
100
AcDbRotatedDimension
1001
ACAD
1000
DSTYLE
1002
{
1070
    78
1070
     4
1070
   140
1040
0.15
1070
    75
1070
     1
1070
   287
1070
     4
1070
   271
1070
     3
1070
    41
1040
0.15
1002
}
  0
DIMENSION
  5
3B4
100
AcDbEntity
  8
DIMS_TEXT
100
AcDbDimension
  2
*D16
 10
4.201611
 20
9.750007
 30
0.0
 11
2.701611
 21
9.750007
 31
0.0
 70
    32
  3
STANDARD
100
AcDbAlignedDimension
 13
1.201611
 23
8.313152
 33
0.0
 14
4.201611
 24
8.313152
 34
0.0
100
AcDbRotatedDimension
1001
ACAD
1000
DSTYLE
1002
{
1070
    78
1070
     4
1070
   140
1040
0.15
1070
   271
1070
     3
1070
    41
1040
0.15
1002
}
  0
DIMENSION
  5
3C2
100
AcDbEntity
  8
DIMS_TEXT
100
AcDbDimension
  2
*D17
 10
0.56753
 20
6.375652
 30
0.0
 11
0.56753
 21
3.875652
 31
0.0
 70
    32
  3
STANDARD
100
AcDbAlignedDimension
 13
1.264111
 23
1.375652
 33
0.0
 14
1.000808
 24
6.375652
 34
0.0
 50
90.0
100
AcDbRotatedDimension
1001
ACAD
1000
DSTYLE
1002
{
1070
    78
1070
     4
1070
   140
1040
0.15
1070
   271
1070
     3
1070
    41
1040
0.15
1002
}
  0
DIMENSION
  5
3D0
100
AcDbEntity
  8
DIMS_TEXT
100
AcDbDimension
  2
*D18
 10
-0.303879
 20
8.313152
 30
0.0
 11
-0.303879
 21
4.84605
 31
0.0
 70
   160
  1
8.94
  3
STANDARD
100
AcDbAlignedDimension
 13
2.358611
 23
-0.624348
 33
0.0
 14
1.201611
 24
8.313152
 34
0.0
 50
90.0
100
AcDbRotatedDimension
1001
ACAD
1000
DSTYLE
1002
{
1070
    78
1070
     4
1070
   140
1040
0.15
1070
   271
1070
     3
1070
    41
1040
0.15
1002
}
  0
DIMENSION
  5
3F6
100
AcDbEntity
  8
DIMS_TEXT
100
AcDbDimension
  2
*D19
 10
2.326611
 20
-1.639827
 30
0.0
 11
1.438938
 21
-1.639827
 31
0.0
 70
   160
  1
%%C<>\PTYP.
  3
STANDARD
100
AcDbAlignedDimension
 13
3.076611
 23
-0.592348
 33
0.0
 14
2.326611
 24
-0.592348
 34
0.0
100
AcDbRotatedDimension
1001
ACAD
1000
DSTYLE
1002
{
1070
    78
1070
     4
1070
   140
1040
0.15
1070
   271
1070
     3
1070
    41
1040
0.15
1002
}
  0
DIMENSION
  5
41A
100
AcDbEntity
  8
DIMS_TEXT
100
AcDbDimension
  2
*D20
 10
3.700793
 20
4.980847
 30
0.0
 11
6.196057
 21
3.659609
 31
0.0
 70
   163
  1
<> THRU\PX 4\PTYP.
  3
STANDARD
100
AcDbDiametricDimension
 15
3.952429
 25
4.770458
 35
0.0
 40
0.0
1001
ACAD
1000
DSTYLE
1002
{
1070
    78
1070
     4
1070
   288
1070
     1
1070
   140
1040
0.15
1070
   271
1070
     3
1070
    41
1040
0.15
1002
}
  0
CIRCLE
  5
42F
100
AcDbEntity
  8
0
100
AcDbCircle
 10
2.701611
 20
6.375652
 30
0.0
 40
0.375
  0
ARC
  5
430
100
AcDbEntity
  8
0
100
AcDbCircle
 10
2.701611
 20
6.375652
 30
0.0
 40
0.345
100
AcDbArc
 50
15.638396
 51
344.361604
  0
LINE
  5
431
100
AcDbEntity
  8
0
100
AcDbLine
 10
2.966611
 20
6.282652
 30
0.0
 11
2.966611
 21
6.468652
 31
0.0
  0
LINE
  5
432
100
AcDbEntity
  8
0
100
AcDbLine
 10
2.966611
 20
6.468652
 30
0.0
 11
3.064896
 21
6.468652
 31
0.0
  0
LINE
  5
433
100
AcDbEntity
  8
0
100
AcDbLine
 10
2.966611
 20
6.282652
 30
0.0
 11
3.064896
 21
6.282652
 31
0.0
  0
CIRCLE
  5
434
100
AcDbEntity
  8
0
100
AcDbCircle
 10
3.159145
 20
6.841741
 30
0.0
 40
0.0935
  0
CIRCLE
  5
435
100
AcDbEntity
  8
0
100
AcDbCircle
 10
2.244077
 20
5.909563
 30
0.0
 40
0.0935
  0
LINE
  5
43A
100
AcDbEntity
  8
0
100
AcDbLine
 10
1.202111
 20
5.313152
 30
0.0
 11
1.201611
 21
5.313152
 31
0.0
  0
ARC
  5
43B
100
AcDbEntity
  8
0
100
AcDbCircle
 10
1.202111
 20
5.375152
 30
0.0
 40
0.062
100
AcDbArc
 50
270.0
 51
0.0
  0
ARC
  5
444
100
AcDbEntity
  8
HIDDEN_LINE
100
AcDbCircle
 10
11.289052
 20
5.500652
 30
0.0
 40
0.4375
100
AcDbArc
 50
315.0
 51
135.0
  0
LINE
  5
445
100
AcDbEntity
  8
HIDDEN_LINE
100
AcDbLine
 10
10.979693
 20
5.810011
 30
0.0
 11
10.354693
 21
5.185011
 31
0.0
  0
LINE
  5
446
100
AcDbEntity
  8
HIDDEN_LINE
100
AcDbLine
 10
10.973411
 20
4.566293
 30
0.0
 11
11.598411
 21
5.191293
 31
0.0
  0
CIRCLE
  5
447
100
AcDbEntity
  8
HIDDEN_LINE
100
AcDbCircle
 10
11.289052
 20
5.500652
 30
0.0
 40
0.1685
  0
CIRCLE
  5
448
100
AcDbEntity
  8
HIDDEN_LINE
100
AcDbCircle
 10
11.289052
 20
5.500652
 30
0.0
 40
0.2
  0
LEADER
  5
44D
100
AcDbEntity
  8
DIMS_TEXT
100
AcDbLeader
  3
STANDARD
 73
     0
 40
0.4
 41
0.55
 76
     2
 10
11.089799
 20
5.496738
 30
0.0
 10
8.404178
 20
5.351137
 30
0.0
 77
   256
340
44E
1001
ACAD
1000
DSTYLE
1002
{
1070
    78
1070
     4
1070
   140
1040
0.15
1070
   271
1070
     3
1070
    41
1040
0.15
1002
}
  0
MTEXT
  5
44E
102
{ACAD_REACTORS
330
44D
102
}
100
AcDbEntity
  8
DIMS_TEXT
100
AcDbMText
 10
8.314178
 20
5.351137
 30
0.0
 40
0.15
 41
0.0
 71
     6
 72
     1
  1
\A1;PIPE\PPLUG
  0
LINE
  5
459
100
AcDbEntity
  8
HIDDEN_LINE
100
AcDbLine
 10
3.990611
 20
1.875652
 30
0.0
 11
3.990611
 21
1.375652
 31
0.0
  0
LINE
  5
45A
100
AcDbEntity
  8
HIDDEN_LINE
100
AcDbLine
 10
3.662611
 20
1.875652
 30
0.0
 11
3.662611
 21
1.375652
 31
0.0
  0
LINE
  5
45B
100
AcDbEntity
  8
HIDDEN_LINE
100
AcDbLine
 10
1.740611
 20
1.875652
 30
0.0
 11
1.740611
 21
1.375652
 31
0.0
  0
LINE
  5
45C
100
AcDbEntity
  8
HIDDEN_LINE
100
AcDbLine
 10
1.412611
 20
1.875652
 30
0.0
 11
1.412611
 21
1.375652
 31
0.0
  0
LINE
  5
45D
100
AcDbEntity
  8
HIDDEN_LINE
100
AcDbLine
 10
9.164052
 20
4.711652
 30
0.0
 11
9.664052
 21
4.711652
 31
0.0
  0
LINE
  5
45E
100
AcDbEntity
  8
HIDDEN_LINE
100
AcDbLine
 10
9.164052
 20
5.039652
 30
0.0
 11
9.664052
 21
5.039652
 31
0.0
  0
LINE
  5
45F
100
AcDbEntity
  8
HIDDEN_LINE
100
AcDbLine
 10
9.164052
 20
8.039652
 30
0.0
 11
9.664052
 21
8.039652
 31
0.0
  0
LINE
  5
460
100
AcDbEntity
  8
HIDDEN_LINE
100
AcDbLine
 10
9.164052
 20
7.711652
 30
0.0
 11
9.664052
 21
7.711652
 31
0.0
  0
LINE
  5
461
100
AcDbEntity
  8
HIDDEN_LINE
100
AcDbLine
 10
13.828052
 20
1.875652
 30
0.0
 11
13.828052
 21
1.375652
 31
0.0
  0
LINE
  5
462
100
AcDbEntity
  8
HIDDEN_LINE
100
AcDbLine
 10
13.500052
 20
1.875652
 30
0.0
 11
13.500052
 21
1.375652
 31
0.0
  0
LINE
  5
463
100
AcDbEntity
  8
HIDDEN_LINE
100
AcDbLine
 10
10.828052
 20
1.875652
 30
0.0
 11
10.828052
 21
1.375652
 31
0.0
  0
LINE
  5
464
100
AcDbEntity
  8
HIDDEN_LINE
100
AcDbLine
 10
10.500052
 20
1.875652
 30
0.0
 11
10.500052
 21
1.375652
 31
0.0
  0
LINE
  5
465
100
AcDbEntity
  8
HIDDEN_LINE
100
AcDbLine
 10
14.664052
 20
8.039652
 30
0.0
 11
15.164052
 21
8.039652
 31
0.0
  0
LINE
  5
466
100
AcDbEntity
  8
HIDDEN_LINE
100
AcDbLine
 10
14.664052
 20
5.039652
 30
0.0
 11
15.164052
 21
5.039652
 31
0.0
  0
LINE
  5
467
100
AcDbEntity
  8
HIDDEN_LINE
100
AcDbLine
 10
14.664052
 20
4.711652
 30
0.0
 11
15.164052
 21
4.711652
 31
0.0
  0
LINE
  5
468
100
AcDbEntity
  8
HIDDEN_LINE
100
AcDbLine
 10
14.664052
 20
7.711652
 30
0.0
 11
15.164052
 21
7.711652
 31
0.0
  0
LINE
  5
46F
100
AcDbEntity
  8
HIDDEN_LINE
100
AcDbLine
 10
4.108546
 20
5.732673
 30
0.0
 11
3.091163
 21
5.134212
 31
0.0
  0
LINE
  5
470
100
AcDbEntity
  8
HIDDEN_LINE
100
AcDbLine
 10
3.059728
 20
5.125652
 30
0.0
 11
2.343494
 21
5.125652
 31
0.0
  0
LINE
  5
471
100
AcDbEntity
  8
HIDDEN_LINE
100
AcDbLine
 10
2.312059
 20
5.134212
 30
0.0
 11
1.294676
 21
5.732673
 31
0.0
  0
LINE
  5
472
100
AcDbEntity
  8
HIDDEN_LINE
100
AcDbLine
 10
1.294676
 20
7.018631
 30
0.0
 11
2.312059
 21
7.617092
 31
0.0
  0
LINE
  5
473
100
AcDbEntity
  8
HIDDEN_LINE
100
AcDbLine
 10
2.343494
 20
7.625652
 30
0.0
 11
3.059728
 21
7.625652
 31
0.0
  0
LINE
  5
474
100
AcDbEntity
  8
HIDDEN_LINE
100
AcDbLine
 10
3.091163
 20
7.617092
 30
0.0
 11
4.108546
 21
7.018631
 31
0.0
  0
ARC
  5
475
100
AcDbEntity
  8
HIDDEN_LINE
100
AcDbCircle
 10
2.343494
 20
5.187652
 30
0.0
 40
0.062
100
AcDbArc
 50
239.534455
 51
270.0
  0
ARC
  5
476
100
AcDbEntity
  8
HIDDEN_LINE
100
AcDbCircle
 10
3.059728
 20
5.187652
 30
0.0
 40
0.062
100
AcDbArc
 50
270.0
 51
300.465545
  0
ARC
  5
477
100
AcDbEntity
  8
HIDDEN_LINE
100
AcDbCircle
 10
4.077111
 20
5.786113
 30
0.0
 40
0.062
100
AcDbArc
 50
300.465545
 51
360.0
  0
ARC
  5
478
100
AcDbEntity
  8
HIDDEN_LINE
100
AcDbCircle
 10
1.326111
 20
5.786113
 30
0.0
 40
0.062
100
AcDbArc
 50
180.0
 51
239.534455
  0
ARC
  5
479
100
AcDbEntity
  8
HIDDEN_LINE
100
AcDbCircle
 10
1.326111
 20
6.965192
 30
0.0
 40
0.062
100
AcDbArc
 50
120.465545
 51
180.0
  0
ARC
  5
47A
100
AcDbEntity
  8
HIDDEN_LINE
100
AcDbCircle
 10
2.343494
 20
7.563652
 30
0.0
 40
0.062
100
AcDbArc
 50
90.0
 51
120.465545
  0
ARC
  5
47B
100
AcDbEntity
  8
HIDDEN_LINE
100
AcDbCircle
 10
3.059728
 20
7.563652
 30
0.0
 40
0.062
100
AcDbArc
 50
59.534455
 51
90.0
  0
ARC
  5
47C
100
AcDbEntity
  8
HIDDEN_LINE
100
AcDbCircle
 10
4.077111
 20
6.965192
 30
0.0
 40
0.062
100
AcDbArc
 50
0.0
 51
59.534455
  0
LINE
  5
481
100
AcDbEntity
  8
HIDDEN_LINE
100
AcDbLine
 10
4.201611
 20
4.711652
 30
0.0
 11
1.201611
 21
4.711652
 31
0.0
  0
LINE
  5
482
100
AcDbEntity
  8
HIDDEN_LINE
100
AcDbLine
 10
4.201611
 20
5.039652
 30
0.0
 11
1.201611
 21
5.039652
 31
0.0
  0
LINE
  5
483
100
AcDbEntity
  8
HIDDEN_LINE
100
AcDbLine
 10
4.201611
 20
7.711652
 30
0.0
 11
1.201611
 21
7.711652
 31
0.0
  0
LINE
  5
484
100
AcDbEntity
  8
HIDDEN_LINE
100
AcDbLine
 10
4.201611
 20
8.039652
 30
0.0
 11
1.201611
 21
8.039652
 31
0.0
  0
LINE
  5
486
100
AcDbEntity
  8
HIDDEN_LINE
100
AcDbLine
 10
4.139111
 20
4.438152
 30
0.0
 11
4.139111
 21
4.813152
 31
0.0
  0
LINE
  5
487
100
AcDbEntity
  8
HIDDEN_LINE
100
AcDbLine
 10
1.264111
 20
4.438152
 30
0.0
 11
1.264111
 21
4.813152
 31
0.0
  0
DIMENSION
  5
497
100
AcDbEntity
  8
DIMS_TEXT
100
AcDbDimension
  2
*D21
 10
2.282789
 20
5.824454
 30
0.0
 11
-0.06252
 21
9.353728
 31
0.0
 70
   163
  1
SPANNER\PWRENCH\PHOLES
  3
STANDARD
100
AcDbDiametricDimension
 15
2.205364
 25
5.994673
 35
0.0
 40
0.0
1001
ACAD
1000
DSTYLE
1002
{
1070
    78
1070
     4
1070
   288
1070
     1
1070
   140
1040
0.15
1070
   271
1070
     3
1070
    41
1040
0.15
1002
}
  0
TEXT
  5
4B9
100
AcDbEntity
  8
DIMS_TEXT
100
AcDbText
 10
15.722136
 20
-2.102691
 30
0.0
 40
0.2
  1
HAT122         135822          2:1
 41
0.7
100
AcDbText
  0
TEXT
  5
4BA
100
AcDbEntity
  8
DIMS_TEXT
100
AcDbText
 10
15.481339
 20
-1.197451
 30
0.0
 40
0.15
  1
Tel. (508) 278-2422    Fax (508) 278-7863
 41
0.9
100
AcDbText
  0
TEXT
  5
4BB
100
AcDbEntity
  8
DIMS_TEXT
100
AcDbText
 10
15.496021
 20
-0.548141
 30
0.0
 40
0.19
  1
Three Way Right Angle Gear Drive
 41
0.9
100
AcDbText
  0
TEXT
  5
4BC
100
AcDbEntity
  8
DIMS_TEXT
100
AcDbText
 10
16.342423
 20
-0.102496
 30
0.0
 40
0.3
  1
 MITRPAK
 41
1.5
100
AcDbText
  0
LINE
  5
4BD
100
AcDbEntity
  8
DIMS_TEXT
100
AcDbLine
 10
15.446057
 20
-1.622659
 30
0.0
 11
20.669427
 21
-1.622659
 31
0.0
  0
LINE
  5
4BE
100
AcDbEntity
  8
DIMS_TEXT
100
AcDbLine
 10
15.446057
 20
-1.289077
 30
0.0
 11
20.669427
 21
-1.289077
 31
0.0
  0
LINE
  5
4BF
100
AcDbEntity
  8
DIMS_TEXT
100
AcDbLine
 10
15.446057
 20
-0.963631
 30
0.0
 11
20.669427
 21
-0.963631
 31
0.0
  0
LINE
  5
4C0
100
AcDbEntity
  8
DIMS_TEXT
100
AcDbLine
 10
15.446057
 20
-0.638185
 30
0.0
 11
20.669427
 21
-0.638185
 31
0.0
  0
LINE
  5
4C1
100
AcDbEntity
  8
DIMS_TEXT
100
AcDbLine
 10
15.446057
 20
-0.215106
 30
0.0
 11
20.669427
 21
-0.215106
 31
0.0
  0
TEXT
  5
4C2
100
AcDbEntity
  8
DIMS_TEXT
100
AcDbText
 10
15.535694
 20
-1.55757
 30
0.0
 40
0.195
  1
MODEL   PART NUMBER  RATIO
100
AcDbText
  0
LWPOLYLINE
  5
4C3
100
AcDbEntity
  8
DIMS_TEXT
100
AcDbPolyline
 90
        4
 70
     1
 43
0.0
 10
15.446057
 20
0.305607
 10
20.669427
 20
0.305607
 10
20.669427
 20
-2.23287
 10
15.446057
 20
-2.23287
  0
TEXT
  5
4C4
100
AcDbEntity
  8
DIMS_TEXT
100
AcDbText
 10
15.481339
 20
-0.873642
 30
0.0
 40
0.15
  1
Uxbridge, MA 01569              U.S.A.
100
AcDbText
  0
LINE
  5
4C5
100
AcDbEntity
  8
DIMS_TEXT
100
AcDbLine
 10
16.774309
 20
-1.289077
 30
0.0
 11
16.774309
 21
-2.23287
 31
0.0
  0
LINE
  5
4C6
100
AcDbEntity
  8
DIMS_TEXT
100
AcDbLine
 10
19.463407
 20
-1.289077
 30
0.0
 11
19.463407
 21
-2.23287
 31
0.0
  0
VIEWPORT
  5
44C
100
AcDbEntity
 67
     1
  8
0
100
AcDbViewport
 10
9.680233
 20
4.5
 30
0.0
 40
19.360465
 41
9.0
 68
    -1
 69
     1
1001
ACAD
1000
MVIEW
1002
{
1070
    16
1010
0.0
1020
0.0
1030
0.0
1010
0.0
1020
0.0
1030
1.0
1040
0.0
1040
9.0
1040
9.680233
1040
4.5
1040
50.0
1040
0.0
1040
0.0
1070
     0
1070
   100
1070
     1
1070
     1
1070
     0
1070
     0
1070
     0
1070
     0
1040
0.0
1040
0.0
1040
0.0
1040
0.5
1040
0.5
1040
0.5
1040
0.5
1070
     0
1002
{
1002
}
1002
}
  0
ENDSEC
  0
SECTION
  2
OBJECTS
  0
DICTIONARY
  5
C
100
AcDbDictionary
  3
ACAD_GROUP
350
D
  3
ACAD_MLINESTYLE
350
1B
  0
DICTIONARY
  5
D
102
{ACAD_REACTORS
330
C
102
}
100
AcDbDictionary
  0
DICTIONARY
  5
1B
102
{ACAD_REACTORS
330
C
102
}
100
AcDbDictionary
  3
STANDARD
350
1C
  0
MLINESTYLE
  5
1C
102
{ACAD_REACTORS
330
1B
102
}
100
AcDbMlineStyle
  2
STANDARD
 70
     0
  3

 62
   256
 51
90.0
 52
90.0
 71
     2
 49
0.5
 62
   256
  6
BYLAYER
 49
-0.5
 62
   256
  6
BYLAYER
  0
ENDSEC
  0
EOF
