  0
SECTION
  2
HEADER
  9
$ACADVER
  1
AC1014
  9
$ACADMAINTVER
 70
     0
  9
$DWGCODEPAGE
  3
ANSI_1252
  9
$INSBASE
 10
0.0
 20
0.0
 30
0.0
  9
$EXTMIN
 10
-1.277587
 20
-3.215235
 30
0.0
  9
$EXTMAX
 10
19.621509
 20
9.872587
 30
0.0
  9
$LIMMIN
 10
0.0
 20
0.0
  9
$LIMMAX
 10
12.0
 20
9.0
  9
$ORTHOMODE
 70
     1
  9
$REGENMODE
 70
     1
  9
$FILLMODE
 70
     1
  9
$QTEXTMODE
 70
     0
  9
$MIRRTEXT
 70
     1
  9
$DRAGMODE
 70
     2
  9
$LTSCALE
 40
1.0
  9
$OSMODE
 70
   293
  9
$ATTMODE
 70
     1
  9
$TEXTSIZE
 40
0.18
  9
$TRACEWID
 40
0.05
  9
$TEXTSTYLE
  7
STANDARD
  9
$CLAYER
  8
DIMS_TEXT
  9
$CELTYPE
  6
BYLAYER
  9
$CECOLOR
 62
   256
  9
$CELTSCALE
 40
1.0
  9
$DELOBJ
 70
     1
  9
$DISPSILH
 70
     0
  9
$DIMSCALE
 40
1.0
  9
$DIMASZ
 40
0.15
  9
$DIMEXO
 40
0.0625
  9
$DIMDLI
 40
0.38
  9
$DIMRND
 40
0.0
  9
$DIMDLE
 40
0.0
  9
$DIMEXE
 40
0.18
  9
$DIMTP
 40
0.0
  9
$DIMTM
 40
0.0
  9
$DIMTXT
 40
0.15
  9
$DIMCEN
 40
0.09
  9
$DIMTSZ
 40
0.0
  9
$DIMTOL
 70
     0
  9
$DIMLIM
 70
     0
  9
$DIMTIH
 70
     1
  9
$DIMTOH
 70
     1
  9
$DIMSE1
 70
     0
  9
$DIMSE2
 70
     0
  9
$DIMTAD
 70
     0
  9
$DIMZIN
 70
     4
  9
$DIMBLK
  1

  9
$DIMASO
 70
     1
  9
$DIMSHO
 70
     1
  9
$DIMPOST
  1

  9
$DIMAPOST
  1

  9
$DIMALT
 70
     0
  9
$DIMALTD
 70
     2
  9
$DIMALTF
 40
25.4
  9
$DIMLFAC
 40
1.0
  9
$DIMTOFL
 70
     0
  9
$DIMTVP
 40
0.0
  9
$DIMTIX
 70
     0
  9
$DIMSOXD
 70
     0
  9
$DIMSAH
 70
     0
  9
$DIMBLK1
  1

  9
$DIMBLK2
  1

  9
$DIMSTYLE
  2
STANDARD
  9
$DIMCLRD
 70
     0
  9
$DIMCLRE
 70
     0
  9
$DIMCLRT
 70
     0
  9
$DIMTFAC
 40
1.0
  9
$DIMGAP
 40
0.09
  9
$DIMJUST
 70
     0
  9
$DIMSD1
 70
     0
  9
$DIMSD2
 70
     0
  9
$DIMTOLJ
 70
     1
  9
$DIMTZIN
 70
     0
  9
$DIMALTZ
 70
     0
  9
$DIMALTTZ
 70
     0
  9
$DIMFIT
 70
     3
  9
$DIMUPT
 70
     0
  9
$DIMUNIT
 70
     2
  9
$DIMDEC
 70
     3
  9
$DIMTDEC
 70
     4
  9
$DIMALTU
 70
     2
  9
$DIMALTTD
 70
     2
  9
$DIMTXSTY
  7
STANDARD
  9
$DIMAUNIT
 70
     0
  9
$LUNITS
 70
     2
  9
$LUPREC
 70
     4
  9
$SKETCHINC
 40
0.1
  9
$FILLETRAD
 40
0.5
  9
$AUNITS
 70
     0
  9
$AUPREC
 70
     0
  9
$MENU
  1
acad
  9
$ELEVATION
 40
0.0
  9
$PELEVATION
 40
0.0
  9
$THICKNESS
 40
0.0
  9
$LIMCHECK
 70
     0
  9
$BLIPMODE
 70
     0
  9
$CHAMFERA
 40
0.03
  9
$CHAMFERB
 40
0.03
  9
$CHAMFERC
 40
1.0
  9
$CHAMFERD
 40
0.0
  9
$SKPOLY
 70
     0
  9
$TDCREATE
 40
2451984.450210300
  9
$TDUPDATE
 40
2452207.560438310
  9
$TDINDWG
 40
0.2945766204
  9
$TDUSRTIMER
 40
0.2945766204
  9
$USRTIMER
 70
     1
  9
$ANGBASE
 50
0.0
  9
$ANGDIR
 70
     0
  9
$PDMODE
 70
     0
  9
$PDSIZE
 40
0.0
  9
$PLINEWID
 40
0.0
  9
$COORDS
 70
     1
  9
$SPLFRAME
 70
     0
  9
$SPLINETYPE
 70
     6
  9
$SPLINESEGS
 70
     8
  9
$ATTDIA
 70
     0
  9
$ATTREQ
 70
     1
  9
$HANDLING
 70
     1
  9
$HANDSEED
  5
4D3
  9
$SURFTAB1
 70
     6
  9
$SURFTAB2
 70
     6
  9
$SURFTYPE
 70
     6
  9
$SURFU
 70
     6
  9
$SURFV
 70
     6
  9
$UCSNAME
  2

  9
$UCSORG
 10
0.0
 20
0.0
 30
0.0
  9
$UCSXDIR
 10
1.0
 20
0.0
 30
0.0
  9
$UCSYDIR
 10
0.0
 20
1.0
 30
0.0
  9
$PUCSNAME
  2

  9
$PUCSORG
 10
0.0
 20
0.0
 30
0.0
  9
$PUCSXDIR
 10
1.0
 20
0.0
 30
0.0
  9
$PUCSYDIR
 10
0.0
 20
1.0
 30
0.0
  9
$USERI1
 70
     0
  9
$USERI2
 70
     0
  9
$USERI3
 70
     0
  9
$USERI4
 70
     0
  9
$USERI5
 70
     0
  9
$USERR1
 40
0.0
  9
$USERR2
 40
0.0
  9
$USERR3
 40
0.0
  9
$USERR4
 40
0.0
  9
$USERR5
 40
0.0
  9
$WORLDVIEW
 70
     1
  9
$SHADEDGE
 70
     3
  9
$SHADEDIF
 70
    70
  9
$TILEMODE
 70
     1
  9
$MAXACTVP
 70
    48
  9
$PINSBASE
 10
0.0
 20
0.0
 30
0.0
  9
$PLIMCHECK
 70
     0
  9
$PEXTMIN
 10
1.000000E+20
 20
1.000000E+20
 30
1.000000E+20
  9
$PEXTMAX
 10
-1.000000E+20
 20
-1.000000E+20
 30
-1.000000E+20
  9
$PLIMMIN
 10
0.0
 20
0.0
  9
$PLIMMAX
 10
12.0
 20
9.0
  9
$UNITMODE
 70
     0
  9
$VISRETAIN
 70
     1
  9
$PLINEGEN
 70
     0
  9
$PSLTSCALE
 70
     1
  9
$TREEDEPTH
 70
  3020
  9
$PICKSTYLE
 70
     1
  9
$CMLSTYLE
  2
STANDARD
  9
$CMLJUST
 70
     0
  9
$CMLSCALE
 40
1.0
  9
$PROXYGRAPHICS
 70
     1
  9
$MEASUREMENT
 70
     0
  0
ENDSEC
  0
SECTION
  2
CLASSES
  0
CLASS
  1
LWPOLYLINE
  2
AcDbPolyline
  3
"AutoCAD"
 90
        0
280
     0
281
     1
  0
ENDSEC
  0
SECTION
  2
TABLES
  0
TABLE
  2
VPORT
  5
8
100
AcDbSymbolTable
 70
     1
  0
VPORT
  5
4CF
100
AcDbSymbolTableRecord
100
AcDbViewportTableRecord
  2
*ACTIVE
 70
     0
 10
0.0
 20
0.0
 11
1.0
 21
1.0
 12
14.551427
 22
2.639745
 13
0.0
 23
0.0
 14
0.5
 24
0.5
 15
0.5
 25
0.5
 16
0.0
 26
0.0
 36
1.0
 17
0.0
 27
0.0
 37
0.0
 40
16.094329
 41
2.151163
 42
50.0
 43
0.0
 44
0.0
 50
0.0
 51
0.0
 71
     0
 72
   100
 73
     1
 74
     1
 75
     0
 76
     0
 77
     0
 78
     0
  0
ENDTAB
  0
TABLE
  2
LTYPE
  5
5
100
AcDbSymbolTable
 70
     4
  0
LTYPE
  5
12
100
AcDbSymbolTableRecord
100
AcDbLinetypeTableRecord
  2
BYBLOCK
 70
     0
  3

 72
    65
 73
     0
 40
0.0
  0
LTYPE
  5
13
100
AcDbSymbolTableRecord
100
AcDbLinetypeTableRecord
  2
BYLAYER
 70
     0
  3

 72
    65
 73
     0
 40
0.0
  0
LTYPE
  5
14
100
AcDbSymbolTableRecord
100
AcDbLinetypeTableRecord
  2
CONTINUOUS
 70
     0
  3
Solid line
 72
    65
 73
     0
 40
0.0
  0
LTYPE
  5
48
100
AcDbSymbolTableRecord
100
AcDbLinetypeTableRecord
  2
CENTER
 70
     0
  3
Center ____ _ ____ _ ____ _ ____ _ ____ _ ____
 72
    65
 73
     4
 40
2.0
 49
1.25
 74
     0
 49
-0.25
 74
     0
 49
0.25
 74
     0
 49
-0.25
 74
     0
  0
LTYPE
  5
49
100
AcDbSymbolTableRecord
100
AcDbLinetypeTableRecord
  2
DASHED2
 70
     0
  3
Dashed (.5x) _ _ _ _ _ _ _ _ _ _ _ _ _ _ _ _ _
 72
    65
 73
     2
 40
0.375
 49
0.25
 74
     0
 49
-0.125
 74
     0
  0
LTYPE
  5
4A
100
AcDbSymbolTableRecord
100
AcDbLinetypeTableRecord
  2
HIDDEN2
 70
     0
  3
Hidden (.5x) _ _ _ _ _ _ _ _ _ _ _ _ _ _ _ _ _
 72
    65
 73
     2
 40
0.1875
 49
0.125
 74
     0
 49
-0.0625
 74
     0
  0
ENDTAB
  0
TABLE
  2
LAYER
  5
2
100
AcDbSymbolTable
 70
     6
  0
LAYER
  5
E
100
AcDbSymbolTableRecord
100
AcDbLayerTableRecord
  2
0
 70
     0
 62
     7
  6
CONTINUOUS
  0
LAYER
  5
4B
100
AcDbSymbolTableRecord
100
AcDbLayerTableRecord
  2
TB
 70
     0
 62
     7
  6
CONTINUOUS
  0
LAYER
  5
4C
100
AcDbSymbolTableRecord
100
AcDbLayerTableRecord
  2
CTR_LINES
 70
     0
 62
     1
  6
CENTER
  0
LAYER
  5
4D
100
AcDbSymbolTableRecord
100
AcDbLayerTableRecord
  2
DIMS_TEXT
 70
     0
 62
     3
  6
CONTINUOUS
  0
LAYER
  5
4E
100
AcDbSymbolTableRecord
100
AcDbLayerTableRecord
  2
DEFPOINTS
 70
     0
 62
     7
  6
CONTINUOUS
  0
LAYER
  5
4F
100
AcDbSymbolTableRecord
100
AcDbLayerTableRecord
  2
HIDDEN_LINE
 70
     0
 62
     4
  6
HIDDEN2
  0
ENDTAB
  0
TABLE
  2
STYLE
  5
3
100
AcDbSymbolTable
 70
     1
  0
STYLE
  5
F
100
AcDbSymbolTableRecord
100
AcDbTextStyleTableRecord
  2
STANDARD
 70
     0
 40
0.0
 41
1.0
 50
0.0
 71
     0
 42
0.18
  3
txt
  4

  0
ENDTAB
  0
TABLE
  2
VIEW
  5
6
100
AcDbSymbolTable
 70
     0
  0
ENDTAB
  0
TABLE
  2
UCS
  5
7
100
AcDbSymbolTable
 70
     0
  0
ENDTAB
  0
TABLE
  2
APPID
  5
9
100
AcDbSymbolTable
 70
     1
  0
APPID
  5
10
100
AcDbSymbolTableRecord
100
AcDbRegAppTableRecord
  2
ACAD
 70
     0
  0
ENDTAB
  0
TABLE
  2
DIMSTYLE
  5
A
100
AcDbSymbolTable
 70
     1
  0
DIMSTYLE
105
1D
102
{ACAD_REACTORS
330
20E
330
227
330
25C
330
287
330
294
330
2A2
330
2D3
330
2FB
330
309
330
32F
330
33D
330
34B
330
37D
330
395
330
3AD
330
3E7
330
471
102
}
100
AcDbSymbolTableRecord
100
AcDbDimStyleTableRecord
  2
STANDARD
 70
     0
  3

  4

  5

  6

  7

 40
1.0
 41
0.18
 42
0.0625
 43
0.38
 44
0.18
 45
0.0
 46
0.0
 47
0.0
 48
0.0
140
0.18
141
0.09
142
0.0
143
25.4
144
1.0
145
0.0
146
1.0
147
0.09
 71
     0
 72
     0
 73
     1
 74
     1
 75
     0
 76
     0
 77
     0
 78
     0
170
     0
171
     2
172
     0
173
     0
174
     0
175
     0
176
     0
177
     0
178
     0
270
     2
271
     4
272
     4
273
     2
274
     2
340
F
275
     0
280
     0
281
     0
282
     0
283
     1
284
     0
285
     0
286
     0
287
     3
288
     0
  0
ENDTAB
  0
TABLE
  2
BLOCK_RECORD
  5
1
100
AcDbSymbolTable
 70
    21
  0
BLOCK_RECORD
  5
18
100
AcDbSymbolTableRecord
100
AcDbBlockTableRecord
  2
*MODEL_SPACE
  0
BLOCK_RECORD
  5
15
100
AcDbSymbolTableRecord
100
AcDbBlockTableRecord
  2
*PAPER_SPACE
  0
BLOCK_RECORD
  5
30
100
AcDbSymbolTableRecord
100
AcDbBlockTableRecord
  2
*D0
  0
BLOCK_RECORD
  5
3D
100
AcDbSymbolTableRecord
100
AcDbBlockTableRecord
  2
*D1
  0
BLOCK_RECORD
  5
50
100
AcDbSymbolTableRecord
100
AcDbBlockTableRecord
  2
BOB4
  0
BLOCK_RECORD
  5
203
100
AcDbSymbolTableRecord
100
AcDbBlockTableRecord
  2
*D3
  0
BLOCK_RECORD
  5
219
100
AcDbSymbolTableRecord
100
AcDbBlockTableRecord
  2
*D4
  0
BLOCK_RECORD
  5
24F
100
AcDbSymbolTableRecord
100
AcDbBlockTableRecord
  2
*D5
  0
BLOCK_RECORD
  5
27A
100
AcDbSymbolTableRecord
100
AcDbBlockTableRecord
  2
*D6
  0
BLOCK_RECORD
  5
288
100
AcDbSymbolTableRecord
100
AcDbBlockTableRecord
  2
*D7
  0
BLOCK_RECORD
  5
295
100
AcDbSymbolTableRecord
100
AcDbBlockTableRecord
  2
*D8
  0
BLOCK_RECORD
  5
2C6
100
AcDbSymbolTableRecord
100
AcDbBlockTableRecord
  2
*D9
  0
BLOCK_RECORD
  5
2EE
100
AcDbSymbolTableRecord
100
AcDbBlockTableRecord
  2
*D10
  0
BLOCK_RECORD
  5
2FC
100
AcDbSymbolTableRecord
100
AcDbBlockTableRecord
  2
*D11
  0
BLOCK_RECORD
  5
322
100
AcDbSymbolTableRecord
100
AcDbBlockTableRecord
  2
*D12
  0
BLOCK_RECORD
  5
330
100
AcDbSymbolTableRecord
100
AcDbBlockTableRecord
  2
*D13
  0
BLOCK_RECORD
  5
33E
100
AcDbSymbolTableRecord
100
AcDbBlockTableRecord
  2
*D14
  0
BLOCK_RECORD
  5
370
100
AcDbSymbolTableRecord
100
AcDbBlockTableRecord
  2
*D15
  0
BLOCK_RECORD
  5
38A
100
AcDbSymbolTableRecord
100
AcDbBlockTableRecord
  2
*D16
  0
BLOCK_RECORD
  5
3A0
100
AcDbSymbolTableRecord
100
AcDbBlockTableRecord
  2
*D17
  0
BLOCK_RECORD
  5
3DA
100
AcDbSymbolTableRecord
100
AcDbBlockTableRecord
  2
*D18
  0
BLOCK_RECORD
  5
466
100
AcDbSymbolTableRecord
100
AcDbBlockTableRecord
  2
*D19
  0
BLOCK_RECORD
  5
4AD
100
AcDbSymbolTableRecord
100
AcDbBlockTableRecord
  2
TITLE_BLOCK
  0
ENDTAB
  0
ENDSEC
  0
SECTION
  2
BLOCKS
  0
BLOCK
  5
19
100
AcDbEntity
  8
0
100
AcDbBlockBegin
  2
*MODEL_SPACE
 70
     0
 10
0.0
 20
0.0
 30
0.0
  3
*MODEL_SPACE
  1

  0
ENDBLK
  5
1A
100
AcDbEntity
  8
0
100
AcDbBlockEnd
  0
BLOCK
  5
16
100
AcDbEntity
 67
     1
  8
0
100
AcDbBlockBegin
  2
*PAPER_SPACE
 70
     0
 10
0.0
 20
0.0
 30
0.0
  3
*PAPER_SPACE
  1

  0
ENDBLK
  5
17
100
AcDbEntity
 67
     1
  8
0
100
AcDbBlockEnd
  0
BLOCK
  5
3B
100
AcDbEntity
  8
0
100
AcDbBlockBegin
  2
*D0
 70
     1
 10
0.0
 20
0.0
 30
0.0
  3
*D0
  1

  0
LINE
  5
31
100
AcDbEntity
  8
0
  6
BYBLOCK
 62
     0
100
AcDbLine
 10
4.41861
 20
0.411375
 30
0.0
 11
1.389199
 21
0.411375
 31
0.0
  0
LINE
  5
32
100
AcDbEntity
  8
0
  6
BYBLOCK
 62
     0
100
AcDbLine
 10
3.29361
 20
5.411375
 30
0.0
 11
1.389199
 21
5.411375
 31
0.0
  0
LINE
  5
33
100
AcDbEntity
  8
0
  6
BYBLOCK
 62
     0
100
AcDbLine
 10
1.569199
 20
0.591375
 30
0.0
 11
1.569199
 21
3.421181
 31
0.0
  0
LINE
  5
34
100
AcDbEntity
  8
0
  6
BYBLOCK
 62
     0
100
AcDbLine
 10
1.569199
 20
5.231375
 30
0.0
 11
1.569199
 21
4.112573
 31
0.0
  0
SOLID
  5
35
100
AcDbEntity
  8
0
  6
BYBLOCK
 62
     0
100
AcDbTrace
 10
1.539199
 20
0.591375
 30
0.0
 11
1.599199
 21
0.591375
 31
0.0
 12
1.569199
 22
0.411375
 32
0.0
 13
1.569199
 23
0.411375
 33
0.0
  0
SOLID
  5
36
100
AcDbEntity
  8
0
  6
BYBLOCK
 62
     0
100
AcDbTrace
 10
1.539199
 20
5.231375
 30
0.0
 11
1.599199
 21
5.231375
 31
0.0
 12
1.569199
 22
5.411375
 32
0.0
 13
1.569199
 23
5.411375
 33
0.0
  0
MTEXT
  5
37
100
AcDbEntity
  8
0
  6
BYBLOCK
 62
     0
100
AcDbMText
 10
1.569199
 20
3.766877
 30
0.0
 40
0.17
 41
0.0
 71
     5
 72
     1
  1
\A1;\L5.002\P\l4.998
  0
POINT
  5
38
100
AcDbEntity
  8
DEFPOINTS
  6
BYBLOCK
 62
     0
100
AcDbPoint
 10
4.48111
 20
0.411375
 30
0.0
  0
POINT
  5
39
100
AcDbEntity
  8
DEFPOINTS
  6
BYBLOCK
 62
     0
100
AcDbPoint
 10
3.35611
 20
5.411375
 30
0.0
  0
POINT
  5
3A
100
AcDbEntity
  8
DEFPOINTS
  6
BYBLOCK
 62
     0
100
AcDbPoint
 10
1.569199
 20
5.411375
 30
0.0
  0
ENDBLK
  5
3C
100
AcDbEntity
  8
0
100
AcDbBlockEnd
  0
BLOCK
  5
46
100
AcDbEntity
  8
0
100
AcDbBlockBegin
  2
*D1
 70
     1
 10
0.0
 20
0.0
 30
0.0
  3
*D1
  1

  0
LINE
  5
3E
100
AcDbEntity
  8
0
  6
BYBLOCK
 62
     0
100
AcDbLine
 10
3.699742
 20
2.914045
 30
0.0
 11
3.879742
 21
2.914045
 31
0.0
  0
LINE
  5
3F
100
AcDbEntity
  8
0
  6
BYBLOCK
 62
     0
100
AcDbLine
 10
3.879742
 20
2.914045
 30
0.0
 11
4.615462
 21
3.66556
 31
0.0
  0
MTEXT
  5
40
100
AcDbEntity
  8
0
  6
BYBLOCK
 62
     0
100
AcDbMText
 10
2.928524
 20
2.914045
 30
0.0
 40
0.17
 41
0.0
 71
     5
 72
     1
  1
\A1;\U+2205.328 THRU\P(3 PLACES)
  0
SOLID
  5
41
100
AcDbEntity
  8
0
  6
BYBLOCK
 62
     0
100
AcDbTrace
 10
4.594025
 20
3.686547
 30
0.0
 11
4.636899
 21
3.644574
 31
0.0
 12
4.741382
 22
3.794184
 32
0.0
 13
4.741382
 23
3.794184
 33
0.0
  0
LINE
  5
42
100
AcDbEntity
  8
0
  6
BYBLOCK
 62
     0
100
AcDbLine
 10
4.76611
 20
3.911375
 30
0.0
 11
4.94611
 21
3.911375
 31
0.0
  0
LINE
  5
43
100
AcDbEntity
  8
0
  6
BYBLOCK
 62
     0
100
AcDbLine
 10
4.85611
 20
3.821375
 30
0.0
 11
4.85611
 21
4.001375
 31
0.0
  0
POINT
  5
44
100
AcDbEntity
  8
DEFPOINTS
  6
BYBLOCK
 62
     0
100
AcDbPoint
 10
4.741382
 20
3.794184
 30
0.0
  0
POINT
  5
45
100
AcDbEntity
  8
DEFPOINTS
  6
BYBLOCK
 62
     0
100
AcDbPoint
 10
4.970837
 20
4.028565
 30
0.0
  0
ENDBLK
  5
47
100
AcDbEntity
  8
0
100
AcDbBlockEnd
  0
BLOCK
  5
F2
100
AcDbEntity
  8
0
100
AcDbBlockBegin
  2
BOB4
 70
     0
 10
0.0
 20
0.0
 30
0.0
  3
BOB4
  1

  0
CIRCLE
  5
51
100
AcDbEntity
  8
0
100
AcDbCircle
 10
6.466911
 20
-1.5
 30
0.0
 40
0.4375
  0
LINE
  5
52
100
AcDbEntity
  8
0
100
AcDbLine
 10
3.091911
 20
-5.0
 30
0.0
 11
6.841911
 21
-5.0
 31
0.0
  0
LINE
  5
53
100
AcDbEntity
  8
CTR_LINES
100
AcDbLine
 10
5.555647
 20
-1.5
 30
0.0
 11
7.899727
 21
-1.5
 31
0.0
  0
LINE
  5
54
100
AcDbEntity
  8
CTR_LINES
100
AcDbLine
 10
5.217695
 20
-0.875
 30
0.0
 11
7.899727
 21
-0.875
 31
0.0
  0
LINE
  5
55
100
AcDbEntity
  8
CTR_LINES
100
AcDbLine
 10
1.805118
 20
1.5
 30
0.0
 11
7.899727
 21
1.5
 31
0.0
  0
LINE
  5
56
100
AcDbEntity
  8
0
100
AcDbLine
 10
5.529411
 20
0.625
 30
0.0
 11
7.310911
 21
0.625
 31
0.0
  0
LINE
  5
57
100
AcDbEntity
  8
0
100
AcDbLine
 10
6.466911
 20
-4.5
 30
0.0
 11
5.716911
 21
-4.5
 31
0.0
  0
ARC
  5
58
100
AcDbEntity
  8
0
100
AcDbCircle
 10
6.341911
 20
-4.375
 30
0.0
 40
0.125
100
AcDbArc
 50
180.0
 51
270.0
  0
LINE
  5
59
100
AcDbEntity
  8
0
100
AcDbLine
 10
5.716911
 20
-1.9375
 30
0.0
 11
6.466911
 21
-1.9375
 31
0.0
  0
LINE
  5
5A
100
AcDbEntity
  8
0
100
AcDbLine
 10
5.515346
 20
1.25
 30
0.0
 11
7.185911
 21
1.25
 31
0.0
  0
ARC
  5
5B
100
AcDbEntity
  8
0
100
AcDbCircle
 10
6.341911
 20
-2.048435
 30
0.0
 40
0.125
100
AcDbArc
 50
77.160412
 51
180.0
  0
LINE
  5
5C
100
AcDbEntity
  8
HIDDEN_LINE
  6
HIDDEN2
100
AcDbLine
 10
6.77627
 20
-1.190641
 30
0.0
 11
6.15127
 21
-0.565641
 31
0.0
  0
ARC
  5
5D
100
AcDbEntity
  8
HIDDEN_LINE
  6
HIDDEN2
100
AcDbCircle
 10
5.841911
 20
-0.875
 30
0.0
 40
0.4375
100
AcDbArc
 50
45.0
 51
225.0
  0
ARC
  5
5E
100
AcDbEntity
  8
0
100
AcDbCircle
 10
6.466911
 20
-1.5
 30
0.0
 40
0.4375
100
AcDbArc
 50
225.0
 51
45.0
  0
DIMENSION
  5
5F
100
AcDbEntity
  8
DIMS_TEXT
100
AcDbDimension
  2
*D1
 10
3.581638
 20
-1.382809
 30
0.0
 11
1.539326
 21
-2.49733
 31
0.0
 12
-1.389199
 22
-5.411375
 32
0.0
 70
   131
  1
<> THRU\P(3 PLACES)
  3
STANDARD
100
AcDbDiametricDimension
 15
3.352183
 25
-1.617191
 35
0.0
 40
0.0
1001
ACAD
1000
DSTYLE
1002
{
1070
    78
1070
     4
1070
   288
1070
     1
1070
   284
1070
     4
1070
   140
1040
0.17
1070
   272
1070
     0
1070
   271
1070
     3
1002
}
  0
DIMENSION
  5
60
100
AcDbEntity
  8
DIMS_TEXT
100
AcDbDimension
  2
*D0
 10
0.18
 20
0.0
 30
0.0
 11
0.18
 21
-1.644498
 31
0.0
 12
-1.389199
 22
-5.411375
 32
0.0
 70
   128
  1
\L5.002\P\l4.998
  3
STANDARD
100
AcDbAlignedDimension
 13
3.091911
 23
-5.0
 33
0.0
 14
1.966911
 24
0.0
 34
0.0
 50
90.0
100
AcDbRotatedDimension
1001
ACAD
1000
DSTYLE
1002
{
1070
    78
1070
     4
1070
   284
1070
     4
1070
   140
1040
0.17
1070
   272
1070
     0
1070
   271
1070
     3
1002
}
  0
LINE
  5
61
100
AcDbEntity
  8
CTR_LINES
100
AcDbLine
 10
5.841911
 20
-0.196439
 30
0.0
 11
5.841911
 21
-5.388999
 31
0.0
  0
LINE
  5
62
100
AcDbEntity
  8
0
100
AcDbLine
 10
-4.870531
 20
-4.375
 30
0.0
 11
-4.870531
 21
-2.0625
 31
0.0
  0
LINE
  5
63
100
AcDbEntity
  8
0
100
AcDbLine
 10
-4.120531
 20
-4.375
 30
0.0
 11
-4.120531
 21
-2.0625
 31
0.0
  0
LINE
  5
64
100
AcDbEntity
  8
0
100
AcDbLine
 10
-3.058031
 20
-4.625
 30
0.0
 11
-3.058031
 21
-1.9375
 31
0.0
  0
LINE
  5
65
100
AcDbEntity
  8
0
100
AcDbLine
 10
-5.933031
 20
-4.625
 30
0.0
 11
-5.933031
 21
-1.9375
 31
0.0
  0
LINE
  5
66
100
AcDbEntity
  8
0
100
AcDbLine
 10
4.341911
 20
-2.0625
 30
0.0
 11
4.341911
 21
-4.375
 31
0.0
  0
LINE
  5
67
100
AcDbEntity
  8
0
100
AcDbLine
 10
5.591911
 20
-2.0625
 30
0.0
 11
5.591911
 21
-4.375
 31
0.0
  0
LINE
  5
68
100
AcDbEntity
  8
0
100
AcDbLine
 10
3.716911
 20
-2.048435
 30
0.0
 11
3.716911
 21
-4.375
 31
0.0
  0
LINE
  5
69
100
AcDbEntity
  8
0
100
AcDbLine
 10
6.216911
 20
-2.048435
 30
0.0
 11
6.216911
 21
-4.375
 31
0.0
  0
ARC
  5
6A
100
AcDbEntity
  8
0
100
AcDbCircle
 10
-3.183031
 20
-4.625
 30
0.0
 40
0.125
100
AcDbArc
 50
0.0
 51
90.0
  0
LINE
  5
6B
100
AcDbEntity
  8
0
100
AcDbLine
 10
-5.933031
 20
-5.0
 30
0.0
 11
-3.058031
 21
-5.0
 31
0.0
  0
LINE
  5
6C
100
AcDbEntity
  8
0
100
AcDbLine
 10
-5.808031
 20
-4.5
 30
0.0
 11
-5.245531
 21
-4.5
 31
0.0
  0
LINE
  5
6D
100
AcDbEntity
  8
HIDDEN_LINE
  6
HIDDEN2
100
AcDbLine
 10
-5.784531
 20
-5.0
 30
0.0
 11
-5.784531
 21
-4.5
 31
0.0
  0
ARC
  5
6E
100
AcDbEntity
  8
0
100
AcDbCircle
 10
-5.808031
 20
-4.625
 30
0.0
 40
0.125
100
AcDbArc
 50
90.0
 51
180.0
  0
LINE
  5
6F
100
AcDbEntity
  8
0
100
AcDbLine
 10
-5.933031
 20
-5.0
 30
0.0
 11
-5.933031
 21
-4.625
 31
0.0
  0
LINE
  5
70
100
AcDbEntity
  8
0
100
AcDbLine
 10
-4.995531
 20
-4.5
 30
0.0
 11
-3.995531
 21
-4.5
 31
0.0
  0
LINE
  5
71
100
AcDbEntity
  8
HIDDEN_LINE
  6
HIDDEN2
100
AcDbLine
 10
-5.456531
 20
-5.0
 30
0.0
 11
-5.456531
 21
-4.5
 31
0.0
  0
ARC
  5
72
100
AcDbEntity
  8
0
100
AcDbCircle
 10
-4.995531
 20
-4.375
 30
0.0
 40
0.125
100
AcDbArc
 50
270.0
 51
0.0
  0
LINE
  5
73
100
AcDbEntity
  8
0
100
AcDbLine
 10
-5.245531
 20
-4.5
 30
0.0
 11
-4.995531
 21
-4.5
 31
0.0
  0
LINE
  5
74
100
AcDbEntity
  8
HIDDEN_LINE
  6
HIDDEN2
100
AcDbLine
 10
-3.534531
 20
-5.0
 30
0.0
 11
-3.534531
 21
-4.5
 31
0.0
  0
LINE
  5
75
100
AcDbEntity
  8
HIDDEN_LINE
  6
HIDDEN2
100
AcDbLine
 10
-3.206531
 20
-5.0
 30
0.0
 11
-3.206531
 21
-4.5
 31
0.0
  0
LINE
  5
76
100
AcDbEntity
  8
0
100
AcDbLine
 10
-3.745531
 20
-4.5
 30
0.0
 11
-3.183031
 21
-4.5
 31
0.0
  0
ARC
  5
77
100
AcDbEntity
  8
0
100
AcDbCircle
 10
-3.995531
 20
-4.375
 30
0.0
 40
0.125
100
AcDbArc
 50
180.0
 51
270.0
  0
LINE
  5
78
100
AcDbEntity
  8
0
100
AcDbLine
 10
-3.995531
 20
-4.5
 30
0.0
 11
-3.745531
 21
-4.5
 31
0.0
  0
LINE
  5
79
100
AcDbEntity
  8
0
100
AcDbLine
 10
-3.058031
 20
-5.0
 30
0.0
 11
-3.058031
 21
-4.625
 31
0.0
  0
LINE
  5
7A
100
AcDbEntity
  8
0
100
AcDbLine
 10
3.216911
 20
-4.5
 30
0.0
 11
4.216911
 21
-4.5
 31
0.0
  0
LINE
  5
7B
100
AcDbEntity
  8
HIDDEN_LINE
  6
HIDDEN2
100
AcDbLine
 10
3.630911
 20
-4.5
 30
0.0
 11
3.630911
 21
-5.0
 31
0.0
  0
LINE
  5
7C
100
AcDbEntity
  8
HIDDEN_LINE
  6
HIDDEN2
100
AcDbLine
 10
3.302911
 20
-4.5
 30
0.0
 11
3.302911
 21
-5.0
 31
0.0
  0
ARC
  5
7D
100
AcDbEntity
  8
0
100
AcDbCircle
 10
3.216911
 20
-4.625
 30
0.0
 40
0.125
100
AcDbArc
 50
90.0
 51
180.0
  0
LINE
  5
7E
100
AcDbEntity
  8
0
100
AcDbLine
 10
3.091911
 20
-4.625
 30
0.0
 11
3.091911
 21
-5.0
 31
0.0
  0
LINE
  5
7F
100
AcDbEntity
  8
0
100
AcDbLine
 10
3.216911
 20
-4.5
 30
0.0
 11
3.591911
 21
-4.5
 31
0.0
  0
ARC
  5
80
100
AcDbEntity
  8
0
100
AcDbCircle
 10
3.591911
 20
-4.375
 30
0.0
 40
0.125
100
AcDbArc
 50
270.0
 51
0.0
  0
ARC
  5
81
100
AcDbEntity
  8
0
100
AcDbCircle
 10
4.216911
 20
-4.375
 30
0.0
 40
0.125
100
AcDbArc
 50
270.0
 51
0.0
  0
ARC
  5
82
100
AcDbEntity
  8
0
100
AcDbCircle
 10
5.716911
 20
-4.375
 30
0.0
 40
0.125
100
AcDbArc
 50
180.0
 51
270.0
  0
LINE
  5
83
100
AcDbEntity
  8
HIDDEN_LINE
  6
HIDDEN2
100
AcDbLine
 10
-4.106448
 20
-1.241716
 30
0.0
 11
-3.087609
 21
-0.642399
 31
0.0
  0
LINE
  5
84
100
AcDbEntity
  8
HIDDEN_LINE
  6
HIDDEN2
100
AcDbLine
 10
-3.087609
 20
0.642399
 30
0.0
 11
-4.106448
 21
1.241716
 31
0.0
  0
ARC
  5
85
100
AcDbEntity
  8
0
100
AcDbCircle
 10
-3.370531
 20
-1.5625
 30
0.0
 40
0.3125
100
AcDbArc
 50
270.0
 51
0.0
  0
ARC
  5
86
100
AcDbEntity
  8
0
100
AcDbCircle
 10
-3.370531
 20
1.5625
 30
0.0
 40
0.3125
100
AcDbArc
 50
0.0
 51
90.0
  0
LINE
  5
87
100
AcDbEntity
  8
0
100
AcDbLine
 10
-5.995531
 20
1.9375
 30
0.0
 11
-2.995531
 21
1.9375
 31
0.0
  0
LINE
  5
88
100
AcDbEntity
  8
0
100
AcDbLine
 10
-3.745531
 20
-1.9375
 30
0.0
 11
-2.995531
 21
-1.9375
 31
0.0
  0
LINE
  5
89
100
AcDbEntity
  8
CTR_LINES
100
AcDbLine
 10
-6.495531
 20
-1.5
 30
0.0
 11
-2.822486
 21
-1.5
 31
0.0
  0
LINE
  5
8A
100
AcDbEntity
  8
CTR_LINES
100
AcDbLine
 10
-6.495531
 20
1.5
 30
0.0
 11
-2.822486
 21
1.5
 31
0.0
  0
CIRCLE
  5
8B
100
AcDbEntity
  8
HIDDEN_LINE
  6
HIDDEN2
100
AcDbCircle
 10
-4.495531
 20
0.0
 30
0.0
 40
0.9685
  0
CIRCLE
  5
8C
100
AcDbEntity
  8
0
100
AcDbCircle
 10
-4.495531
 20
0.0
 30
0.0
 40
0.925
  0
LINE
  5
8D
100
AcDbEntity
  8
0
100
AcDbLine
 10
-5.933031
 20
-0.590683
 30
0.0
 11
-5.933031
 21
0.590683
 31
0.0
  0
LINE
  5
8E
100
AcDbEntity
  8
0
100
AcDbLine
 10
-5.933031
 20
-1.0025
 30
0.0
 11
-5.933031
 21
1.5625
 31
0.0
  0
LINE
  5
8F
100
AcDbEntity
  8
0
100
AcDbLine
 10
-5.620531
 20
-1.9375
 30
0.0
 11
-4.995531
 21
-1.9375
 31
0.0
  0
LINE
  5
90
100
AcDbEntity
  8
HIDDEN_LINE
  6
HIDDEN2
100
AcDbLine
 10
-5.903452
 20
-0.642399
 30
0.0
 11
-4.884613
 21
-1.241716
 31
0.0
  0
LINE
  5
91
100
AcDbEntity
  8
0
100
AcDbLine
 10
-5.995531
 20
-1.9375
 30
0.0
 11
-5.245531
 21
-1.9375
 31
0.0
  0
CIRCLE
  5
92
100
AcDbEntity
  8
0
100
AcDbCircle
 10
-5.620531
 20
-1.5
 30
0.0
 40
0.164
  0
LINE
  5
93
100
AcDbEntity
  8
0
100
AcDbLine
 10
-5.620531
 20
-1.875
 30
0.0
 11
-3.370531
 21
-1.875
 31
0.0
  0
LINE
  5
94
100
AcDbEntity
  8
0
100
AcDbLine
 10
-5.933031
 20
-1.5625
 30
0.0
 11
-5.933031
 21
-1.0025
 31
0.0
  0
LINE
  5
95
100
AcDbEntity
  8
0
100
AcDbLine
 10
-5.995531
 20
-1.9375
 30
0.0
 11
-5.995531
 21
-0.4375
 31
0.0
  0
ARC
  5
96
100
AcDbEntity
  8
0
100
AcDbCircle
 10
-5.620531
 20
-1.5625
 30
0.0
 40
0.3125
100
AcDbArc
 50
180.0
 51
270.0
  0
ARC
  5
97
100
AcDbEntity
  8
0
100
AcDbCircle
 10
-5.993031
 20
-0.3775
 30
0.0
 40
0.06
100
AcDbArc
 50
270.0
 51
0.0
  0
ARC
  5
98
100
AcDbEntity
  8
HIDDEN_LINE
100
AcDbCircle
 10
-5.873031
 20
-0.590683
 30
0.0
 40
0.06
100
AcDbArc
 50
180.0
 51
239.534455
  0
LINE
  5
99
100
AcDbEntity
  8
0
100
AcDbLine
 10
-5.993031
 20
-0.4375
 30
0.0
 11
-5.995531
 21
-0.4375
 31
0.0
  0
CIRCLE
  5
9A
100
AcDbEntity
  8
0
100
AcDbCircle
 10
-3.370531
 20
-1.5
 30
0.0
 40
0.164
  0
ARC
  5
9B
100
AcDbEntity
  8
0
100
AcDbCircle
 10
-4.995531
 20
-2.0625
 30
0.0
 40
0.125
100
AcDbArc
 50
0.0
 51
90.0
  0
ARC
  5
9C
100
AcDbEntity
  8
0
100
AcDbCircle
 10
-3.995531
 20
-2.0625
 30
0.0
 40
0.125
100
AcDbArc
 50
90.0
 51
180.0
  0
LINE
  5
9D
100
AcDbEntity
  8
0
100
AcDbLine
 10
-3.995531
 20
-1.9375
 30
0.0
 11
-3.370531
 21
-1.9375
 31
0.0
  0
LINE
  5
9E
100
AcDbEntity
  8
HIDDEN_LINE
  6
HIDDEN2
100
AcDbLine
 10
-4.854192
 20
-1.25
 30
0.0
 11
-4.136869
 21
-1.25
 31
0.0
  0
ARC
  5
9F
100
AcDbEntity
  8
HIDDEN_LINE
  6
HIDDEN2
100
AcDbCircle
 10
-4.854192
 20
-1.19
 30
0.0
 40
0.06
100
AcDbArc
 50
239.534455
 51
270.0
  0
ARC
  5
A0
100
AcDbEntity
  8
HIDDEN_LINE
  6
HIDDEN2
100
AcDbCircle
 10
-4.136869
 20
-1.19
 30
0.0
 40
0.06
100
AcDbArc
 50
270.0
 51
300.465545
  0
LINE
  5
A1
100
AcDbEntity
  8
HIDDEN_LINE
  6
HIDDEN2
100
AcDbLine
 10
-4.884613
 20
1.241716
 30
0.0
 11
-5.903452
 21
0.642399
 31
0.0
  0
CIRCLE
  5
A2
100
AcDbEntity
  8
0
100
AcDbCircle
 10
-5.620531
 20
1.5
 30
0.0
 40
0.164
  0
LINE
  5
A3
100
AcDbEntity
  8
0
100
AcDbLine
 10
-5.620531
 20
1.875
 30
0.0
 11
-3.370531
 21
1.875
 31
0.0
  0
LINE
  5
A4
100
AcDbEntity
  8
0
100
AcDbLine
 10
-5.995531
 20
1.0625
 30
0.0
 11
-5.995531
 21
1.9375
 31
0.0
  0
ARC
  5
A5
100
AcDbEntity
  8
HIDDEN_LINE
100
AcDbCircle
 10
-5.873031
 20
0.590683
 30
0.0
 40
0.06
100
AcDbArc
 50
120.465545
 51
180.0
  0
ARC
  5
A6
100
AcDbEntity
  8
0
100
AcDbCircle
 10
-5.993031
 20
1.0025
 30
0.0
 40
0.06
100
AcDbArc
 50
0.0
 51
90.0
  0
LINE
  5
A7
100
AcDbEntity
  8
0
100
AcDbLine
 10
-5.995531
 20
1.0625
 30
0.0
 11
-5.993031
 21
1.0625
 31
0.0
  0
ARC
  5
A8
100
AcDbEntity
  8
0
100
AcDbCircle
 10
-5.620531
 20
1.5625
 30
0.0
 40
0.3125
100
AcDbArc
 50
90.0
 51
180.0
  0
LINE
  5
A9
100
AcDbEntity
  8
HIDDEN_LINE
  6
HIDDEN2
100
AcDbLine
 10
-4.136869
 20
1.25
 30
0.0
 11
-4.854192
 21
1.25
 31
0.0
  0
ARC
  5
AA
100
AcDbEntity
  8
HIDDEN_LINE
  6
HIDDEN2
100
AcDbCircle
 10
-4.854192
 20
1.19
 30
0.0
 40
0.06
100
AcDbArc
 50
90.0
 51
120.465545
  0
ARC
  5
AB
100
AcDbEntity
  8
HIDDEN_LINE
  6
HIDDEN2
100
AcDbCircle
 10
-4.136869
 20
1.19
 30
0.0
 40
0.06
100
AcDbArc
 50
59.534455
 51
90.0
  0
CIRCLE
  5
AC
100
AcDbEntity
  8
0
100
AcDbCircle
 10
-3.370531
 20
1.5
 30
0.0
 40
0.164
  0
LINE
  5
AD
100
AcDbEntity
  8
0
100
AcDbLine
 10
-3.058031
 20
-1.5625
 30
0.0
 11
-3.058031
 21
1.5625
 31
0.0
  0
LINE
  5
AE
100
AcDbEntity
  8
0
100
AcDbLine
 10
-2.995531
 20
-1.9375
 30
0.0
 11
-2.995531
 21
-1.0625
 31
0.0
  0
ARC
  5
AF
100
AcDbEntity
  8
0
100
AcDbCircle
 10
-2.998031
 20
-1.0025
 30
0.0
 40
0.06
100
AcDbArc
 50
180.0
 51
270.0
  0
LINE
  5
B0
100
AcDbEntity
  8
0
100
AcDbLine
 10
-2.998031
 20
-1.0625
 30
0.0
 11
-2.995531
 21
-1.0625
 31
0.0
  0
ARC
  5
B1
100
AcDbEntity
  8
HIDDEN_LINE
100
AcDbCircle
 10
-3.118031
 20
-0.590683
 30
0.0
 40
0.06
100
AcDbArc
 50
300.465545
 51
0.0
  0
LINE
  5
B2
100
AcDbEntity
  8
0
100
AcDbLine
 10
-2.995531
 20
1.0625
 30
0.0
 11
-2.995531
 21
1.9375
 31
0.0
  0
ARC
  5
B3
100
AcDbEntity
  8
HIDDEN_LINE
100
AcDbCircle
 10
-3.118031
 20
0.590683
 30
0.0
 40
0.06
100
AcDbArc
 50
0.0
 51
59.534455
  0
ARC
  5
B4
100
AcDbEntity
  8
0
100
AcDbCircle
 10
-2.998031
 20
1.0025
 30
0.0
 40
0.06
100
AcDbArc
 50
90.0
 51
180.0
  0
LINE
  5
B5
100
AcDbEntity
  8
0
100
AcDbLine
 10
-2.998031
 20
1.0625
 30
0.0
 11
-2.995531
 21
1.0625
 31
0.0
  0
LINE
  5
B6
100
AcDbEntity
  8
0
100
AcDbLine
 10
1.966911
 20
1.875
 30
0.0
 11
1.966911
 21
-1.875
 31
0.0
  0
LINE
  5
B7
100
AcDbEntity
  8
0
100
AcDbLine
 10
3.466911
 20
-1.9375
 30
0.0
 11
4.216911
 21
-1.9375
 31
0.0
  0
LINE
  5
B8
100
AcDbEntity
  8
0
100
AcDbLine
 10
3.029411
 20
-1.5
 30
0.0
 11
3.029411
 21
-0.75
 31
0.0
  0
LINE
  5
B9
100
AcDbEntity
  8
0
100
AcDbLine
 10
2.466911
 20
-1.75
 30
0.0
 11
2.466911
 21
-1.375
 31
0.0
  0
LINE
  5
BA
100
AcDbEntity
  8
0
100
AcDbLine
 10
2.466911
 20
-0.75
 30
0.0
 11
2.466911
 21
-1.5
 31
0.0
  0
ARC
  5
BB
100
AcDbEntity
  8
0
100
AcDbCircle
 10
2.918475
 20
-1.375
 30
0.0
 40
0.125
100
AcDbArc
 50
347.160412
 51
90.0
  0
CIRCLE
  5
BC
100
AcDbEntity
  8
0
100
AcDbCircle
 10
3.466911
 20
-1.5
 30
0.0
 40
0.4375
  0
CIRCLE
  5
BD
100
AcDbEntity
  8
0
100
AcDbCircle
 10
3.466911
 20
-1.5
 30
0.0
 40
0.164
  0
LINE
  5
BE
100
AcDbEntity
  8
CTR_LINES
100
AcDbLine
 10
3.466911
 20
-0.622065
 30
0.0
 11
3.466911
 21
-2.520601
 31
0.0
  0
LINE
  5
BF
100
AcDbEntity
  8
HIDDEN_LINE
  6
HIDDEN2
100
AcDbLine
 10
1.966911
 20
-1.664
 30
0.0
 11
2.466911
 21
-1.664
 31
0.0
  0
LINE
  5
C0
100
AcDbEntity
  8
0
100
AcDbLine
 10
1.966911
 20
-1.875
 30
0.0
 11
2.341911
 21
-1.875
 31
0.0
  0
ARC
  5
C1
100
AcDbEntity
  8
0
100
AcDbCircle
 10
2.341911
 20
-1.75
 30
0.0
 40
0.125
100
AcDbArc
 50
270.0
 51
360.0
  0
ARC
  5
C2
100
AcDbEntity
  8
0
100
AcDbCircle
 10
3.591911
 20
-2.048435
 30
0.0
 40
0.125
100
AcDbArc
 50
0.0
 51
102.839588
  0
LINE
  5
C3
100
AcDbEntity
  8
0
100
AcDbLine
 10
2.591911
 20
-0.625
 30
0.0
 11
2.904411
 21
-0.625
 31
0.0
  0
LINE
  5
C4
100
AcDbEntity
  8
0
100
AcDbLine
 10
2.591911
 20
-1.25
 30
0.0
 11
2.918475
 21
-1.25
 31
0.0
  0
ARC
  5
C5
100
AcDbEntity
  8
0
100
AcDbCircle
 10
2.591911
 20
-0.75
 30
0.0
 40
0.125
100
AcDbArc
 50
90.0
 51
180.0
  0
LINE
  5
C6
100
AcDbEntity
  8
HIDDEN_LINE
  6
HIDDEN2
100
AcDbLine
 10
1.966911
 20
-1.336
 30
0.0
 11
2.466911
 21
-1.336
 31
0.0
  0
ARC
  5
C7
100
AcDbEntity
  8
0
100
AcDbCircle
 10
2.591911
 20
-1.375
 30
0.0
 40
0.125
100
AcDbArc
 50
90.0
 51
180.0
  0
ARC
  5
C8
100
AcDbEntity
  8
0
100
AcDbCircle
 10
2.904411
 20
-0.75
 30
0.0
 40
0.125
100
AcDbArc
 50
0.0
 51
90.0
  0
LINE
  5
C9
100
AcDbEntity
  8
HIDDEN_LINE
  6
DASHED2
100
AcDbLine
 10
6.157552
 20
-1.809359
 30
0.0
 11
5.532552
 21
-1.184359
 31
0.0
  0
ARC
  5
CA
100
AcDbEntity
  8
0
100
AcDbCircle
 10
4.216911
 20
-2.0625
 30
0.0
 40
0.125
100
AcDbArc
 50
0.0
 51
90.0
  0
ARC
  5
CB
100
AcDbEntity
  8
0
100
AcDbCircle
 10
5.716911
 20
-2.0625
 30
0.0
 40
0.125
100
AcDbArc
 50
90.0
 51
180.0
  0
CIRCLE
  5
CC
100
AcDbEntity
  8
HIDDEN_LINE
  6
HIDDEN2
100
AcDbCircle
 10
5.841911
 20
-0.875
 30
0.0
 40
0.2
  0
CIRCLE
  5
CD
100
AcDbEntity
  8
0
  6
HIDDEN2
100
AcDbCircle
 10
5.841911
 20
-0.875
 30
0.0
 40
0.1685
  0
LINE
  5
CE
100
AcDbEntity
  8
0
100
AcDbLine
 10
2.591911
 20
0.625
 30
0.0
 11
4.404411
 21
0.625
 31
0.0
  0
LINE
  5
CF
100
AcDbEntity
  8
0
100
AcDbLine
 10
2.591911
 20
1.25
 30
0.0
 11
4.418475
 21
1.25
 31
0.0
  0
LINE
  5
D0
100
AcDbEntity
  8
0
100
AcDbLine
 10
2.466911
 20
1.5
 30
0.0
 11
2.466911
 21
0.75
 31
0.0
  0
ARC
  5
D1
100
AcDbEntity
  8
0
100
AcDbCircle
 10
2.591911
 20
0.75
 30
0.0
 40
0.125
100
AcDbArc
 50
180.0
 51
270.0
  0
ARC
  5
D2
100
AcDbEntity
  8
0
100
AcDbCircle
 10
2.341911
 20
1.75
 30
0.0
 40
0.125
100
AcDbArc
 50
0.0
 51
90.0
  0
LINE
  5
D3
100
AcDbEntity
  8
HIDDEN_LINE
  6
HIDDEN2
100
AcDbLine
 10
1.966911
 20
1.336
 30
0.0
 11
2.466911
 21
1.336
 31
0.0
  0
LINE
  5
D4
100
AcDbEntity
  8
HIDDEN_LINE
  6
HIDDEN2
100
AcDbLine
 10
1.966911
 20
1.664
 30
0.0
 11
2.466911
 21
1.664
 31
0.0
  0
LINE
  5
D5
100
AcDbEntity
  8
0
100
AcDbLine
 10
2.466911
 20
1.75
 30
0.0
 11
2.466911
 21
1.375
 31
0.0
  0
ARC
  5
D6
100
AcDbEntity
  8
0
100
AcDbCircle
 10
2.591911
 20
1.375
 30
0.0
 40
0.125
100
AcDbArc
 50
180.0
 51
270.0
  0
LINE
  5
D7
100
AcDbEntity
  8
0
100
AcDbLine
 10
1.966911
 20
1.875
 30
0.0
 11
2.341911
 21
1.875
 31
0.0
  0
LINE
  5
D8
100
AcDbEntity
  8
0
100
AcDbLine
 10
4.529411
 20
1.5
 30
0.0
 11
4.529411
 21
0.75
 31
0.0
  0
LINE
  5
D9
100
AcDbEntity
  8
0
100
AcDbLine
 10
5.404411
 20
1.5
 30
0.0
 11
5.404411
 21
0.75
 31
0.0
  0
CIRCLE
  5
DA
100
AcDbEntity
  8
0
100
AcDbCircle
 10
4.966911
 20
1.5
 30
0.0
 40
0.4375
  0
ARC
  5
DB
100
AcDbEntity
  8
0
100
AcDbCircle
 10
4.404411
 20
0.75
 30
0.0
 40
0.125
100
AcDbArc
 50
270.0
 51
0.0
  0
ARC
  5
DC
100
AcDbEntity
  8
0
100
AcDbCircle
 10
5.529411
 20
0.75
 30
0.0
 40
0.125
100
AcDbArc
 50
180.0
 51
270.0
  0
CIRCLE
  5
DD
100
AcDbEntity
  8
0
100
AcDbCircle
 10
4.966911
 20
1.5
 30
0.0
 40
0.164
  0
ARC
  5
DE
100
AcDbEntity
  8
0
100
AcDbCircle
 10
4.418475
 20
1.375
 30
0.0
 40
0.125
100
AcDbArc
 50
270.0
 51
12.839588
  0
ARC
  5
DF
100
AcDbEntity
  8
0
100
AcDbCircle
 10
5.515346
 20
1.375
 30
0.0
 40
0.125
100
AcDbArc
 50
167.160412
 51
270.0
  0
LINE
  5
E0
100
AcDbEntity
  8
CTR_LINES
100
AcDbLine
 10
6.466911
 20
2.110616
 30
0.0
 11
6.466911
 21
-5.388999
 31
0.0
  0
LINE
  5
E1
100
AcDbEntity
  8
HIDDEN_LINE
  6
HIDDEN2
100
AcDbLine
 10
6.630911
 20
-4.5
 30
0.0
 11
6.630911
 21
-5.0
 31
0.0
  0
LINE
  5
E2
100
AcDbEntity
  8
HIDDEN_LINE
  6
HIDDEN2
100
AcDbLine
 10
6.302911
 20
-4.5
 30
0.0
 11
6.302911
 21
-5.0
 31
0.0
  0
ARC
  5
E3
100
AcDbEntity
  8
0
100
AcDbCircle
 10
6.716911
 20
-4.625
 30
0.0
 40
0.125
100
AcDbArc
 50
360.0
 51
90.0
  0
LINE
  5
E4
100
AcDbEntity
  8
0
100
AcDbLine
 10
6.841911
 20
-4.625
 30
0.0
 11
6.841911
 21
-5.0
 31
0.0
  0
LINE
  5
E5
100
AcDbEntity
  8
0
100
AcDbLine
 10
6.341911
 20
-4.5
 30
0.0
 11
6.716911
 21
-4.5
 31
0.0
  0
LINE
  5
E6
100
AcDbEntity
  8
0
100
AcDbLine
 10
7.310911
 20
1.125
 30
0.0
 11
7.310911
 21
-1.125
 31
0.0
  0
LINE
  5
E7
100
AcDbEntity
  8
0
100
AcDbLine
 10
6.904411
 20
-1.5
 30
0.0
 11
6.893471
 21
-0.75
 31
0.0
  0
ARC
  5
E8
100
AcDbEntity
  8
0
100
AcDbCircle
 10
7.015346
 20
-1.375
 30
0.0
 40
0.125
100
AcDbArc
 50
90.0
 51
192.839588
  0
CIRCLE
  5
E9
100
AcDbEntity
  8
0
100
AcDbCircle
 10
6.466911
 20
-1.5
 30
0.0
 40
0.164
  0
ARC
  5
EA
100
AcDbEntity
  8
0
100
AcDbCircle
 10
7.018471
 20
-0.75
 30
0.0
 40
0.125
100
AcDbArc
 50
90.0
 51
180.0
  0
LINE
  5
EB
100
AcDbEntity
  8
0
100
AcDbLine
 10
7.015346
 20
-1.25
 30
0.0
 11
7.185911
 21
-1.25
 31
0.0
  0
ARC
  5
EC
100
AcDbEntity
  8
0
100
AcDbCircle
 10
7.185911
 20
-1.125
 30
0.0
 40
0.125
100
AcDbArc
 50
270.0
 51
0.0
  0
LINE
  5
ED
100
AcDbEntity
  8
0
100
AcDbLine
 10
7.018471
 20
-0.625
 30
0.0
 11
7.310911
 21
-0.625
 31
0.0
  0
ARC
  5
EE
100
AcDbEntity
  8
0
100
AcDbCircle
 10
7.185911
 20
1.125
 30
0.0
 40
0.125
100
AcDbArc
 50
0.0
 51
90.0
  0
LINE
  5
EF
100
AcDbEntity
  8
CTR_LINES
100
AcDbLine
 10
-7.041598
 20
0.0
 30
0.0
 11
10.627127
 21
0.0
 31
0.0
  0
LINE
  5
F0
100
AcDbEntity
  8
CTR_LINES
100
AcDbLine
 10
4.966911
 20
2.110616
 30
0.0
 11
4.966911
 21
-10.945229
 31
0.0
  0
LINE
  5
F1
100
AcDbEntity
  8
CTR_LINES
100
AcDbLine
 10
-3.370531
 20
-2.276576
 30
0.0
 11
-3.370531
 21
2.889591
 31
0.0
  0
ENDBLK
  5
F3
100
AcDbEntity
  8
0
100
AcDbBlockEnd
  0
BLOCK
  5
49E
100
AcDbEntity
  8
0
100
AcDbBlockBegin
  2
*D3
 70
     1
 10
0.0
 20
0.0
 30
0.0
  3
*D3
  1

  0
LINE
  5
49F
100
AcDbEntity
  8
0
  6
BYBLOCK
 62
     0
100
AcDbLine
 10
14.363262
 20
3.398151
 30
0.0
 11
14.213262
 21
3.398151
 31
0.0
  0
LINE
  5
4A0
100
AcDbEntity
  8
0
  6
BYBLOCK
 62
     0
100
AcDbLine
 10
14.213262
 20
3.398151
 30
0.0
 11
13.339208
 21
4.26575
 31
0.0
  0
MTEXT
  5
4A1
100
AcDbEntity
  8
0
  6
BYBLOCK
 62
     0
100
AcDbMText
 10
15.128262
 20
3.398151
 30
0.0
 40
0.15
 41
0.0
 71
     5
 72
     1
  1
\A1;\U+2205.328 THRU\PX 3
  0
SOLID
  5
4A2
100
AcDbEntity
  8
0
  6
BYBLOCK
 62
     0
100
AcDbTrace
 10
13.35682
 20
4.283493
 30
0.0
 11
13.321596
 21
4.248006
 31
0.0
 12
13.23275
 22
4.371422
 32
0.0
 13
13.23275
 23
4.371422
 33
0.0
  0
LINE
  5
4A3
100
AcDbEntity
  8
0
  6
BYBLOCK
 62
     0
100
AcDbLine
 10
13.026355
 20
4.486957
 30
0.0
 11
13.206355
 21
4.486957
 31
0.0
  0
LINE
  5
4A4
100
AcDbEntity
  8
0
  6
BYBLOCK
 62
     0
100
AcDbLine
 10
13.116355
 20
4.396957
 30
0.0
 11
13.116355
 21
4.576957
 31
0.0
  0
POINT
  5
4A5
100
AcDbEntity
  8
DEFPOINTS
  6
BYBLOCK
 62
     0
100
AcDbPoint
 10
13.23275
 20
4.371422
 30
0.0
  0
POINT
  5
4A6
100
AcDbEntity
  8
DEFPOINTS
  6
BYBLOCK
 62
     0
100
AcDbPoint
 10
12.999961
 20
4.602491
 30
0.0
  0
ENDBLK
  5
4A7
100
AcDbEntity
  8
0
100
AcDbBlockEnd
  0
BLOCK
  5
242
100
AcDbEntity
  8
0
100
AcDbBlockBegin
  2
*D4
 70
     1
 10
0.0
 20
0.0
 30
0.0
  3
*D4
  1

  0
LINE
  5
243
100
AcDbEntity
  8
0
  6
BYBLOCK
 62
     0
100
AcDbLine
 10
13.553855
 20
0.986957
 30
0.0
 11
14.37009
 21
0.986957
 31
0.0
  0
LINE
  5
244
100
AcDbEntity
  8
0
  6
BYBLOCK
 62
     0
100
AcDbLine
 10
13.428855
 20
1.486957
 30
0.0
 11
14.37009
 21
1.486957
 31
0.0
  0
LINE
  5
245
100
AcDbEntity
  8
0
  6
BYBLOCK
 62
     0
100
AcDbLine
 10
14.19009
 20
1.336957
 30
0.0
 11
14.19009
 21
1.136957
 31
0.0
  0
LINE
  5
246
100
AcDbEntity
  8
0
  6
BYBLOCK
 62
     0
100
AcDbLine
 10
14.19009
 20
0.986957
 30
0.0
 11
14.19009
 21
0.229952
 31
0.0
  0
LINE
  5
247
100
AcDbEntity
  8
0
  6
BYBLOCK
 62
     0
100
AcDbLine
 10
14.19009
 20
0.229952
 30
0.0
 11
14.04009
 21
0.229952
 31
0.0
  0
SOLID
  5
248
100
AcDbEntity
  8
0
  6
BYBLOCK
 62
     0
100
AcDbTrace
 10
14.16509
 20
1.336957
 30
0.0
 11
14.21509
 21
1.336957
 31
0.0
 12
14.19009
 22
1.486957
 32
0.0
 13
14.19009
 23
1.486957
 33
0.0
  0
SOLID
  5
249
100
AcDbEntity
  8
0
  6
BYBLOCK
 62
     0
100
AcDbTrace
 10
14.16509
 20
1.136957
 30
0.0
 11
14.21509
 21
1.136957
 31
0.0
 12
14.19009
 22
0.986957
 32
0.0
 13
14.19009
 23
0.986957
 33
0.0
  0
MTEXT
  5
24A
100
AcDbEntity
  8
0
  6
BYBLOCK
 62
     0
100
AcDbMText
 10
13.72509
 20
0.229952
 30
0.0
 40
0.15
 41
0.0
 71
     5
 72
     1
  1
\A1;.50\PTYP.
  0
POINT
  5
24B
100
AcDbEntity
  8
DEFPOINTS
  6
BYBLOCK
 62
     0
100
AcDbPoint
 10
13.491355
 20
0.986957
 30
0.0
  0
POINT
  5
24C
100
AcDbEntity
  8
DEFPOINTS
  6
BYBLOCK
 62
     0
100
AcDbPoint
 10
13.366355
 20
1.486957
 30
0.0
  0
POINT
  5
24D
100
AcDbEntity
  8
DEFPOINTS
  6
BYBLOCK
 62
     0
100
AcDbPoint
 10
14.19009
 20
1.486957
 30
0.0
  0
ENDBLK
  5
24E
100
AcDbEntity
  8
0
100
AcDbBlockEnd
  0
BLOCK
  5
26D
100
AcDbEntity
  8
0
100
AcDbBlockBegin
  2
*D5
 70
     1
 10
0.0
 20
0.0
 30
0.0
  3
*D5
  1

  0
LINE
  5
26E
100
AcDbEntity
  8
0
  6
BYBLOCK
 62
     0
100
AcDbLine
 10
11.523355
 20
-1.075543
 30
0.0
 11
11.523355
 21
-1.861412
 31
0.0
  0
LINE
  5
26F
100
AcDbEntity
  8
0
  6
BYBLOCK
 62
     0
100
AcDbLine
 10
11.709355
 20
-1.075543
 30
0.0
 11
11.709355
 21
-1.861412
 31
0.0
  0
LINE
  5
270
100
AcDbEntity
  8
0
  6
BYBLOCK
 62
     0
100
AcDbLine
 10
11.373355
 20
-1.681412
 30
0.0
 11
11.223355
 21
-1.681412
 31
0.0
  0
LINE
  5
271
100
AcDbEntity
  8
0
  6
BYBLOCK
 62
     0
100
AcDbLine
 10
11.859355
 20
-1.681412
 30
0.0
 11
12.009355
 21
-1.681412
 31
0.0
  0
SOLID
  5
272
100
AcDbEntity
  8
0
  6
BYBLOCK
 62
     0
100
AcDbTrace
 10
11.373355
 20
-1.656412
 30
0.0
 11
11.373355
 21
-1.706412
 31
0.0
 12
11.523355
 22
-1.681412
 32
0.0
 13
11.523355
 23
-1.681412
 33
0.0
  0
SOLID
  5
273
100
AcDbEntity
  8
0
  6
BYBLOCK
 62
     0
100
AcDbTrace
 10
11.859355
 20
-1.656412
 30
0.0
 11
11.859355
 21
-1.706412
 31
0.0
 12
11.709355
 22
-1.681412
 32
0.0
 13
11.709355
 23
-1.681412
 33
0.0
  0
MTEXT
  5
274
100
AcDbEntity
  8
0
  6
BYBLOCK
 62
     0
100
AcDbMText
 10
12.761855
 20
-1.681412
 30
0.0
 40
0.15
 41
0.0
 71
     5
 72
     1
  1
\A1;.187 X .093\PKEYWAY\PTYP.
  0
POINT
  5
275
100
AcDbEntity
  8
DEFPOINTS
  6
BYBLOCK
 62
     0
100
AcDbPoint
 10
11.523355
 20
-1.013043
 30
0.0
  0
POINT
  5
276
100
AcDbEntity
  8
DEFPOINTS
  6
BYBLOCK
 62
     0
100
AcDbPoint
 10
11.709355
 20
-1.013043
 30
0.0
  0
POINT
  5
277
100
AcDbEntity
  8
DEFPOINTS
  6
BYBLOCK
 62
     0
100
AcDbPoint
 10
11.709355
 20
-1.681412
 30
0.0
  0
ENDBLK
  5
278
100
AcDbEntity
  8
0
100
AcDbBlockEnd
  0
BLOCK
  5
2AF
100
AcDbEntity
  8
0
100
AcDbBlockBegin
  2
*D6
 70
     1
 10
0.0
 20
0.0
 30
0.0
  3
*D6
  1

  0
LINE
  5
2B0
100
AcDbEntity
  8
0
  6
BYBLOCK
 62
     0
100
AcDbLine
 10
8.616355
 20
7.924457
 30
0.0
 11
8.616355
 21
8.738486
 31
0.0
  0
LINE
  5
2B1
100
AcDbEntity
  8
0
  6
BYBLOCK
 62
     0
100
AcDbLine
 10
11.616355
 20
8.160073
 30
0.0
 11
11.616355
 21
8.738486
 31
0.0
  0
LINE
  5
2B2
100
AcDbEntity
  8
0
  6
BYBLOCK
 62
     0
100
AcDbLine
 10
8.766355
 20
8.558486
 30
0.0
 11
9.763855
 21
8.558486
 31
0.0
  0
LINE
  5
2B3
100
AcDbEntity
  8
0
  6
BYBLOCK
 62
     0
100
AcDbLine
 10
11.466355
 20
8.558486
 30
0.0
 11
10.468855
 21
8.558486
 31
0.0
  0
SOLID
  5
2B4
100
AcDbEntity
  8
0
  6
BYBLOCK
 62
     0
100
AcDbTrace
 10
8.766355
 20
8.583486
 30
0.0
 11
8.766355
 21
8.533486
 31
0.0
 12
8.616355
 22
8.558486
 32
0.0
 13
8.616355
 23
8.558486
 33
0.0
  0
SOLID
  5
2B5
100
AcDbEntity
  8
0
  6
BYBLOCK
 62
     0
100
AcDbTrace
 10
11.466355
 20
8.583486
 30
0.0
 11
11.466355
 21
8.533486
 31
0.0
 12
11.616355
 22
8.558486
 32
0.0
 13
11.616355
 23
8.558486
 33
0.0
  0
MTEXT
  5
2B6
100
AcDbEntity
  8
0
  6
BYBLOCK
 62
     0
100
AcDbMText
 10
10.116355
 20
8.558486
 30
0.0
 40
0.15
 41
0.0
 71
     5
 72
     1
  1
\A1;3.000\PTYP.
  0
POINT
  5
2B7
100
AcDbEntity
  8
DEFPOINTS
  6
BYBLOCK
 62
     0
100
AcDbPoint
 10
8.616355
 20
7.861957
 30
0.0
  0
POINT
  5
2B8
100
AcDbEntity
  8
DEFPOINTS
  6
BYBLOCK
 62
     0
100
AcDbPoint
 10
11.616355
 20
8.097573
 30
0.0
  0
POINT
  5
2B9
100
AcDbEntity
  8
DEFPOINTS
  6
BYBLOCK
 62
     0
100
AcDbPoint
 10
11.616355
 20
8.558486
 30
0.0
  0
ENDBLK
  5
2BA
100
AcDbEntity
  8
0
100
AcDbBlockEnd
  0
BLOCK
  5
2BB
100
AcDbEntity
  8
0
100
AcDbBlockBegin
  2
*D7
 70
     1
 10
0.0
 20
0.0
 30
0.0
  3
*D7
  1

  0
LINE
  5
2BC
100
AcDbEntity
  8
0
  6
BYBLOCK
 62
     0
100
AcDbLine
 10
13.116355
 20
7.717574
 30
0.0
 11
13.116355
 21
8.738486
 31
0.0
  0
LINE
  5
2BD
100
AcDbEntity
  8
0
  6
BYBLOCK
 62
     0
100
AcDbLine
 10
11.766355
 20
8.558486
 30
0.0
 11
12.026355
 21
8.558486
 31
0.0
  0
LINE
  5
2BE
100
AcDbEntity
  8
0
  6
BYBLOCK
 62
     0
100
AcDbLine
 10
12.966355
 20
8.558486
 30
0.0
 11
12.706355
 21
8.558486
 31
0.0
  0
SOLID
  5
2BF
100
AcDbEntity
  8
0
  6
BYBLOCK
 62
     0
100
AcDbTrace
 10
11.766355
 20
8.583486
 30
0.0
 11
11.766355
 21
8.533486
 31
0.0
 12
11.616355
 22
8.558486
 32
0.0
 13
11.616355
 23
8.558486
 33
0.0
  0
SOLID
  5
2C0
100
AcDbEntity
  8
0
  6
BYBLOCK
 62
     0
100
AcDbTrace
 10
12.966355
 20
8.583486
 30
0.0
 11
12.966355
 21
8.533486
 31
0.0
 12
13.116355
 22
8.558486
 32
0.0
 13
13.116355
 23
8.558486
 33
0.0
  0
MTEXT
  5
2C1
100
AcDbEntity
  8
0
  6
BYBLOCK
 62
     0
100
AcDbMText
 10
12.366355
 20
8.558486
 30
0.0
 40
0.15
 41
0.0
 71
     5
 72
     1
  1
\A1;1.500\PTYP.
  0
POINT
  5
2C2
100
AcDbEntity
  8
DEFPOINTS
  6
BYBLOCK
 62
     0
100
AcDbPoint
 10
11.616355
 20
8.097573
 30
0.0
  0
POINT
  5
2C3
100
AcDbEntity
  8
DEFPOINTS
  6
BYBLOCK
 62
     0
100
AcDbPoint
 10
13.116355
 20
7.655074
 30
0.0
  0
POINT
  5
2C4
100
AcDbEntity
  8
DEFPOINTS
  6
BYBLOCK
 62
     0
100
AcDbPoint
 10
13.116355
 20
8.558486
 30
0.0
  0
ENDBLK
  5
2C5
100
AcDbEntity
  8
0
100
AcDbBlockEnd
  0
BLOCK
  5
2A3
100
AcDbEntity
  8
0
100
AcDbBlockBegin
  2
*D8
 70
     1
 10
0.0
 20
0.0
 30
0.0
  3
*D8
  1

  0
LINE
  5
2A4
100
AcDbEntity
  8
0
  6
BYBLOCK
 62
     0
100
AcDbLine
 10
6.616355
 20
6.394457
 30
0.0
 11
6.616355
 21
9.452897
 31
0.0
  0
LINE
  5
2A5
100
AcDbEntity
  8
0
  6
BYBLOCK
 62
     0
100
AcDbLine
 10
13.960355
 20
7.174457
 30
0.0
 11
13.960355
 21
9.452897
 31
0.0
  0
LINE
  5
2A6
100
AcDbEntity
  8
0
  6
BYBLOCK
 62
     0
100
AcDbLine
 10
6.766355
 20
9.272897
 30
0.0
 11
9.973355
 21
9.272897
 31
0.0
  0
LINE
  5
2A7
100
AcDbEntity
  8
0
  6
BYBLOCK
 62
     0
100
AcDbLine
 10
13.810355
 20
9.272897
 30
0.0
 11
10.603355
 21
9.272897
 31
0.0
  0
SOLID
  5
2A8
100
AcDbEntity
  8
0
  6
BYBLOCK
 62
     0
100
AcDbTrace
 10
6.766355
 20
9.297897
 30
0.0
 11
6.766355
 21
9.247897
 31
0.0
 12
6.616355
 22
9.272897
 32
0.0
 13
6.616355
 23
9.272897
 33
0.0
  0
SOLID
  5
2A9
100
AcDbEntity
  8
0
  6
BYBLOCK
 62
     0
100
AcDbTrace
 10
13.810355
 20
9.297897
 30
0.0
 11
13.810355
 21
9.247897
 31
0.0
 12
13.960355
 22
9.272897
 32
0.0
 13
13.960355
 23
9.272897
 33
0.0
  0
MTEXT
  5
2AA
100
AcDbEntity
  8
0
  6
BYBLOCK
 62
     0
100
AcDbMText
 10
10.288355
 20
9.272897
 30
0.0
 40
0.15
 41
0.0
 71
     5
 72
     1
  1
\A1;7.34
  0
POINT
  5
2AB
100
AcDbEntity
  8
DEFPOINTS
  6
BYBLOCK
 62
     0
100
AcDbPoint
 10
6.616355
 20
6.331957
 30
0.0
  0
POINT
  5
2AC
100
AcDbEntity
  8
DEFPOINTS
  6
BYBLOCK
 62
     0
100
AcDbPoint
 10
13.960355
 20
7.111957
 30
0.0
  0
POINT
  5
2AD
100
AcDbEntity
  8
DEFPOINTS
  6
BYBLOCK
 62
     0
100
AcDbPoint
 10
13.960355
 20
9.272897
 30
0.0
  0
ENDBLK
  5
2AE
100
AcDbEntity
  8
0
100
AcDbBlockEnd
  0
BLOCK
  5
2D4
100
AcDbEntity
  8
0
100
AcDbBlockBegin
  2
*D9
 70
     1
 10
0.0
 20
0.0
 30
0.0
  3
*D9
  1

  0
LINE
  5
2D5
100
AcDbEntity
  8
0
  6
BYBLOCK
 62
     0
100
AcDbLine
 10
11.208855
 20
-1.013043
 30
0.0
 11
8.983467
 21
-1.013043
 31
0.0
  0
LINE
  5
2D6
100
AcDbEntity
  8
0
  6
BYBLOCK
 62
     0
100
AcDbLine
 10
9.678855
 20
0.986957
 30
0.0
 11
8.983467
 21
0.986957
 31
0.0
  0
LINE
  5
2D7
100
AcDbEntity
  8
0
  6
BYBLOCK
 62
     0
100
AcDbLine
 10
9.163467
 20
-0.863043
 30
0.0
 11
9.163467
 21
-0.303043
 31
0.0
  0
LINE
  5
2D8
100
AcDbEntity
  8
0
  6
BYBLOCK
 62
     0
100
AcDbLine
 10
9.163467
 20
0.836957
 30
0.0
 11
9.163467
 21
0.276957
 31
0.0
  0
SOLID
  5
2D9
100
AcDbEntity
  8
0
  6
BYBLOCK
 62
     0
100
AcDbTrace
 10
9.138467
 20
-0.863043
 30
0.0
 11
9.188467
 21
-0.863043
 31
0.0
 12
9.163467
 22
-1.013043
 32
0.0
 13
9.163467
 23
-1.013043
 33
0.0
  0
SOLID
  5
2DA
100
AcDbEntity
  8
0
  6
BYBLOCK
 62
     0
100
AcDbTrace
 10
9.138467
 20
0.836957
 30
0.0
 11
9.188467
 21
0.836957
 31
0.0
 12
9.163467
 22
0.986957
 32
0.0
 13
9.163467
 23
0.986957
 33
0.0
  0
MTEXT
  5
2DB
100
AcDbEntity
  8
0
  6
BYBLOCK
 62
     0
100
AcDbMText
 10
9.163467
 20
-0.013043
 30
0.0
 40
0.15
 41
0.0
 71
     5
 72
     1
  1
\A1;2.000\PTYP.
  0
POINT
  5
2DC
100
AcDbEntity
  8
DEFPOINTS
  6
BYBLOCK
 62
     0
100
AcDbPoint
 10
11.271355
 20
-1.013043
 30
0.0
  0
POINT
  5
2DD
100
AcDbEntity
  8
DEFPOINTS
  6
BYBLOCK
 62
     0
100
AcDbPoint
 10
9.741355
 20
0.986957
 30
0.0
  0
POINT
  5
2DE
100
AcDbEntity
  8
DEFPOINTS
  6
BYBLOCK
 62
     0
100
AcDbPoint
 10
9.163467
 20
0.986957
 30
0.0
  0
ENDBLK
  5
2DF
100
AcDbEntity
  8
0
100
AcDbBlockEnd
  0
BLOCK
  5
2EF
100
AcDbEntity
  8
0
100
AcDbBlockBegin
  2
*D10
 70
     1
 10
0.0
 20
0.0
 30
0.0
  3
*D10
  1

  0
LINE
  5
2F0
100
AcDbEntity
  8
0
  6
BYBLOCK
 62
     0
100
AcDbLine
 10
0.653914
 20
0.986957
 30
0.0
 11
-0.31831
 21
0.986957
 31
0.0
  0
LINE
  5
2F1
100
AcDbEntity
  8
0
  6
BYBLOCK
 62
     0
100
AcDbLine
 10
0.446873
 20
5.986957
 30
0.0
 11
-0.31831
 21
5.986957
 31
0.0
  0
LINE
  5
2F2
100
AcDbEntity
  8
0
  6
BYBLOCK
 62
     0
100
AcDbLine
 10
-0.13831
 20
1.136957
 30
0.0
 11
-0.13831
 21
3.321957
 31
0.0
  0
LINE
  5
2F3
100
AcDbEntity
  8
0
  6
BYBLOCK
 62
     0
100
AcDbLine
 10
-0.13831
 20
5.836957
 30
0.0
 11
-0.13831
 21
3.651957
 31
0.0
  0
SOLID
  5
2F4
100
AcDbEntity
  8
0
  6
BYBLOCK
 62
     0
100
AcDbTrace
 10
-0.16331
 20
1.136957
 30
0.0
 11
-0.11331
 21
1.136957
 31
0.0
 12
-0.13831
 22
0.986957
 32
0.0
 13
-0.13831
 23
0.986957
 33
0.0
  0
SOLID
  5
2F5
100
AcDbEntity
  8
0
  6
BYBLOCK
 62
     0
100
AcDbTrace
 10
-0.16331
 20
5.836957
 30
0.0
 11
-0.11331
 21
5.836957
 31
0.0
 12
-0.13831
 22
5.986957
 32
0.0
 13
-0.13831
 23
5.986957
 33
0.0
  0
MTEXT
  5
2F6
100
AcDbEntity
  8
0
  6
BYBLOCK
 62
     0
100
AcDbMText
 10
-0.13831
 20
3.486957
 30
0.0
 40
0.15
 41
0.0
 71
     5
 72
     1
  1
\A1;5.000
  0
POINT
  5
2F7
100
AcDbEntity
  8
DEFPOINTS
  6
BYBLOCK
 62
     0
100
AcDbPoint
 10
0.716414
 20
0.986957
 30
0.0
  0
POINT
  5
2F8
100
AcDbEntity
  8
DEFPOINTS
  6
BYBLOCK
 62
     0
100
AcDbPoint
 10
0.509373
 20
5.986957
 30
0.0
  0
POINT
  5
2F9
100
AcDbEntity
  8
DEFPOINTS
  6
BYBLOCK
 62
     0
100
AcDbPoint
 10
-0.13831
 20
5.986957
 30
0.0
  0
ENDBLK
  5
2FA
100
AcDbEntity
  8
0
100
AcDbBlockEnd
  0
BLOCK
  5
316
100
AcDbEntity
  8
0
100
AcDbBlockBegin
  2
*D11
 70
     1
 10
0.0
 20
0.0
 30
0.0
  3
*D11
  1

  0
LINE
  5
317
100
AcDbEntity
  8
0
  6
BYBLOCK
 62
     0
100
AcDbLine
 10
1.746414
 20
-1.013043
 30
0.0
 11
-1.232587
 21
-1.013043
 31
0.0
  0
LINE
  5
318
100
AcDbEntity
  8
0
  6
BYBLOCK
 62
     0
100
AcDbLine
 10
0.591414
 20
7.924457
 30
0.0
 11
-1.232587
 21
7.924457
 31
0.0
  0
LINE
  5
319
100
AcDbEntity
  8
0
  6
BYBLOCK
 62
     0
100
AcDbLine
 10
-1.052587
 20
-0.863043
 30
0.0
 11
-1.052587
 21
4.464223
 31
0.0
  0
LINE
  5
31A
100
AcDbEntity
  8
0
  6
BYBLOCK
 62
     0
100
AcDbLine
 10
-1.052587
 20
7.774457
 30
0.0
 11
-1.052587
 21
4.794223
 31
0.0
  0
SOLID
  5
31B
100
AcDbEntity
  8
0
  6
BYBLOCK
 62
     0
100
AcDbTrace
 10
-1.077587
 20
-0.863043
 30
0.0
 11
-1.027587
 21
-0.863043
 31
0.0
 12
-1.052587
 22
-1.013043
 32
0.0
 13
-1.052587
 23
-1.013043
 33
0.0
  0
SOLID
  5
31C
100
AcDbEntity
  8
0
  6
BYBLOCK
 62
     0
100
AcDbTrace
 10
-1.077587
 20
7.774457
 30
0.0
 11
-1.027587
 21
7.774457
 31
0.0
 12
-1.052587
 22
7.924457
 32
0.0
 13
-1.052587
 23
7.924457
 33
0.0
  0
MTEXT
  5
31D
100
AcDbEntity
  8
0
  6
BYBLOCK
 62
     0
100
AcDbMText
 10
-1.052587
 20
4.629223
 30
0.0
 40
0.15
 41
0.0
 71
     5
 72
     1
  1
\A1;8.94
  0
POINT
  5
31E
100
AcDbEntity
  8
DEFPOINTS
  6
BYBLOCK
 62
     0
100
AcDbPoint
 10
1.808914
 20
-1.013043
 30
0.0
  0
POINT
  5
31F
100
AcDbEntity
  8
DEFPOINTS
  6
BYBLOCK
 62
     0
100
AcDbPoint
 10
0.653914
 20
7.924457
 30
0.0
  0
POINT
  5
320
100
AcDbEntity
  8
DEFPOINTS
  6
BYBLOCK
 62
     0
100
AcDbPoint
 10
-1.052587
 20
7.924457
 30
0.0
  0
ENDBLK
  5
321
100
AcDbEntity
  8
0
100
AcDbBlockEnd
  0
BLOCK
  5
364
100
AcDbEntity
  8
0
100
AcDbBlockBegin
  2
*D12
 70
     1
 10
0.0
 20
0.0
 30
0.0
  3
*D12
  1

  0
LINE
  5
365
100
AcDbEntity
  8
0
  6
BYBLOCK
 62
     0
100
AcDbLine
 10
2.153914
 20
8.191193
 30
0.0
 11
2.153914
 21
8.817865
 31
0.0
  0
LINE
  5
366
100
AcDbEntity
  8
0
  6
BYBLOCK
 62
     0
100
AcDbLine
 10
3.278914
 20
8.191193
 30
0.0
 11
3.278914
 21
8.817865
 31
0.0
  0
LINE
  5
367
100
AcDbEntity
  8
0
  6
BYBLOCK
 62
     0
100
AcDbLine
 10
2.303914
 20
8.637865
 30
0.0
 11
3.128914
 21
8.637865
 31
0.0
  0
LINE
  5
368
100
AcDbEntity
  8
0
  6
BYBLOCK
 62
     0
100
AcDbLine
 10
3.278914
 20
8.637865
 30
0.0
 11
3.987649
 21
8.637865
 31
0.0
  0
SOLID
  5
369
100
AcDbEntity
  8
0
  6
BYBLOCK
 62
     0
100
AcDbTrace
 10
2.303914
 20
8.662865
 30
0.0
 11
2.303914
 21
8.612865
 31
0.0
 12
2.153914
 22
8.637865
 32
0.0
 13
2.153914
 23
8.637865
 33
0.0
  0
SOLID
  5
36A
100
AcDbEntity
  8
0
  6
BYBLOCK
 62
     0
100
AcDbTrace
 10
3.128914
 20
8.662865
 30
0.0
 11
3.128914
 21
8.612865
 31
0.0
 12
3.278914
 22
8.637865
 32
0.0
 13
3.278914
 23
8.637865
 33
0.0
  0
MTEXT
  5
36B
100
AcDbEntity
  8
0
  6
BYBLOCK
 62
     0
100
AcDbMText
 10
4.327649
 20
8.637865
 30
0.0
 40
0.15
 41
0.0
 71
     5
 72
     1
  1
\A1;1.125\PTYP.
  0
POINT
  5
36C
100
AcDbEntity
  8
DEFPOINTS
  6
BYBLOCK
 62
     0
100
AcDbPoint
 10
2.153914
 20
8.128693
 30
0.0
  0
POINT
  5
36D
100
AcDbEntity
  8
DEFPOINTS
  6
BYBLOCK
 62
     0
100
AcDbPoint
 10
3.278914
 20
8.128693
 30
0.0
  0
POINT
  5
36E
100
AcDbEntity
  8
DEFPOINTS
  6
BYBLOCK
 62
     0
100
AcDbPoint
 10
3.278914
 20
8.637865
 30
0.0
  0
ENDBLK
  5
36F
100
AcDbEntity
  8
0
100
AcDbBlockEnd
  0
BLOCK
  5
34C
100
AcDbEntity
  8
0
100
AcDbBlockBegin
  2
*D13
 70
     1
 10
0.0
 20
0.0
 30
0.0
  3
*D13
  1

  0
LINE
  5
34D
100
AcDbEntity
  8
0
  6
BYBLOCK
 62
     0
100
AcDbLine
 10
0.653914
 20
7.986957
 30
0.0
 11
0.653914
 21
9.299316
 31
0.0
  0
LINE
  5
34E
100
AcDbEntity
  8
0
  6
BYBLOCK
 62
     0
100
AcDbLine
 10
2.153914
 20
8.253693
 30
0.0
 11
2.153914
 21
9.299316
 31
0.0
  0
LINE
  5
34F
100
AcDbEntity
  8
0
  6
BYBLOCK
 62
     0
100
AcDbLine
 10
0.803914
 20
9.119316
 30
0.0
 11
1.063914
 21
9.119316
 31
0.0
  0
LINE
  5
350
100
AcDbEntity
  8
0
  6
BYBLOCK
 62
     0
100
AcDbLine
 10
2.003914
 20
9.119316
 30
0.0
 11
1.743914
 21
9.119316
 31
0.0
  0
SOLID
  5
351
100
AcDbEntity
  8
0
  6
BYBLOCK
 62
     0
100
AcDbTrace
 10
0.803914
 20
9.144316
 30
0.0
 11
0.803914
 21
9.094316
 31
0.0
 12
0.653914
 22
9.119316
 32
0.0
 13
0.653914
 23
9.119316
 33
0.0
  0
SOLID
  5
352
100
AcDbEntity
  8
0
  6
BYBLOCK
 62
     0
100
AcDbTrace
 10
2.003914
 20
9.144316
 30
0.0
 11
2.003914
 21
9.094316
 31
0.0
 12
2.153914
 22
9.119316
 32
0.0
 13
2.153914
 23
9.119316
 33
0.0
  0
MTEXT
  5
353
100
AcDbEntity
  8
0
  6
BYBLOCK
 62
     0
100
AcDbMText
 10
1.403914
 20
9.119316
 30
0.0
 40
0.15
 41
0.0
 71
     5
 72
     1
  1
\A1;1.500
  0
POINT
  5
354
100
AcDbEntity
  8
DEFPOINTS
  6
BYBLOCK
 62
     0
100
AcDbPoint
 10
0.653914
 20
7.924457
 30
0.0
  0
POINT
  5
355
100
AcDbEntity
  8
DEFPOINTS
  6
BYBLOCK
 62
     0
100
AcDbPoint
 10
2.153914
 20
8.191193
 30
0.0
  0
POINT
  5
356
100
AcDbEntity
  8
DEFPOINTS
  6
BYBLOCK
 62
     0
100
AcDbPoint
 10
2.153914
 20
9.119316
 30
0.0
  0
ENDBLK
  5
357
100
AcDbEntity
  8
0
100
AcDbBlockEnd
  0
BLOCK
  5
33F
100
AcDbEntity
  8
0
100
AcDbBlockBegin
  2
*D14
 70
     1
 10
0.0
 20
0.0
 30
0.0
  3
*D14
  1

  0
LINE
  5
340
100
AcDbEntity
  8
0
  6
BYBLOCK
 62
     0
100
AcDbLine
 10
0.653914
 20
7.986957
 30
0.0
 11
0.653914
 21
9.872587
 31
0.0
  0
LINE
  5
341
100
AcDbEntity
  8
0
  6
BYBLOCK
 62
     0
100
AcDbLine
 10
3.653914
 20
7.986957
 30
0.0
 11
3.653914
 21
9.872587
 31
0.0
  0
LINE
  5
342
100
AcDbEntity
  8
0
  6
BYBLOCK
 62
     0
100
AcDbLine
 10
0.803914
 20
9.692587
 30
0.0
 11
1.801414
 21
9.692587
 31
0.0
  0
LINE
  5
343
100
AcDbEntity
  8
0
  6
BYBLOCK
 62
     0
100
AcDbLine
 10
3.503914
 20
9.692587
 30
0.0
 11
2.506414
 21
9.692587
 31
0.0
  0
SOLID
  5
344
100
AcDbEntity
  8
0
  6
BYBLOCK
 62
     0
100
AcDbTrace
 10
0.803914
 20
9.717587
 30
0.0
 11
0.803914
 21
9.667587
 31
0.0
 12
0.653914
 22
9.692587
 32
0.0
 13
0.653914
 23
9.692587
 33
0.0
  0
SOLID
  5
345
100
AcDbEntity
  8
0
  6
BYBLOCK
 62
     0
100
AcDbTrace
 10
3.503914
 20
9.717587
 30
0.0
 11
3.503914
 21
9.667587
 31
0.0
 12
3.653914
 22
9.692587
 32
0.0
 13
3.653914
 23
9.692587
 33
0.0
  0
MTEXT
  5
346
100
AcDbEntity
  8
0
  6
BYBLOCK
 62
     0
100
AcDbMText
 10
2.153914
 20
9.692587
 30
0.0
 40
0.15
 41
0.0
 71
     5
 72
     1
  1
\A1;3.000
  0
POINT
  5
347
100
AcDbEntity
  8
DEFPOINTS
  6
BYBLOCK
 62
     0
100
AcDbPoint
 10
0.653914
 20
7.924457
 30
0.0
  0
POINT
  5
348
100
AcDbEntity
  8
DEFPOINTS
  6
BYBLOCK
 62
     0
100
AcDbPoint
 10
3.653914
 20
7.924457
 30
0.0
  0
POINT
  5
349
100
AcDbEntity
  8
DEFPOINTS
  6
BYBLOCK
 62
     0
100
AcDbPoint
 10
3.653914
 20
9.692587
 30
0.0
  0
ENDBLK
  5
34A
100
AcDbEntity
  8
0
100
AcDbBlockEnd
  0
BLOCK
  5
37E
100
AcDbEntity
  8
0
100
AcDbBlockBegin
  2
*D15
 70
     1
 10
0.0
 20
0.0
 30
0.0
  3
*D15
  1

  0
LINE
  5
37F
100
AcDbEntity
  8
0
  6
BYBLOCK
 62
     0
100
AcDbLine
 10
3.92398
 20
5.986957
 30
0.0
 11
4.533574
 21
5.986957
 31
0.0
  0
LINE
  5
380
100
AcDbEntity
  8
0
  6
BYBLOCK
 62
     0
100
AcDbLine
 10
3.889458
 20
7.486957
 30
0.0
 11
4.533574
 21
7.486957
 31
0.0
  0
LINE
  5
381
100
AcDbEntity
  8
0
  6
BYBLOCK
 62
     0
100
AcDbLine
 10
4.353574
 20
6.136957
 30
0.0
 11
4.353574
 21
6.446957
 31
0.0
  0
LINE
  5
382
100
AcDbEntity
  8
0
  6
BYBLOCK
 62
     0
100
AcDbLine
 10
4.353574
 20
7.336957
 30
0.0
 11
4.353574
 21
7.026957
 31
0.0
  0
SOLID
  5
383
100
AcDbEntity
  8
0
  6
BYBLOCK
 62
     0
100
AcDbTrace
 10
4.328574
 20
6.136957
 30
0.0
 11
4.378574
 21
6.136957
 31
0.0
 12
4.353574
 22
5.986957
 32
0.0
 13
4.353574
 23
5.986957
 33
0.0
  0
SOLID
  5
384
100
AcDbEntity
  8
0
  6
BYBLOCK
 62
     0
100
AcDbTrace
 10
4.328574
 20
7.336957
 30
0.0
 11
4.378574
 21
7.336957
 31
0.0
 12
4.353574
 22
7.486957
 32
0.0
 13
4.353574
 23
7.486957
 33
0.0
  0
MTEXT
  5
385
100
AcDbEntity
  8
0
  6
BYBLOCK
 62
     0
100
AcDbMText
 10
4.353574
 20
6.736957
 30
0.0
 40
0.15
 41
0.0
 71
     5
 72
     1
  1
\A1;1.500\PTYP.
  0
POINT
  5
386
100
AcDbEntity
  8
DEFPOINTS
  6
BYBLOCK
 62
     0
100
AcDbPoint
 10
3.86148
 20
5.986957
 30
0.0
  0
POINT
  5
387
100
AcDbEntity
  8
DEFPOINTS
  6
BYBLOCK
 62
     0
100
AcDbPoint
 10
3.826958
 20
7.486957
 30
0.0
  0
POINT
  5
388
100
AcDbEntity
  8
DEFPOINTS
  6
BYBLOCK
 62
     0
100
AcDbPoint
 10
4.353574
 20
7.486957
 30
0.0
  0
ENDBLK
  5
389
100
AcDbEntity
  8
0
100
AcDbBlockEnd
  0
BLOCK
  5
494
100
AcDbEntity
  8
0
100
AcDbBlockBegin
  2
*D16
 70
     1
 10
0.0
 20
0.0
 30
0.0
  3
*D16
  1

  0
LINE
  5
495
100
AcDbEntity
  8
0
  6
BYBLOCK
 62
     0
100
AcDbLine
 10
4.940837
 20
3.2004
 30
0.0
 11
4.790837
 21
3.2004
 31
0.0
  0
LINE
  5
496
100
AcDbEntity
  8
0
  6
BYBLOCK
 62
     0
100
AcDbLine
 10
4.790837
 20
3.2004
 30
0.0
 11
3.518052
 21
4.283464
 31
0.0
  0
MTEXT
  5
497
100
AcDbEntity
  8
0
  6
BYBLOCK
 62
     0
100
AcDbMText
 10
5.705837
 20
3.2004
 30
0.0
 40
0.15
 41
0.0
 71
     5
 72
     1
  1
\A1;\U+2205.328 THRU\PX 4\PTYP.
  0
SOLID
  5
498
100
AcDbEntity
  8
0
  6
BYBLOCK
 62
     0
100
AcDbTrace
 10
3.534253
 20
4.302504
 30
0.0
 11
3.50185
 21
4.264425
 31
0.0
 12
3.403814
 22
4.380674
 32
0.0
 13
3.403814
 23
4.380674
 33
0.0
  0
LINE
  5
499
100
AcDbEntity
  8
0
  6
BYBLOCK
 62
     0
100
AcDbLine
 10
3.188914
 20
4.486957
 30
0.0
 11
3.368914
 21
4.486957
 31
0.0
  0
LINE
  5
49A
100
AcDbEntity
  8
0
  6
BYBLOCK
 62
     0
100
AcDbLine
 10
3.278914
 20
4.396957
 30
0.0
 11
3.278914
 21
4.576957
 31
0.0
  0
POINT
  5
49B
100
AcDbEntity
  8
DEFPOINTS
  6
BYBLOCK
 62
     0
100
AcDbPoint
 10
3.403814
 20
4.380674
 30
0.0
  0
POINT
  5
49C
100
AcDbEntity
  8
DEFPOINTS
  6
BYBLOCK
 62
     0
100
AcDbPoint
 10
3.154014
 20
4.593239
 30
0.0
  0
ENDBLK
  5
49D
100
AcDbEntity
  8
0
100
AcDbBlockEnd
  0
BLOCK
  5
3CA
100
AcDbEntity
  8
0
100
AcDbBlockBegin
  2
*D17
 70
     1
 10
0.0
 20
0.0
 30
0.0
  3
*D17
  1

  0
LINE
  5
3CB
100
AcDbEntity
  8
0
  6
BYBLOCK
 62
     0
100
AcDbLine
 10
1.778914
 20
-1.045543
 30
0.0
 11
1.778914
 21
-2.099549
 31
0.0
  0
LINE
  5
3CC
100
AcDbEntity
  8
0
  6
BYBLOCK
 62
     0
100
AcDbLine
 10
2.528914
 20
-1.045543
 30
0.0
 11
2.528914
 21
-2.099549
 31
0.0
  0
LINE
  5
3CD
100
AcDbEntity
  8
0
  6
BYBLOCK
 62
     0
100
AcDbLine
 10
2.378914
 20
-1.919549
 30
0.0
 11
1.928914
 21
-1.919549
 31
0.0
  0
LINE
  5
3CE
100
AcDbEntity
  8
0
  6
BYBLOCK
 62
     0
100
AcDbLine
 10
1.778914
 20
-1.919549
 30
0.0
 11
1.210545
 21
-1.919549
 31
0.0
  0
SOLID
  5
3CF
100
AcDbEntity
  8
0
  6
BYBLOCK
 62
     0
100
AcDbTrace
 10
2.378914
 20
-1.894549
 30
0.0
 11
2.378914
 21
-1.944549
 31
0.0
 12
2.528914
 22
-1.919549
 32
0.0
 13
2.528914
 23
-1.919549
 33
0.0
  0
SOLID
  5
3D0
100
AcDbEntity
  8
0
  6
BYBLOCK
 62
     0
100
AcDbTrace
 10
1.928914
 20
-1.894549
 30
0.0
 11
1.928914
 21
-1.944549
 31
0.0
 12
1.778914
 22
-1.919549
 32
0.0
 13
1.778914
 23
-1.919549
 33
0.0
  0
MTEXT
  5
3D1
100
AcDbEntity
  8
0
  6
BYBLOCK
 62
     0
100
AcDbMText
 10
0.833045
 20
-1.919549
 30
0.0
 40
0.15
 41
0.0
 71
     5
 72
     1
  1
\A1;\U+2205.750\PTYP.
  0
POINT
  5
3D2
100
AcDbEntity
  8
DEFPOINTS
  6
BYBLOCK
 62
     0
100
AcDbPoint
 10
1.778914
 20
-0.983043
 30
0.0
  0
POINT
  5
3D3
100
AcDbEntity
  8
DEFPOINTS
  6
BYBLOCK
 62
     0
100
AcDbPoint
 10
2.528914
 20
-0.983043
 30
0.0
  0
POINT
  5
3D4
100
AcDbEntity
  8
DEFPOINTS
  6
BYBLOCK
 62
     0
100
AcDbPoint
 10
2.528914
 20
-1.919549
 30
0.0
  0
ENDBLK
  5
3D5
100
AcDbEntity
  8
0
100
AcDbBlockEnd
  0
BLOCK
  5
400
100
AcDbEntity
  8
0
100
AcDbBlockBegin
  2
*D18
 70
     1
 10
0.0
 20
0.0
 30
0.0
  3
*D18
  1

  0
LINE
  5
401
100
AcDbEntity
  8
0
  6
BYBLOCK
 62
     0
100
AcDbLine
 10
8.392062
 20
7.486957
 30
0.0
 11
5.810704
 21
7.486957
 31
0.0
  0
LINE
  5
402
100
AcDbEntity
  8
0
  6
BYBLOCK
 62
     0
100
AcDbLine
 10
6.358135
 20
5.986957
 30
0.0
 11
5.810704
 21
5.986957
 31
0.0
  0
LINE
  5
403
100
AcDbEntity
  8
0
  6
BYBLOCK
 62
     0
100
AcDbLine
 10
5.990704
 20
7.336957
 30
0.0
 11
5.990704
 21
7.026957
 31
0.0
  0
LINE
  5
404
100
AcDbEntity
  8
0
  6
BYBLOCK
 62
     0
100
AcDbLine
 10
5.990704
 20
6.136957
 30
0.0
 11
5.990704
 21
6.446957
 31
0.0
  0
SOLID
  5
405
100
AcDbEntity
  8
0
  6
BYBLOCK
 62
     0
100
AcDbTrace
 10
5.965704
 20
7.336957
 30
0.0
 11
6.015704
 21
7.336957
 31
0.0
 12
5.990704
 22
7.486957
 32
0.0
 13
5.990704
 23
7.486957
 33
0.0
  0
SOLID
  5
406
100
AcDbEntity
  8
0
  6
BYBLOCK
 62
     0
100
AcDbTrace
 10
5.965704
 20
6.136957
 30
0.0
 11
6.015704
 21
6.136957
 31
0.0
 12
5.990704
 22
5.986957
 32
0.0
 13
5.990704
 23
5.986957
 33
0.0
  0
MTEXT
  5
407
100
AcDbEntity
  8
0
  6
BYBLOCK
 62
     0
100
AcDbMText
 10
5.990704
 20
6.736957
 30
0.0
 40
0.15
 41
0.0
 71
     5
 72
     1
  1
\A1;1.500\PTYP.
  0
POINT
  5
408
100
AcDbEntity
  8
DEFPOINTS
  6
BYBLOCK
 62
     0
100
AcDbPoint
 10
8.454562
 20
7.486957
 30
0.0
  0
POINT
  5
409
100
AcDbEntity
  8
DEFPOINTS
  6
BYBLOCK
 62
     0
100
AcDbPoint
 10
6.420635
 20
5.986957
 30
0.0
  0
POINT
  5
40A
100
AcDbEntity
  8
DEFPOINTS
  6
BYBLOCK
 62
     0
100
AcDbPoint
 10
5.990704
 20
5.986957
 30
0.0
  0
ENDBLK
  5
40B
100
AcDbEntity
  8
0
100
AcDbBlockEnd
  0
BLOCK
  5
472
100
AcDbEntity
  8
0
100
AcDbBlockBegin
  2
*D19
 70
     1
 10
0.0
 20
0.0
 30
0.0
  3
*D19
  1

  0
LINE
  5
473
100
AcDbEntity
  8
0
  6
BYBLOCK
 62
     0
100
AcDbLine
 10
-0.110484
 20
8.985046
 30
0.0
 11
0.039516
 21
8.985046
 31
0.0
  0
LINE
  5
474
100
AcDbEntity
  8
0
  6
BYBLOCK
 62
     0
100
AcDbLine
 10
0.039516
 20
8.985046
 30
0.0
 11
1.571698
 21
5.744256
 31
0.0
  0
MTEXT
  5
475
100
AcDbEntity
  8
0
  6
BYBLOCK
 62
     0
100
AcDbMText
 10
-0.700484
 20
8.985046
 30
0.0
 40
0.15
 41
0.0
 71
     5
 72
     1
  1
\A1;SPANNER\PWRENCH\PHOLES
  0
SOLID
  5
476
100
AcDbEntity
  8
0
  6
BYBLOCK
 62
     0
100
AcDbTrace
 10
1.594299
 20
5.754941
 30
0.0
 11
1.549097
 21
5.733571
 31
0.0
 12
1.635811
 22
5.608648
 32
0.0
 13
1.635811
 23
5.608648
 33
0.0
  0
LINE
  5
477
100
AcDbEntity
  8
0
  6
BYBLOCK
 62
     0
100
AcDbLine
 10
1.585775
 20
5.524119
 30
0.0
 11
1.765775
 21
5.524119
 31
0.0
  0
LINE
  5
478
100
AcDbEntity
  8
0
  6
BYBLOCK
 62
     0
100
AcDbLine
 10
1.675775
 20
5.434119
 30
0.0
 11
1.675775
 21
5.614119
 31
0.0
  0
POINT
  5
479
100
AcDbEntity
  8
DEFPOINTS
  6
BYBLOCK
 62
     0
100
AcDbPoint
 10
1.635811
 20
5.608648
 30
0.0
  0
POINT
  5
47A
100
AcDbEntity
  8
DEFPOINTS
  6
BYBLOCK
 62
     0
100
AcDbPoint
 10
1.715738
 20
5.43959
 30
0.0
  0
ENDBLK
  5
47B
100
AcDbEntity
  8
0
100
AcDbBlockEnd
  0
BLOCK
  5
4BC
100
AcDbEntity
  8
0
100
AcDbBlockBegin
  2
TITLE_BLOCK
 70
     0
 10
0.0
 20
0.0
 30
0.0
  3
TITLE_BLOCK
  1

  0
TEXT
  5
4AE
100
AcDbEntity
  8
DIMS_TEXT
100
AcDbText
 10
-2.625251
 20
-1.013129
 30
0.0
 40
0.2
  1
HAR121   135818(C1)/135817(C2)   1:1
 41
0.7
100
AcDbText
  0
TEXT
  5
4AF
100
AcDbEntity
  8
DIMS_TEXT
100
AcDbText
 10
-2.687755
 20
-0.107889
 30
0.0
 40
0.15
  1
Tel. (508) 278-2422     Fax (508) 278-7863
 41
0.9
100
AcDbText
  0
TEXT
  5
4B0
100
AcDbEntity
  8
DIMS_TEXT
100
AcDbText
 10
-2.413383
 20
0.524379
 30
0.0
 40
0.2
  1
Two Way Right Angle Gear Drive
 41
0.9
100
AcDbText
  0
TEXT
  5
4B1
100
AcDbEntity
  8
DIMS_TEXT
100
AcDbText
 10
-1.826671
 20
0.987066
 30
0.0
 40
0.3
  1
 MITRPAK
 41
1.5
100
AcDbText
  0
LINE
  5
4B2
100
AcDbEntity
  8
DIMS_TEXT
100
AcDbLine
 10
-2.723037
 20
-0.533096
 30
0.0
 11
2.500333
 21
-0.533096
 31
0.0
  0
LINE
  5
4B3
100
AcDbEntity
  8
DIMS_TEXT
100
AcDbLine
 10
-2.723037
 20
-0.199514
 30
0.0
 11
2.500333
 21
-0.199514
 31
0.0
  0
LINE
  5
4B4
100
AcDbEntity
  8
DIMS_TEXT
100
AcDbLine
 10
-2.723037
 20
0.125931
 30
0.0
 11
2.500333
 21
0.125931
 31
0.0
  0
LINE
  5
4B5
100
AcDbEntity
  8
DIMS_TEXT
100
AcDbLine
 10
-2.723037
 20
0.451377
 30
0.0
 11
2.500333
 21
0.451377
 31
0.0
  0
LINE
  5
4B6
100
AcDbEntity
  8
DIMS_TEXT
100
AcDbLine
 10
-2.723037
 20
0.874457
 30
0.0
 11
2.500333
 21
0.874457
 31
0.0
  0
TEXT
  5
4B7
100
AcDbEntity
  8
DIMS_TEXT
100
AcDbText
 10
-2.6334
 20
-0.468007
 30
0.0
 40
0.2
  1
MODEL   PART NUMBER  RATIO
100
AcDbText
  0
LWPOLYLINE
  5
4B8
100
AcDbEntity
  8
DIMS_TEXT
100
AcDbPolyline
 90
        4
 70
     1
 43
0.0
 10
-2.723037
 20
1.39517
 10
2.500333
 20
1.39517
 10
2.500333
 20
-1.143307
 10
-2.723037
 20
-1.143307
  0
TEXT
  5
4B9
100
AcDbEntity
  8
DIMS_TEXT
100
AcDbText
 10
-2.687755
 20
0.215921
 30
0.0
 40
0.15
  1
Uxbridge, MA 01569              U.S.A.
100
AcDbText
  0
LINE
  5
4BA
100
AcDbEntity
  8
DIMS_TEXT
100
AcDbLine
 10
-1.394785
 20
-0.199514
 30
0.0
 11
-1.394785
 21
-1.143307
 31
0.0
  0
LINE
  5
4BB
100
AcDbEntity
  8
DIMS_TEXT
100
AcDbLine
 10
1.294313
 20
-0.199514
 30
0.0
 11
1.294313
 21
-1.143307
 31
0.0
  0
ENDBLK
  5
4BD
100
AcDbEntity
  8
0
100
AcDbBlockEnd
  0
ENDSEC
  0
SECTION
  2
ENTITIES
  0
CIRCLE
  5
F5
100
AcDbEntity
  8
0
100
AcDbCircle
 10
13.116355
 20
4.486957
 30
0.0
 40
0.4375
  0
LINE
  5
F6
100
AcDbEntity
  8
0
100
AcDbLine
 10
9.741355
 20
0.986957
 30
0.0
 11
13.491355
 21
0.986957
 31
0.0
  0
LINE
  5
F7
100
AcDbEntity
  8
CTR_LINES
100
AcDbLine
 10
12.205091
 20
4.486957
 30
0.0
 11
14.170791
 21
4.486957
 31
0.0
  0
LINE
  5
F9
100
AcDbEntity
  8
CTR_LINES
100
AcDbLine
 10
8.454562
 20
7.486957
 30
0.0
 11
12.210125
 21
7.486957
 31
0.0
  0
LINE
  5
FA
100
AcDbEntity
  8
0
100
AcDbLine
 10
12.178855
 20
6.611957
 30
0.0
 11
13.960355
 21
6.611957
 31
0.0
  0
LINE
  5
FB
100
AcDbEntity
  8
0
100
AcDbLine
 10
13.116355
 20
1.486957
 30
0.0
 11
12.366355
 21
1.486957
 31
0.0
  0
ARC
  5
FC
100
AcDbEntity
  8
0
100
AcDbCircle
 10
12.991355
 20
1.611957
 30
0.0
 40
0.125
100
AcDbArc
 50
180.0
 51
270.0
  0
LINE
  5
FD
100
AcDbEntity
  8
0
100
AcDbLine
 10
12.366355
 20
4.049457
 30
0.0
 11
13.116355
 21
4.049457
 31
0.0
  0
LINE
  5
FE
100
AcDbEntity
  8
0
100
AcDbLine
 10
12.16479
 20
7.236957
 30
0.0
 11
13.835355
 21
7.236957
 31
0.0
  0
ARC
  5
FF
100
AcDbEntity
  8
0
100
AcDbCircle
 10
12.991355
 20
3.938521
 30
0.0
 40
0.125
100
AcDbArc
 50
77.160412
 51
180.0
  0
ARC
  5
102
100
AcDbEntity
  8
0
100
AcDbCircle
 10
13.116355
 20
4.486957
 30
0.0
 40
0.4375
100
AcDbArc
 50
225.0
 51
45.0
  0
LINE
  5
106
100
AcDbEntity
  8
0
100
AcDbLine
 10
1.778914
 20
1.611957
 30
0.0
 11
1.778914
 21
3.924457
 31
0.0
  0
LINE
  5
107
100
AcDbEntity
  8
0
100
AcDbLine
 10
2.528914
 20
1.611957
 30
0.0
 11
2.528914
 21
3.924457
 31
0.0
  0
LINE
  5
108
100
AcDbEntity
  8
0
100
AcDbLine
 10
3.591414
 20
1.361957
 30
0.0
 11
3.591414
 21
4.049457
 31
0.0
  0
LINE
  5
109
100
AcDbEntity
  8
0
100
AcDbLine
 10
0.716414
 20
1.361957
 30
0.0
 11
0.716414
 21
4.049457
 31
0.0
  0
LINE
  5
10A
100
AcDbEntity
  8
0
100
AcDbLine
 10
10.991355
 20
3.924457
 30
0.0
 11
10.991355
 21
1.611957
 31
0.0
  0
LINE
  5
10B
100
AcDbEntity
  8
0
100
AcDbLine
 10
12.241355
 20
3.924457
 30
0.0
 11
12.241355
 21
1.611957
 31
0.0
  0
LINE
  5
10C
100
AcDbEntity
  8
0
100
AcDbLine
 10
10.366355
 20
3.938521
 30
0.0
 11
10.366355
 21
1.611957
 31
0.0
  0
LINE
  5
10D
100
AcDbEntity
  8
0
100
AcDbLine
 10
12.866355
 20
3.938521
 30
0.0
 11
12.866355
 21
1.611957
 31
0.0
  0
ARC
  5
10E
100
AcDbEntity
  8
0
100
AcDbCircle
 10
3.466414
 20
1.361957
 30
0.0
 40
0.125
100
AcDbArc
 50
0.0
 51
90.0
  0
LINE
  5
10F
100
AcDbEntity
  8
0
100
AcDbLine
 10
0.716414
 20
0.986957
 30
0.0
 11
3.591414
 21
0.986957
 31
0.0
  0
LINE
  5
110
100
AcDbEntity
  8
0
100
AcDbLine
 10
0.841414
 20
1.486957
 30
0.0
 11
1.403914
 21
1.486957
 31
0.0
  0
ARC
  5
112
100
AcDbEntity
  8
0
100
AcDbCircle
 10
0.841414
 20
1.361957
 30
0.0
 40
0.125
100
AcDbArc
 50
90.0
 51
180.0
  0
LINE
  5
113
100
AcDbEntity
  8
0
100
AcDbLine
 10
0.716414
 20
0.986957
 30
0.0
 11
0.716414
 21
1.361957
 31
0.0
  0
LINE
  5
114
100
AcDbEntity
  8
0
100
AcDbLine
 10
1.653914
 20
1.486957
 30
0.0
 11
2.653914
 21
1.486957
 31
0.0
  0
ARC
  5
116
100
AcDbEntity
  8
0
100
AcDbCircle
 10
1.653914
 20
1.611957
 30
0.0
 40
0.125
100
AcDbArc
 50
270.0
 51
0.0
  0
LINE
  5
117
100
AcDbEntity
  8
0
100
AcDbLine
 10
1.403914
 20
1.486957
 30
0.0
 11
1.653914
 21
1.486957
 31
0.0
  0
LINE
  5
11A
100
AcDbEntity
  8
0
100
AcDbLine
 10
2.903914
 20
1.486957
 30
0.0
 11
3.466414
 21
1.486957
 31
0.0
  0
ARC
  5
11B
100
AcDbEntity
  8
0
100
AcDbCircle
 10
2.653914
 20
1.611957
 30
0.0
 40
0.125
100
AcDbArc
 50
180.0
 51
270.0
  0
LINE
  5
11C
100
AcDbEntity
  8
0
100
AcDbLine
 10
2.653914
 20
1.486957
 30
0.0
 11
2.903914
 21
1.486957
 31
0.0
  0
LINE
  5
11D
100
AcDbEntity
  8
0
100
AcDbLine
 10
3.591414
 20
0.986957
 30
0.0
 11
3.591414
 21
1.361957
 31
0.0
  0
LINE
  5
11E
100
AcDbEntity
  8
0
100
AcDbLine
 10
9.866355
 20
1.486957
 30
0.0
 11
10.866355
 21
1.486957
 31
0.0
  0
ARC
  5
121
100
AcDbEntity
  8
0
100
AcDbCircle
 10
9.866355
 20
1.361957
 30
0.0
 40
0.125
100
AcDbArc
 50
90.0
 51
180.0
  0
LINE
  5
122
100
AcDbEntity
  8
0
100
AcDbLine
 10
9.741355
 20
1.361957
 30
0.0
 11
9.741355
 21
0.986957
 31
0.0
  0
LINE
  5
123
100
AcDbEntity
  8
0
100
AcDbLine
 10
9.866355
 20
1.486957
 30
0.0
 11
10.241355
 21
1.486957
 31
0.0
  0
ARC
  5
124
100
AcDbEntity
  8
0
100
AcDbCircle
 10
10.241355
 20
1.611957
 30
0.0
 40
0.125
100
AcDbArc
 50
270.0
 51
0.0
  0
ARC
  5
125
100
AcDbEntity
  8
0
100
AcDbCircle
 10
10.866355
 20
1.611957
 30
0.0
 40
0.125
100
AcDbArc
 50
270.0
 51
0.0
  0
ARC
  5
126
100
AcDbEntity
  8
0
100
AcDbCircle
 10
12.366355
 20
1.611957
 30
0.0
 40
0.125
100
AcDbArc
 50
180.0
 51
270.0
  0
ARC
  5
129
100
AcDbEntity
  8
0
100
AcDbCircle
 10
3.278914
 20
4.424457
 30
0.0
 40
0.3125
100
AcDbArc
 50
270.0
 51
0.0
  0
ARC
  5
12A
100
AcDbEntity
  8
0
100
AcDbCircle
 10
3.278914
 20
7.549457
 30
0.0
 40
0.3125
100
AcDbArc
 50
0.0
 51
90.0
  0
LINE
  5
12B
100
AcDbEntity
  8
0
100
AcDbLine
 10
0.653914
 20
7.924457
 30
0.0
 11
3.653914
 21
7.924457
 31
0.0
  0
LINE
  5
12C
100
AcDbEntity
  8
0
100
AcDbLine
 10
2.903914
 20
4.049457
 30
0.0
 11
3.653914
 21
4.049457
 31
0.0
  0
LINE
  5
12E
100
AcDbEntity
  8
CTR_LINES
100
AcDbLine
 10
2.881147
 20
7.486957
 30
0.0
 11
3.826958
 21
7.486957
 31
0.0
  0
CIRCLE
  5
130
100
AcDbEntity
  8
0
100
AcDbCircle
 10
2.153914
 20
5.986957
 30
0.0
 40
0.925
  0
LINE
  5
133
100
AcDbEntity
  8
0
100
AcDbLine
 10
1.028914
 20
4.049457
 30
0.0
 11
1.653914
 21
4.049457
 31
0.0
  0
LINE
  5
135
100
AcDbEntity
  8
0
100
AcDbLine
 10
0.653914
 20
4.049457
 30
0.0
 11
1.403914
 21
4.049457
 31
0.0
  0
CIRCLE
  5
136
100
AcDbEntity
  8
0
100
AcDbCircle
 10
1.028914
 20
4.486957
 30
0.0
 40
0.164
  0
LINE
  5
137
100
AcDbEntity
  8
0
100
AcDbLine
 10
1.028914
 20
4.111957
 30
0.0
 11
3.278914
 21
4.111957
 31
0.0
  0
LINE
  5
138
100
AcDbEntity
  8
0
100
AcDbLine
 10
0.716414
 20
4.424457
 30
0.0
 11
0.716414
 21
7.549457
 31
0.0
  0
LINE
  5
139
100
AcDbEntity
  8
0
100
AcDbLine
 10
0.653914
 20
4.049457
 30
0.0
 11
0.653914
 21
5.549457
 31
0.0
  0
ARC
  5
13A
100
AcDbEntity
  8
0
100
AcDbCircle
 10
1.028914
 20
4.424457
 30
0.0
 40
0.3125
100
AcDbArc
 50
180.0
 51
270.0
  0
ARC
  5
13B
100
AcDbEntity
  8
0
100
AcDbCircle
 10
0.656414
 20
5.609457
 30
0.0
 40
0.06
100
AcDbArc
 50
270.0
 51
0.0
  0
LINE
  5
13D
100
AcDbEntity
  8
0
100
AcDbLine
 10
0.656414
 20
5.549457
 30
0.0
 11
0.653914
 21
5.549457
 31
0.0
  0
CIRCLE
  5
13E
100
AcDbEntity
  8
0
100
AcDbCircle
 10
3.278914
 20
4.486957
 30
0.0
 40
0.164
  0
ARC
  5
13F
100
AcDbEntity
  8
0
100
AcDbCircle
 10
1.653914
 20
3.924457
 30
0.0
 40
0.125
100
AcDbArc
 50
0.0
 51
90.0
  0
ARC
  5
140
100
AcDbEntity
  8
0
100
AcDbCircle
 10
2.653914
 20
3.924457
 30
0.0
 40
0.125
100
AcDbArc
 50
90.0
 51
180.0
  0
LINE
  5
141
100
AcDbEntity
  8
0
100
AcDbLine
 10
2.653914
 20
4.049457
 30
0.0
 11
3.278914
 21
4.049457
 31
0.0
  0
CIRCLE
  5
146
100
AcDbEntity
  8
0
100
AcDbCircle
 10
1.028914
 20
7.486957
 30
0.0
 40
0.164
  0
LINE
  5
147
100
AcDbEntity
  8
0
100
AcDbLine
 10
1.028914
 20
7.861957
 30
0.0
 11
3.278914
 21
7.861957
 31
0.0
  0
LINE
  5
148
100
AcDbEntity
  8
0
100
AcDbLine
 10
0.653914
 20
7.049457
 30
0.0
 11
0.653914
 21
7.924457
 31
0.0
  0
ARC
  5
14A
100
AcDbEntity
  8
0
100
AcDbCircle
 10
0.656414
 20
6.989457
 30
0.0
 40
0.06
100
AcDbArc
 50
0.0
 51
90.0
  0
LINE
  5
14B
100
AcDbEntity
  8
0
100
AcDbLine
 10
0.653914
 20
7.049457
 30
0.0
 11
0.656414
 21
7.049457
 31
0.0
  0
ARC
  5
14C
100
AcDbEntity
  8
0
100
AcDbCircle
 10
1.028914
 20
7.549457
 30
0.0
 40
0.3125
100
AcDbArc
 50
90.0
 51
180.0
  0
CIRCLE
  5
150
100
AcDbEntity
  8
0
100
AcDbCircle
 10
3.278914
 20
7.486957
 30
0.0
 40
0.164
  0
LINE
  5
152
100
AcDbEntity
  8
0
100
AcDbLine
 10
3.653914
 20
4.049457
 30
0.0
 11
3.653914
 21
4.924457
 31
0.0
  0
ARC
  5
153
100
AcDbEntity
  8
0
100
AcDbCircle
 10
3.651414
 20
4.984457
 30
0.0
 40
0.06
100
AcDbArc
 50
180.0
 51
270.0
  0
LINE
  5
154
100
AcDbEntity
  8
0
100
AcDbLine
 10
3.651414
 20
4.924457
 30
0.0
 11
3.653914
 21
4.924457
 31
0.0
  0
LINE
  5
156
100
AcDbEntity
  8
0
100
AcDbLine
 10
3.653914
 20
7.049457
 30
0.0
 11
3.653914
 21
7.924457
 31
0.0
  0
ARC
  5
158
100
AcDbEntity
  8
0
100
AcDbCircle
 10
3.651414
 20
6.989457
 30
0.0
 40
0.06
100
AcDbArc
 50
90.0
 51
180.0
  0
LINE
  5
159
100
AcDbEntity
  8
0
100
AcDbLine
 10
3.651414
 20
7.049457
 30
0.0
 11
3.653914
 21
7.049457
 31
0.0
  0
LINE
  5
15A
100
AcDbEntity
  8
0
100
AcDbLine
 10
8.616355
 20
7.861957
 30
0.0
 11
8.616355
 21
4.111957
 31
0.0
  0
LINE
  5
15B
100
AcDbEntity
  8
0
100
AcDbLine
 10
10.116355
 20
4.049457
 30
0.0
 11
10.866355
 21
4.049457
 31
0.0
  0
LINE
  5
15C
100
AcDbEntity
  8
0
100
AcDbLine
 10
9.678855
 20
4.486957
 30
0.0
 11
9.678855
 21
5.236957
 31
0.0
  0
LINE
  5
15D
100
AcDbEntity
  8
0
100
AcDbLine
 10
9.116355
 20
4.236957
 30
0.0
 11
9.116355
 21
4.611957
 31
0.0
  0
LINE
  5
15E
100
AcDbEntity
  8
0
100
AcDbLine
 10
9.116355
 20
5.236957
 30
0.0
 11
9.116355
 21
4.486957
 31
0.0
  0
ARC
  5
15F
100
AcDbEntity
  8
0
100
AcDbCircle
 10
9.56792
 20
4.611957
 30
0.0
 40
0.125
100
AcDbArc
 50
347.160412
 51
90.0
  0
CIRCLE
  5
160
100
AcDbEntity
  8
0
100
AcDbCircle
 10
10.116355
 20
4.486957
 30
0.0
 40
0.4375
  0
CIRCLE
  5
161
100
AcDbEntity
  8
0
100
AcDbCircle
 10
10.116355
 20
4.486957
 30
0.0
 40
0.164
  0
LINE
  5
164
100
AcDbEntity
  8
0
100
AcDbLine
 10
8.616355
 20
4.111957
 30
0.0
 11
8.991355
 21
4.111957
 31
0.0
  0
ARC
  5
165
100
AcDbEntity
  8
0
100
AcDbCircle
 10
8.991355
 20
4.236957
 30
0.0
 40
0.125
100
AcDbArc
 50
270.0
 51
360.0
  0
ARC
  5
166
100
AcDbEntity
  8
0
100
AcDbCircle
 10
10.241355
 20
3.938521
 30
0.0
 40
0.125
100
AcDbArc
 50
0.0
 51
102.839588
  0
LINE
  5
167
100
AcDbEntity
  8
0
100
AcDbLine
 10
9.241355
 20
5.361957
 30
0.0
 11
9.553855
 21
5.361957
 31
0.0
  0
LINE
  5
168
100
AcDbEntity
  8
0
100
AcDbLine
 10
9.241355
 20
4.736957
 30
0.0
 11
9.56792
 21
4.736957
 31
0.0
  0
ARC
  5
169
100
AcDbEntity
  8
0
100
AcDbCircle
 10
9.241355
 20
5.236957
 30
0.0
 40
0.125
100
AcDbArc
 50
90.0
 51
180.0
  0
ARC
  5
16B
100
AcDbEntity
  8
0
100
AcDbCircle
 10
9.241355
 20
4.611957
 30
0.0
 40
0.125
100
AcDbArc
 50
90.0
 51
180.0
  0
ARC
  5
16C
100
AcDbEntity
  8
0
100
AcDbCircle
 10
9.553855
 20
5.236957
 30
0.0
 40
0.125
100
AcDbArc
 50
0.0
 51
90.0
  0
ARC
  5
16E
100
AcDbEntity
  8
0
100
AcDbCircle
 10
10.866355
 20
3.924457
 30
0.0
 40
0.125
100
AcDbArc
 50
0.0
 51
90.0
  0
ARC
  5
16F
100
AcDbEntity
  8
0
100
AcDbCircle
 10
12.366355
 20
3.924457
 30
0.0
 40
0.125
100
AcDbArc
 50
90.0
 51
180.0
  0
LINE
  5
172
100
AcDbEntity
  8
0
100
AcDbLine
 10
9.241355
 20
6.611957
 30
0.0
 11
11.053855
 21
6.611957
 31
0.0
  0
LINE
  5
173
100
AcDbEntity
  8
0
100
AcDbLine
 10
9.241355
 20
7.236957
 30
0.0
 11
11.06792
 21
7.236957
 31
0.0
  0
LINE
  5
174
100
AcDbEntity
  8
0
100
AcDbLine
 10
9.116355
 20
7.486957
 30
0.0
 11
9.116355
 21
6.736957
 31
0.0
  0
ARC
  5
175
100
AcDbEntity
  8
0
100
AcDbCircle
 10
9.241355
 20
6.736957
 30
0.0
 40
0.125
100
AcDbArc
 50
180.0
 51
270.0
  0
ARC
  5
176
100
AcDbEntity
  8
0
100
AcDbCircle
 10
8.991355
 20
7.736957
 30
0.0
 40
0.125
100
AcDbArc
 50
0.0
 51
90.0
  0
LINE
  5
179
100
AcDbEntity
  8
0
100
AcDbLine
 10
9.116355
 20
7.736957
 30
0.0
 11
9.116355
 21
7.361957
 31
0.0
  0
ARC
  5
17A
100
AcDbEntity
  8
0
100
AcDbCircle
 10
9.241355
 20
7.361957
 30
0.0
 40
0.125
100
AcDbArc
 50
180.0
 51
270.0
  0
LINE
  5
17B
100
AcDbEntity
  8
0
100
AcDbLine
 10
8.616355
 20
7.861957
 30
0.0
 11
8.991355
 21
7.861957
 31
0.0
  0
LINE
  5
17C
100
AcDbEntity
  8
0
100
AcDbLine
 10
11.178855
 20
7.486957
 30
0.0
 11
11.178855
 21
6.736957
 31
0.0
  0
LINE
  5
17D
100
AcDbEntity
  8
0
100
AcDbLine
 10
12.053855
 20
7.486957
 30
0.0
 11
12.053855
 21
6.736957
 31
0.0
  0
CIRCLE
  5
17E
100
AcDbEntity
  8
0
100
AcDbCircle
 10
11.616355
 20
7.486957
 30
0.0
 40
0.4375
  0
ARC
  5
17F
100
AcDbEntity
  8
0
100
AcDbCircle
 10
11.053855
 20
6.736957
 30
0.0
 40
0.125
100
AcDbArc
 50
270.0
 51
0.0
  0
ARC
  5
180
100
AcDbEntity
  8
0
100
AcDbCircle
 10
12.178855
 20
6.736957
 30
0.0
 40
0.125
100
AcDbArc
 50
180.0
 51
270.0
  0
CIRCLE
  5
181
100
AcDbEntity
  8
0
100
AcDbCircle
 10
11.616355
 20
7.486957
 30
0.0
 40
0.164
  0
ARC
  5
182
100
AcDbEntity
  8
0
100
AcDbCircle
 10
11.06792
 20
7.361957
 30
0.0
 40
0.125
100
AcDbArc
 50
270.0
 51
12.839588
  0
ARC
  5
183
100
AcDbEntity
  8
0
100
AcDbCircle
 10
12.16479
 20
7.361957
 30
0.0
 40
0.125
100
AcDbArc
 50
167.160412
 51
270.0
  0
LINE
  5
184
100
AcDbEntity
  8
CTR_LINES
100
AcDbLine
 10
13.116355
 20
7.655074
 30
0.0
 11
13.116355
 21
3.676674
 31
0.0
  0
ARC
  5
187
100
AcDbEntity
  8
0
100
AcDbCircle
 10
13.366355
 20
1.361957
 30
0.0
 40
0.125
100
AcDbArc
 50
360.0
 51
90.0
  0
LINE
  5
188
100
AcDbEntity
  8
0
100
AcDbLine
 10
13.491355
 20
1.361957
 30
0.0
 11
13.491355
 21
0.986957
 31
0.0
  0
LINE
  5
189
100
AcDbEntity
  8
0
100
AcDbLine
 10
12.991355
 20
1.486957
 30
0.0
 11
13.366355
 21
1.486957
 31
0.0
  0
LINE
  5
18A
100
AcDbEntity
  8
0
100
AcDbLine
 10
13.960355
 20
7.111957
 30
0.0
 11
13.960355
 21
4.861957
 31
0.0
  0
LINE
  5
18B
100
AcDbEntity
  8
0
100
AcDbLine
 10
13.553855
 20
4.486957
 30
0.0
 11
13.542916
 21
5.236957
 31
0.0
  0
ARC
  5
18C
100
AcDbEntity
  8
0
100
AcDbCircle
 10
13.66479
 20
4.611957
 30
0.0
 40
0.125
100
AcDbArc
 50
90.0
 51
192.839588
  0
CIRCLE
  5
18D
100
AcDbEntity
  8
0
100
AcDbCircle
 10
13.116355
 20
4.486957
 30
0.0
 40
0.164
  0
ARC
  5
18E
100
AcDbEntity
  8
0
100
AcDbCircle
 10
13.667916
 20
5.236957
 30
0.0
 40
0.125
100
AcDbArc
 50
90.0
 51
180.0
  0
LINE
  5
18F
100
AcDbEntity
  8
0
100
AcDbLine
 10
13.66479
 20
4.736957
 30
0.0
 11
13.835355
 21
4.736957
 31
0.0
  0
ARC
  5
190
100
AcDbEntity
  8
0
100
AcDbCircle
 10
13.835355
 20
4.861957
 30
0.0
 40
0.125
100
AcDbArc
 50
270.0
 51
0.0
  0
LINE
  5
191
100
AcDbEntity
  8
0
100
AcDbLine
 10
13.667916
 20
5.361957
 30
0.0
 11
13.960355
 21
5.361957
 31
0.0
  0
ARC
  5
192
100
AcDbEntity
  8
0
100
AcDbCircle
 10
13.835355
 20
7.111957
 30
0.0
 40
0.125
100
AcDbArc
 50
0.0
 51
90.0
  0
LINE
  5
193
100
AcDbEntity
  8
CTR_LINES
100
AcDbLine
 10
0.509373
 20
5.986957
 30
0.0
 11
3.86148
 21
5.986957
 31
0.0
  0
LINE
  5
194
100
AcDbEntity
  8
CTR_LINES
100
AcDbLine
 10
11.616355
 20
8.097573
 30
0.0
 11
11.616355
 21
-1.284517
 31
0.0
  0
LINE
  5
195
100
AcDbEntity
  8
CTR_LINES
100
AcDbLine
 10
3.278914
 20
7.118305
 30
0.0
 11
3.278914
 21
8.128693
 31
0.0
  0
LINE
  5
1C4
100
AcDbEntity
  8
CTR_LINES
100
AcDbLine
 10
2.153914
 20
8.128693
 30
0.0
 11
2.153914
 21
-1.284517
 31
0.0
  0
LINE
  5
1CB
100
AcDbEntity
  8
CTR_LINES
100
AcDbLine
 10
6.420635
 20
5.986957
 30
0.0
 11
14.170791
 21
5.986957
 31
0.0
  0
LINE
  5
1D0
100
AcDbEntity
  8
0
100
AcDbLine
 10
2.528914
 20
0.986957
 30
0.0
 11
2.528914
 21
-0.983043
 31
0.0
  0
LINE
  5
1D1
100
AcDbEntity
  8
0
100
AcDbLine
 10
1.778914
 20
0.986957
 30
0.0
 11
1.778914
 21
-0.983043
 31
0.0
  0
LINE
  5
1D2
100
AcDbEntity
  8
0
100
AcDbLine
 10
6.646355
 20
6.361957
 30
0.0
 11
8.616355
 21
6.361957
 31
0.0
  0
LINE
  5
1D3
100
AcDbEntity
  8
0
100
AcDbLine
 10
6.646355
 20
5.611957
 30
0.0
 11
8.616355
 21
5.611957
 31
0.0
  0
LINE
  5
1D4
100
AcDbEntity
  8
0
100
AcDbLine
 10
11.991355
 20
0.986957
 30
0.0
 11
11.991355
 21
-0.983043
 31
0.0
  0
LINE
  5
1D5
100
AcDbEntity
  8
0
100
AcDbLine
 10
11.241355
 20
0.986957
 30
0.0
 11
11.241355
 21
-0.983043
 31
0.0
  0
LINE
  5
1D6
100
AcDbEntity
  8
0
100
AcDbLine
 10
6.616355
 20
6.331957
 30
0.0
 11
6.616355
 21
5.641957
 31
0.0
  0
LINE
  5
1D7
100
AcDbEntity
  8
0
100
AcDbLine
 10
1.808914
 20
-1.013043
 30
0.0
 11
2.498914
 21
-1.013043
 31
0.0
  0
LINE
  5
1D8
100
AcDbEntity
  8
0
100
AcDbLine
 10
11.271355
 20
-1.013043
 30
0.0
 11
11.961355
 21
-1.013043
 31
0.0
  0
LINE
  5
1D9
100
AcDbEntity
  8
HIDDEN_LINE
100
AcDbLine
 10
2.418914
 20
0.486957
 30
0.0
 11
2.418914
 21
-1.013043
 31
0.0
  0
ARC
  5
1DC
100
AcDbEntity
  8
HIDDEN_LINE
100
AcDbCircle
 10
2.793914
 20
0.486957
 30
0.0
 40
0.375
100
AcDbArc
 50
134.964349
 51
180.0
  0
LINE
  5
1DD
100
AcDbEntity
  8
0
100
AcDbLine
 10
2.528914
 20
-0.983043
 30
0.0
 11
2.498914
 21
-1.013043
 31
0.0
  0
LINE
  5
1DE
100
AcDbEntity
  8
0
100
AcDbLine
 10
1.778914
 20
-0.983043
 30
0.0
 11
1.808914
 21
-1.013043
 31
0.0
  0
LINE
  5
1DF
100
AcDbEntity
  8
0
100
AcDbLine
 10
1.778914
 20
-0.983043
 30
0.0
 11
2.528914
 21
-0.983043
 31
0.0
  0
LINE
  5
1E0
100
AcDbEntity
  8
0
100
AcDbLine
 10
11.523355
 20
0.752287
 30
0.0
 11
11.709355
 21
0.752287
 31
0.0
  0
LINE
  5
1EF
100
AcDbEntity
  8
0
100
AcDbLine
 10
11.991355
 20
-0.983043
 30
0.0
 11
11.961355
 21
-1.013043
 31
0.0
  0
LINE
  5
1F0
100
AcDbEntity
  8
0
100
AcDbLine
 10
11.241355
 20
-0.983043
 30
0.0
 11
11.271355
 21
-1.013043
 31
0.0
  0
LINE
  5
1F1
100
AcDbEntity
  8
0
100
AcDbLine
 10
6.646355
 20
5.611957
 30
0.0
 11
6.616355
 21
5.641957
 31
0.0
  0
LINE
  5
1F2
100
AcDbEntity
  8
0
100
AcDbLine
 10
6.646355
 20
6.361957
 30
0.0
 11
6.616355
 21
6.331957
 31
0.0
  0
LINE
  5
1F3
100
AcDbEntity
  8
0
100
AcDbLine
 10
6.646355
 20
6.361957
 30
0.0
 11
6.646355
 21
6.079957
 31
0.0
  0
LINE
  5
1F4
100
AcDbEntity
  8
0
100
AcDbLine
 10
11.241355
 20
-0.983043
 30
0.0
 11
11.523355
 21
-0.983043
 31
0.0
  0
LINE
  5
1F5
100
AcDbEntity
  8
0
100
AcDbLine
 10
6.616355
 20
6.079957
 30
0.0
 11
8.381655
 21
6.079957
 31
0.0
  0
LINE
  5
1F6
100
AcDbEntity
  8
0
100
AcDbLine
 10
6.616355
 20
5.893957
 30
0.0
 11
8.381655
 21
5.893957
 31
0.0
  0
LINE
  5
1F7
100
AcDbEntity
  8
0
100
AcDbLine
 10
11.709355
 20
0.752287
 30
0.0
 11
11.709355
 21
-1.013043
 31
0.0
  0
LINE
  5
1F8
100
AcDbEntity
  8
0
100
AcDbLine
 10
11.523355
 20
0.752287
 30
0.0
 11
11.523355
 21
-1.013043
 31
0.0
  0
LINE
  5
1F9
100
AcDbEntity
  8
0
100
AcDbLine
 10
11.709355
 20
-0.983043
 30
0.0
 11
11.991355
 21
-0.983043
 31
0.0
  0
LINE
  5
1FA
100
AcDbEntity
  8
0
100
AcDbLine
 10
8.381655
 20
6.079957
 30
0.0
 11
8.381655
 21
5.893957
 31
0.0
  0
LINE
  5
1FB
100
AcDbEntity
  8
0
100
AcDbLine
 10
6.646355
 20
5.893957
 30
0.0
 11
6.646355
 21
5.611957
 31
0.0
  0
CIRCLE
  5
1FC
100
AcDbEntity
  8
0
100
AcDbCircle
 10
2.153914
 20
5.986957
 30
0.0
 40
0.375
  0
ARC
  5
1FD
100
AcDbEntity
  8
0
100
AcDbCircle
 10
2.153914
 20
5.986957
 30
0.0
 40
0.345
100
AcDbArc
 50
15.638396
 51
344.361604
  0
LINE
  5
1FE
100
AcDbEntity
  8
0
100
AcDbLine
 10
2.418914
 20
6.079957
 30
0.0
 11
2.418914
 21
5.893957
 31
0.0
  0
LINE
  5
1FF
100
AcDbEntity
  8
0
100
AcDbLine
 10
2.418914
 20
6.079957
 30
0.0
 11
2.517199
 21
6.079957
 31
0.0
  0
LINE
  5
200
100
AcDbEntity
  8
0
100
AcDbLine
 10
2.418914
 20
5.893957
 30
0.0
 11
2.517199
 21
5.893957
 31
0.0
  0
CIRCLE
  5
201
100
AcDbEntity
  8
0
100
AcDbCircle
 10
2.632053
 20
6.449794
 30
0.0
 40
0.0935
  0
CIRCLE
  5
202
100
AcDbEntity
  8
0
100
AcDbCircle
 10
1.675775
 20
5.524119
 30
0.0
 40
0.0935
  0
DIMENSION
  5
20E
100
AcDbEntity
  8
DIMS_TEXT
100
AcDbDimension
  2
*D3
 10
12.999961
 20
4.602491
 30
0.0
 11
15.128262
 21
3.398151
 31
0.0
 70
   163
  1
<> THRU\PX 3
  3
STANDARD
100
AcDbDiametricDimension
 15
13.23275
 25
4.371422
 35
0.0
 40
0.0
1001
ACAD
1000
DSTYLE
1002
{
1070
    78
1070
     4
1070
   288
1070
     1
1070
   140
1040
0.15
1070
   271
1070
     3
1070
    41
1040
0.15
1002
}
  0
DIMENSION
  5
227
100
AcDbEntity
  8
DIMS_TEXT
100
AcDbDimension
  2
*D4
 10
14.19009
 20
1.486957
 30
0.0
 11
13.72509
 21
0.229952
 31
0.0
 70
   160
  1
.50\PTYP.
  3
STANDARD
100
AcDbAlignedDimension
 13
13.491355
 23
0.986957
 33
0.0
 14
13.366355
 24
1.486957
 34
0.0
 50
90.0
100
AcDbRotatedDimension
1001
ACAD
1000
DSTYLE
1002
{
1070
    78
1070
     4
1070
   140
1040
0.15
1070
   271
1070
     3
1070
    41
1040
0.15
1002
}
  0
DIMENSION
  5
25C
100
AcDbEntity
  8
DIMS_TEXT
100
AcDbDimension
  2
*D5
 10
11.709355
 20
-1.681412
 30
0.0
 11
12.761855
 21
-1.681412
 31
0.0
 70
   160
  1
.187 X .093\PKEYWAY\PTYP.
  3
STANDARD
100
AcDbAlignedDimension
 13
11.523355
 23
-1.013043
 33
0.0
 14
11.709355
 24
-1.013043
 34
0.0
100
AcDbRotatedDimension
1001
ACAD
1000
DSTYLE
1002
{
1070
    78
1070
     4
1070
   140
1040
0.15
1070
   271
1070
     3
1070
    41
1040
0.15
1002
}
  0
DIMENSION
  5
287
100
AcDbEntity
  8
DIMS_TEXT
100
AcDbDimension
  2
*D6
 10
11.616355
 20
8.558486
 30
0.0
 11
10.116355
 21
8.558486
 31
0.0
 70
    32
  1
<>\PTYP.
  3
STANDARD
100
AcDbAlignedDimension
 13
8.616355
 23
7.861957
 33
0.0
 14
11.616355
 24
8.097573
 34
0.0
100
AcDbRotatedDimension
1001
ACAD
1000
DSTYLE
1002
{
1070
    78
1070
     4
1070
   140
1040
0.15
1070
   271
1070
     3
1070
    41
1040
0.15
1002
}
  0
DIMENSION
  5
294
100
AcDbEntity
  8
DIMS_TEXT
100
AcDbDimension
  2
*D7
 10
13.116355
 20
8.558486
 30
0.0
 11
12.366355
 21
8.558486
 31
0.0
 70
    32
  1
<>\PTYP.
  3
STANDARD
100
AcDbAlignedDimension
 13
11.616355
 23
8.097573
 33
0.0
 14
13.116355
 24
7.655074
 34
0.0
100
AcDbRotatedDimension
1001
ACAD
1000
DSTYLE
1002
{
1070
    78
1070
     4
1070
   140
1040
0.15
1070
    75
1070
     1
1070
   287
1070
     4
1070
   271
1070
     3
1070
    41
1040
0.15
1002
}
  0
DIMENSION
  5
2A2
100
AcDbEntity
  8
DIMS_TEXT
100
AcDbDimension
  2
*D8
 10
13.960355
 20
9.272897
 30
0.0
 11
10.288355
 21
9.272897
 31
0.0
 70
    32
  1
7.34
  3
STANDARD
100
AcDbAlignedDimension
 13
6.616355
 23
6.331957
 33
0.0
 14
13.960355
 24
7.111957
 34
0.0
100
AcDbRotatedDimension
1001
ACAD
1000
DSTYLE
1002
{
1070
    78
1070
     4
1070
   140
1040
0.15
1070
   271
1070
     3
1070
    41
1040
0.15
1002
}
  0
DIMENSION
  5
2D3
100
AcDbEntity
  8
DIMS_TEXT
100
AcDbDimension
  2
*D9
 10
9.163467
 20
0.986957
 30
0.0
 11
9.163467
 21
-0.013043
 31
0.0
 70
    32
  1
<>\PTYP.
  3
STANDARD
100
AcDbAlignedDimension
 13
11.271355
 23
-1.013043
 33
0.0
 14
9.741355
 24
0.986957
 34
0.0
 50
90.0
100
AcDbRotatedDimension
1001
ACAD
1000
DSTYLE
1002
{
1070
    78
1070
     4
1070
   140
1040
0.15
1070
   271
1070
     3
1070
    41
1040
0.15
1002
}
  0
DIMENSION
  5
2FB
100
AcDbEntity
  8
DIMS_TEXT
100
AcDbDimension
  2
*D10
 10
-0.13831
 20
5.986957
 30
0.0
 11
-0.13831
 21
3.486957
 31
0.0
 70
    32
  3
STANDARD
100
AcDbAlignedDimension
 13
0.716414
 23
0.986957
 33
0.0
 14
0.509373
 24
5.986957
 34
0.0
 50
90.0
100
AcDbRotatedDimension
1001
ACAD
1000
DSTYLE
1002
{
1070
    78
1070
     4
1070
   140
1040
0.15
1070
   271
1070
     3
1070
    41
1040
0.15
1002
}
  0
DIMENSION
  5
309
100
AcDbEntity
  8
DIMS_TEXT
100
AcDbDimension
  2
*D11
 10
-1.052587
 20
7.924457
 30
0.0
 11
-1.052587
 21
4.629223
 31
0.0
 70
   160
  1
8.94
  3
STANDARD
100
AcDbAlignedDimension
 13
1.808914
 23
-1.013043
 33
0.0
 14
0.653914
 24
7.924457
 34
0.0
 50
90.0
100
AcDbRotatedDimension
1001
ACAD
1000
DSTYLE
1002
{
1070
    78
1070
     4
1070
   140
1040
0.15
1070
   271
1070
     3
1070
    41
1040
0.15
1002
}
  0
DIMENSION
  5
32F
100
AcDbEntity
  8
DIMS_TEXT
100
AcDbDimension
  2
*D12
 10
3.278914
 20
8.637865
 30
0.0
 11
4.327649
 21
8.637865
 31
0.0
 70
   160
  1
<>\PTYP.
  3
STANDARD
100
AcDbAlignedDimension
 13
2.153914
 23
8.128693
 33
0.0
 14
3.278914
 24
8.128693
 34
0.0
100
AcDbRotatedDimension
1001
ACAD
1000
DSTYLE
1002
{
1070
    78
1070
     4
1070
   140
1040
0.15
1070
   271
1070
     3
1070
    41
1040
0.15
1002
}
  0
DIMENSION
  5
33D
100
AcDbEntity
  8
DIMS_TEXT
100
AcDbDimension
  2
*D13
 10
2.153914
 20
9.119316
 30
0.0
 11
1.403914
 21
9.119316
 31
0.0
 70
   160
  3
STANDARD
100
AcDbAlignedDimension
 13
0.653914
 23
7.924457
 33
0.0
 14
2.153914
 24
8.191193
 34
0.0
100
AcDbRotatedDimension
1001
ACAD
1000
DSTYLE
1002
{
1070
    78
1070
     4
1070
   140
1040
0.15
1070
   271
1070
     3
1070
    41
1040
0.15
1002
}
  0
DIMENSION
  5
34B
100
AcDbEntity
  8
DIMS_TEXT
100
AcDbDimension
  2
*D14
 10
3.653914
 20
9.692587
 30
0.0
 11
2.153914
 21
9.692587
 31
0.0
 70
    32
  3
STANDARD
100
AcDbAlignedDimension
 13
0.653914
 23
7.924457
 33
0.0
 14
3.653914
 24
7.924457
 34
0.0
100
AcDbRotatedDimension
1001
ACAD
1000
DSTYLE
1002
{
1070
    78
1070
     4
1070
   140
1040
0.15
1070
   271
1070
     3
1070
    41
1040
0.15
1002
}
  0
DIMENSION
  5
37D
100
AcDbEntity
  8
DIMS_TEXT
100
AcDbDimension
  2
*D15
 10
4.353574
 20
7.486957
 30
0.0
 11
4.353574
 21
6.736957
 31
0.0
 70
    32
  1
<>\PTYP.
  3
STANDARD
100
AcDbAlignedDimension
 13
3.86148
 23
5.986957
 33
0.0
 14
3.826958
 24
7.486957
 34
0.0
 50
90.0
100
AcDbRotatedDimension
1001
ACAD
1000
DSTYLE
1002
{
1070
    78
1070
     4
1070
   140
1040
0.15
1070
   271
1070
     3
1070
    41
1040
0.15
1002
}
  0
DIMENSION
  5
395
100
AcDbEntity
  8
DIMS_TEXT
100
AcDbDimension
  2
*D16
 10
3.154014
 20
4.593239
 30
0.0
 11
5.705837
 21
3.2004
 31
0.0
 70
   163
  1
<> THRU\PX 4\PTYP.
  3
STANDARD
100
AcDbDiametricDimension
 15
3.403814
 25
4.380674
 35
0.0
 40
0.0
1001
ACAD
1000
DSTYLE
1002
{
1070
    78
1070
     4
1070
   288
1070
     1
1070
   140
1040
0.15
1070
   271
1070
     3
1070
    41
1040
0.15
1002
}
  0
DIMENSION
  5
3AD
100
AcDbEntity
  8
DIMS_TEXT
100
AcDbDimension
  2
*D17
 10
2.528914
 20
-1.919549
 30
0.0
 11
0.833045
 21
-1.919549
 31
0.0
 70
   160
  1
%%C<>\PTYP.
  3
STANDARD
100
AcDbAlignedDimension
 13
1.778914
 23
-0.983043
 33
0.0
 14
2.528914
 24
-0.983043
 34
0.0
100
AcDbRotatedDimension
1001
ACAD
1000
DSTYLE
1002
{
1070
    78
1070
     4
1070
   140
1040
0.15
1070
   271
1070
     3
1070
    41
1040
0.15
1002
}
  0
DIMENSION
  5
3E7
100
AcDbEntity
  8
DIMS_TEXT
100
AcDbDimension
  2
*D18
 10
5.990704
 20
5.986957
 30
0.0
 11
5.990704
 21
6.736957
 31
0.0
 70
    32
  1
<>\PTYP.
  3
STANDARD
100
AcDbAlignedDimension
 13
8.454562
 23
7.486957
 33
0.0
 14
6.420635
 24
5.986957
 34
0.0
 50
90.0
100
AcDbRotatedDimension
1001
ACAD
1000
DSTYLE
1002
{
1070
    78
1070
     4
1070
   140
1040
0.15
1070
   271
1070
     3
1070
    41
1040
0.15
1002
}
  0
ARC
  5
41E
100
AcDbEntity
  8
HIDDEN_LINE
100
AcDbCircle
 10
12.491355
 20
5.111957
 30
0.0
 40
0.4375
100
AcDbArc
 50
45.0
 51
225.0
  0
CIRCLE
  5
41F
100
AcDbEntity
  8
HIDDEN_LINE
100
AcDbCircle
 10
12.491355
 20
5.111957
 30
0.0
 40
0.2
  0
CIRCLE
  5
421
100
AcDbEntity
  8
HIDDEN_LINE
100
AcDbCircle
 10
12.491355
 20
5.111957
 30
0.0
 40
0.1685
  0
LINE
  5
422
100
AcDbEntity
  8
HIDDEN_LINE
100
AcDbLine
 10
12.181996
 20
4.802597
 30
0.0
 11
12.806996
 21
4.177597
 31
0.0
  0
LINE
  5
424
100
AcDbEntity
  8
HIDDEN_LINE
100
AcDbLine
 10
13.425714
 20
4.796316
 30
0.0
 11
12.800714
 21
5.421316
 31
0.0
  0
LEADER
  5
425
100
AcDbEntity
  8
DIMS_TEXT
100
AcDbLeader
  3
STANDARD
 73
     0
 74
     0
 75
     1
 40
0.4
 41
0.55
 76
     3
 10
12.661804
 20
5.219417
 30
0.0
 10
14.595722
 20
5.847461
 30
0.0
 10
14.745722
 20
5.847461
 30
0.0
 77
   256
340
426
1001
ACAD
1000
DSTYLE
1002
{
1070
    78
1070
     4
1070
   140
1040
0.15
1070
   271
1070
     3
1070
    41
1040
0.15
1002
}
  0
MTEXT
  5
426
102
{ACAD_REACTORS
330
425
102
}
100
AcDbEntity
  8
DIMS_TEXT
100
AcDbMText
 10
14.835722
 20
5.847461
 30
0.0
 40
0.15
 41
0.0
 71
     4
 72
     1
  1
\A1;PIPE\PPLUG
  0
LINE
  5
434
100
AcDbEntity
  8
HIDDEN_LINE
100
AcDbLine
 10
8.616355
 20
4.650957
 30
0.0
 11
9.116355
 21
4.650957
 31
0.0
  0
LINE
  5
435
100
AcDbEntity
  8
HIDDEN_LINE
100
AcDbLine
 10
8.616355
 20
4.322957
 30
0.0
 11
9.116355
 21
4.322957
 31
0.0
  0
LINE
  5
436
100
AcDbEntity
  8
HIDDEN_LINE
100
AcDbLine
 10
8.616355
 20
7.650957
 30
0.0
 11
9.116355
 21
7.650957
 31
0.0
  0
LINE
  5
437
100
AcDbEntity
  8
HIDDEN_LINE
100
AcDbLine
 10
8.616355
 20
7.322957
 30
0.0
 11
9.116355
 21
7.322957
 31
0.0
  0
LINE
  5
438
100
AcDbEntity
  8
HIDDEN_LINE
100
AcDbLine
 10
13.280355
 20
1.486957
 30
0.0
 11
13.280355
 21
0.986957
 31
0.0
  0
LINE
  5
439
100
AcDbEntity
  8
HIDDEN_LINE
100
AcDbLine
 10
12.952355
 20
1.486957
 30
0.0
 11
12.952355
 21
0.986957
 31
0.0
  0
LINE
  5
43A
100
AcDbEntity
  8
HIDDEN_LINE
100
AcDbLine
 10
10.280355
 20
1.486957
 30
0.0
 11
10.280355
 21
0.986957
 31
0.0
  0
LINE
  5
43B
100
AcDbEntity
  8
HIDDEN_LINE
100
AcDbLine
 10
9.952355
 20
1.486957
 30
0.0
 11
9.952355
 21
0.986957
 31
0.0
  0
LINE
  5
43D
100
AcDbEntity
  8
HIDDEN_LINE
100
AcDbLine
 10
3.114914
 20
1.486957
 30
0.0
 11
3.114914
 21
0.986957
 31
0.0
  0
LINE
  5
43E
100
AcDbEntity
  8
HIDDEN_LINE
100
AcDbLine
 10
1.192914
 20
1.486957
 30
0.0
 11
1.192914
 21
0.986957
 31
0.0
  0
LINE
  5
43F
100
AcDbEntity
  8
HIDDEN_LINE
100
AcDbLine
 10
0.864914
 20
1.486957
 30
0.0
 11
0.864914
 21
0.986957
 31
0.0
  0
LINE
  5
440
100
AcDbEntity
  8
HIDDEN_LINE
100
AcDbLine
 10
3.442914
 20
1.486957
 30
0.0
 11
3.442914
 21
0.986957
 31
0.0
  0
LINE
  5
447
100
AcDbEntity
  8
HIDDEN_LINE
100
AcDbLine
 10
3.344924
 20
5.216962
 30
0.0
 11
2.528914
 21
4.736957
 31
0.0
  0
LINE
  5
448
100
AcDbEntity
  8
HIDDEN_LINE
100
AcDbLine
 10
2.528914
 20
4.736957
 30
0.0
 11
1.778914
 21
4.736957
 31
0.0
  0
LINE
  5
449
100
AcDbEntity
  8
HIDDEN_LINE
100
AcDbLine
 10
1.778914
 20
4.736957
 30
0.0
 11
0.962904
 21
5.216962
 31
0.0
  0
LINE
  5
44A
100
AcDbEntity
  8
HIDDEN_LINE
100
AcDbLine
 10
3.344924
 20
6.756951
 30
0.0
 11
2.64627
 21
7.167924
 31
0.0
  0
LINE
  5
44B
100
AcDbEntity
  8
HIDDEN_LINE
100
AcDbLine
 10
2.39276
 20
7.236957
 30
0.0
 11
1.915068
 21
7.236957
 31
0.0
  0
LINE
  5
44C
100
AcDbEntity
  8
HIDDEN_LINE
100
AcDbLine
 10
1.661558
 20
7.167924
 30
0.0
 11
0.962904
 21
6.756951
 31
0.0
  0
ARC
  5
44D
100
AcDbEntity
  8
HIDDEN_LINE
100
AcDbCircle
 10
2.39276
 20
6.736957
 30
0.0
 40
0.5
100
AcDbArc
 50
59.534455
 51
90.0
  0
ARC
  5
44E
100
AcDbEntity
  8
HIDDEN_LINE
100
AcDbCircle
 10
1.915068
 20
6.736957
 30
0.0
 40
0.5
100
AcDbArc
 50
90.0
 51
120.465545
  0
ARC
  5
44F
100
AcDbEntity
  8
HIDDEN_LINE
100
AcDbCircle
 10
1.216414
 20
6.325984
 30
0.0
 40
0.5
100
AcDbArc
 50
120.465545
 51
180.0
  0
ARC
  5
450
100
AcDbEntity
  8
HIDDEN_LINE
100
AcDbCircle
 10
1.216414
 20
5.64793
 30
0.0
 40
0.5
100
AcDbArc
 50
180.0
 51
239.534455
  0
ARC
  5
451
100
AcDbEntity
  8
HIDDEN_LINE
100
AcDbCircle
 10
3.091414
 20
5.64793
 30
0.0
 40
0.5
100
AcDbArc
 50
300.465545
 51
0.0
  0
ARC
  5
452
100
AcDbEntity
  8
HIDDEN_LINE
100
AcDbCircle
 10
3.091414
 20
6.325984
 30
0.0
 40
0.5
100
AcDbArc
 50
0.0
 51
59.534455
  0
LINE
  5
453
100
AcDbEntity
  8
0
100
AcDbLine
 10
3.591414
 20
4.424457
 30
0.0
 11
3.591414
 21
7.549457
 31
0.0
  0
LINE
  5
458
100
AcDbEntity
  8
HIDDEN_LINE
100
AcDbLine
 10
3.653914
 20
4.322957
 30
0.0
 11
0.653914
 21
4.322957
 31
0.0
  0
LINE
  5
459
100
AcDbEntity
  8
HIDDEN_LINE
100
AcDbLine
 10
3.653914
 20
4.650957
 30
0.0
 11
0.653914
 21
4.650957
 31
0.0
  0
LINE
  5
45A
100
AcDbEntity
  8
HIDDEN_LINE
100
AcDbLine
 10
3.653914
 20
7.322957
 30
0.0
 11
0.653914
 21
7.322957
 31
0.0
  0
LINE
  5
45B
100
AcDbEntity
  8
HIDDEN_LINE
100
AcDbLine
 10
3.653914
 20
7.650957
 30
0.0
 11
0.653914
 21
7.650957
 31
0.0
  0
LINE
  5
460
100
AcDbEntity
  8
HIDDEN_LINE
100
AcDbLine
 10
0.716414
 20
4.049457
 30
0.0
 11
0.716414
 21
4.424457
 31
0.0
  0
LINE
  5
461
100
AcDbEntity
  8
HIDDEN_LINE
100
AcDbLine
 10
3.591414
 20
4.049457
 30
0.0
 11
3.591414
 21
4.424457
 31
0.0
  0
DIMENSION
  5
471
100
AcDbEntity
  8
DIMS_TEXT
100
AcDbDimension
  2
*D19
 10
1.715738
 20
5.43959
 30
0.0
 11
-0.700484
 21
8.985046
 31
0.0
 70
   163
  1
SPANNER\PWRENCH\PHOLES
  3
STANDARD
100
AcDbDiametricDimension
 15
1.635811
 25
5.608648
 35
0.0
 40
0.0
1001
ACAD
1000
DSTYLE
1002
{
1070
    78
1070
     4
1070
   288
1070
     1
1070
   140
1040
0.15
1070
   271
1070
     3
1070
    41
1040
0.15
1002
}
  0
TEXT
  5
4BF
100
AcDbEntity
  8
DIMS_TEXT
100
AcDbText
 10
14.597812
 20
-3.085057
 30
0.0
 40
0.2
  1
HAR122   135820(C1)/135819(C2)    2:1
 41
0.7
100
AcDbText
  0
TEXT
  5
4C0
100
AcDbEntity
  8
DIMS_TEXT
100
AcDbText
 10
14.433421
 20
-2.179817
 30
0.0
 40
0.15
  1
Tel. (508) 278-2422    Fax (508) 278-7863
 41
0.9
100
AcDbText
  0
TEXT
  5
4C1
100
AcDbEntity
  8
DIMS_TEXT
100
AcDbText
 10
14.467462
 20
-1.54755
 30
0.0
 40
0.2
  1
Two Way Right Angle Gear Drive
 41
0.9
100
AcDbText
  0
TEXT
  5
4C2
100
AcDbEntity
  8
DIMS_TEXT
100
AcDbText
 10
15.294505
 20
-1.084862
 30
0.0
 40
0.3
  1
 MITRPAK
 41
1.5
100
AcDbText
  0
LINE
  5
4C3
100
AcDbEntity
  8
DIMS_TEXT
100
AcDbLine
 10
14.398139
 20
-2.605025
 30
0.0
 11
19.621509
 21
-2.605025
 31
0.0
  0
LINE
  5
4C4
100
AcDbEntity
  8
DIMS_TEXT
100
AcDbLine
 10
14.398139
 20
-2.271443
 30
0.0
 11
19.621509
 21
-2.271443
 31
0.0
  0
LINE
  5
4C5
100
AcDbEntity
  8
DIMS_TEXT
100
AcDbLine
 10
14.398139
 20
-1.945997
 30
0.0
 11
19.621509
 21
-1.945997
 31
0.0
  0
LINE
  5
4C6
100
AcDbEntity
  8
DIMS_TEXT
100
AcDbLine
 10
14.398139
 20
-1.620551
 30
0.0
 11
19.621509
 21
-1.620551
 31
0.0
  0
LINE
  5
4C7
100
AcDbEntity
  8
DIMS_TEXT
100
AcDbLine
 10
14.398139
 20
-1.197472
 30
0.0
 11
19.621509
 21
-1.197472
 31
0.0
  0
TEXT
  5
4C8
100
AcDbEntity
  8
DIMS_TEXT
100
AcDbText
 10
14.53003
 20
-2.539936
 30
0.0
 40
0.19
  1
MODEL   PART NUMBER  RATIO
100
AcDbText
  0
LWPOLYLINE
  5
4C9
100
AcDbEntity
  8
DIMS_TEXT
100
AcDbPolyline
 90
        4
 70
     1
 43
0.0
 10
14.398139
 20
-0.676759
 10
19.621509
 20
-0.676759
 10
19.621509
 20
-3.215235
 10
14.398139
 20
-3.215235
  0
TEXT
  5
4CA
100
AcDbEntity
  8
DIMS_TEXT
100
AcDbText
 10
14.433421
 20
-1.856008
 30
0.0
 40
0.15
  1
Uxbridge, MA 01569              U.S.A.
100
AcDbText
  0
LINE
  5
4CB
100
AcDbEntity
  8
DIMS_TEXT
100
AcDbLine
 10
15.726391
 20
-2.271443
 30
0.0
 11
15.726391
 21
-3.215235
 31
0.0
  0
LINE
  5
4CC
100
AcDbEntity
  8
DIMS_TEXT
100
AcDbLine
 10
18.41549
 20
-2.271443
 30
0.0
 11
18.41549
 21
-3.215235
 31
0.0
  0
VIEWPORT
  5
260
100
AcDbEntity
 67
     1
  8
0
100
AcDbViewport
 10
9.680233
 20
4.5
 30
0.0
 40
19.360465
 41
9.0
 68
    -1
 69
     1
1001
ACAD
1000
MVIEW
1002
{
1070
    16
1010
0.0
1020
0.0
1030
0.0
1010
0.0
1020
0.0
1030
1.0
1040
0.0
1040
9.0
1040
9.680233
1040
4.5
1040
50.0
1040
0.0
1040
0.0
1070
     0
1070
   100
1070
     1
1070
     1
1070
     0
1070
     0
1070
     0
1070
     0
1040
0.0
1040
0.0
1040
0.0
1040
0.5
1040
0.5
1040
0.5
1040
0.5
1070
     0
1002
{
1002
}
1002
}
  0
ENDSEC
  0
SECTION
  2
OBJECTS
  0
DICTIONARY
  5
C
100
AcDbDictionary
  3
ACAD_GROUP
350
D
  3
ACAD_MLINESTYLE
350
1B
  0
DICTIONARY
  5
D
102
{ACAD_REACTORS
330
C
102
}
100
AcDbDictionary
  0
DICTIONARY
  5
1B
102
{ACAD_REACTORS
330
C
102
}
100
AcDbDictionary
  3
STANDARD
350
1C
  0
MLINESTYLE
  5
1C
102
{ACAD_REACTORS
330
1B
102
}
100
AcDbMlineStyle
  2
STANDARD
 70
     0
  3

 62
   256
 51
90.0
 52
90.0
 71
     2
 49
0.5
 62
   256
  6
BYLAYER
 49
-0.5
 62
   256
  6
BYLAYER
  0
ENDSEC
  0
EOF
